#TITLE:Won't Forget These Days (MGD Edit);
#SUBTITLE:;
#ARTIST:Terraformer;
#TITLETRANSLIT:;
#SUBTITLETRANSLIT:;
#ARTISTTRANSLIT:;
#CREDIT:;
#BANNER:forget.jpg;
#BACKGROUND:forget-bg.jpg;
#LYRICSPATH:;
#CDTITLE:;
#MUSIC:forget.ogg;
#OFFSET:0.000;
#SAMPLESTART:60.811;
#SAMPLELENGTH:12.000;
#SELECTABLE:YES;
#BPMS:0.000=177.540;
#STOPS:;
#BGCHANGES:;

//---------------dance-single - Renard----------------
#NOTES:
     dance-single:
     Renard:
     Hard:
     8:
     0.579,0.591,0.129,0.590,0.011:
0000
0000
0000
0000
,
0000
0000
0000
0000
,
0000
0000
0000
0000
,
0000
0000
0000
0000
,
0000
0000
0000
0000
,
0000
0000
0000
0000
,
1000
0001
0100
0010
1000
0100
0010
0001
,
0010
0100
1000
0010
0100
0001
0010
0100
,
1000
0001
0100
0010
1000
0100
1000
0001
,
0010
0001
1000
0010
1000
0001
0100
0001
,
1000
0100
0010
0100
1000
0001
0010
0100
,
0010
0001
1000
0010
0100
0010
1000
0001
,
0010
0100
0010
0001
0100
0010
0100
0001
,
0010
0100
1000
0001
0100
0010
0100
0010
,
2000
0000
3002
0203
,
0320
0000
0000
2030
0000
0000
3200
0000
,
0000
0000
0000
0000
0000
0310
0002
0000
,
0013
0200
0000
2300
0000
3020
0000
2030
,
0000
0000
3000
M000
2000
0000
3002
0000
,
0203
0000
0000
0320
0000
0000
2030
0000
,
0000
0000
0000
0000
,
3200
0000
0000
0320
0000
0032
00M0
0023
,
0000
0000
0230
2300
,
3020
0000
0000
0230
0000
00M0
0302
0000
,
0000
0000
0000
0000
0000
0013
0200
0000
,
1300
0020
M000
0230
0000
0002
0300
0023
,
0000
0000
0032
0023
,
0230
0000
0000
2300
0000
0000
3020
0000
,
0000
0000
0000
0000
,
0230
0000
0000
0302
0000
2003
0000
3200
,
M310
0000
0010
0000
0010
0000
0010
0100
,
1000
0000
0001
0000
0000
0000
0000
0100
0000
0000
0100
0000
0000
0000
0110
0000
,
1001
1000
0000
0001
0100
0000
0110
0000
,
0010
0100
0001
0010
0100
1000
0100
0010
,
0001
0100
0010
0100
0001
0010
0100
1000
,
0001
0010
0100
1000
0010
0100
0010
0100
,
0001
0010
0100
1000
0100
0010
0001
1000
,
0100
0010
0001
0100
0010
0100
0001
0010
,
0100
1000
0100
0010
0001
0010
0100
1000
,
0010
0100
0010
0100
0001
0010
0100
1000
,
0100
0010
0001
1000
0010
1000
0001
0100
,
0001
1000
0100
0010
0001
0010
0000
0011
,
0000
0010
0100
1000
0010
0100
0001
1000
,
0000
1000
0100
0010
0001
0010
0100
1000
,
0000
1000
0010
0100
0001
0010
0100
1000
,
0010
0000
0100
0001
0010
0100
0000
0110
,
0000
0100
1000
0010
1000
0001
0100
0001
,
0000
0010
0001
1000
0010
1000
0000
1001
,
0000
1000
0001
0100
0001
0010
0100
1000
,
0001
0100
0010
1000
1010
0000
1001
0000
,
1100
0000
1000
0100
0000
0100
0010
0000
,
0001
0010
0100
1000
0001
0100
0010
1000
,
0010
1000
0000
1001
0000
1100
0000
1001
,
0000
1000
0100
0010
0001
0000
0001
0010
,
0100
0000
0100
1000
0000
1000
0010
0000
,
0100
0001
0010
0000
0001
1000
0010
0100
,
0001
0000
0001
1000
0000
1000
0100
0000
,
0010
0020
0000
0000
0032
0000
0023
0000
,
0230
0000
0000
2300
0000
0000
3020
0000
,
0000
0000
0000
0230
,
0302
0000
0000
0023
0000
0230
0000
2300
,
0000
0000
3020
0230
,
0302
0000
0000
0023
0000
0000
0032
0000
,
0000
0000
0M00
1000
00M0
1000
0M00
1000
,
00M0
0000
1003
0000
0000
0000
0000
0001
0000
0000
1000
0000
0000
0000
0001
0000
;

//---------------dance-single - Renard----------------
#NOTES:
     dance-single:
     Renard:
     Medium:
     5:
     0.328,0.383,0.011,0.000,0.005:
0000
0000
0000
0000
,
0000
0000
0000
0000
,
0000
0000
0000
0000
,
0000
0000
0000
0000
,
0000
0000
0000
0000
,
0000
0000
0000
0000
,
1000
0001
0000
0100
0000
0010
0000
1000
,
0010
1000
0000
0001
0000
0010
0000
0100
,
1000
0001
0000
1000
0000
0001
0000
0100
,
0001
0010
0000
0001
0000
1000
0000
0010
,
1000
0001
0000
1000
0000
0100
0000
0010
,
0001
0010
0000
0001
0000
0010
0000
0100
,
1000
0001
0000
1000
0000
0001
0000
0100
,
0010
0010
0010
0010
,
1000
0000
0001
0100
,
0010
0000
0000
0010
0000
0000
0010
0000
,
0000
0000
0000
0010
,
1000
0100
0000
1000
0000
0100
0000
0010
,
0000
0000
0001
0001
,
0010
0000
0000
0010
0000
0000
0100
0000
,
0000
0000
0000
0000
,
1000
0000
0000
0010
0000
0100
0000
0001
,
0000
0000
0100
0010
,
1000
0000
0000
0010
0000
0000
1000
0000
,
0000
0000
0000
0000
0000
0010
0100
0000
,
0001
0000
0000
0100
0000
0010
0000
1000
,
0000
0000
0100
0010
,
0001
0000
0000
0010
0000
0000
0100
0000
,
0000
0000
0000
0000
,
1000
0000
0000
0010
0000
0100
0000
0001
,
0100
0000
0100
0010
,
1010
0000
1000
0100
,
0010
0001
0000
0010
0100
0000
1000
0000
,
0001
0000
0001
0000
1000
0010
1000
0000
,
0001
0000
0001
0000
1000
0010
1000
0000
,
0001
0000
0001
0000
1000
0010
1000
0000
,
0001
0001
1000
0000
,
1000
0000
1000
0000
0001
0010
0001
0000
,
1000
0000
1000
0000
0001
0010
0001
0000
,
1000
0000
1000
0000
0001
0010
0001
0000
,
1000
0010
0100
0001
,
1000
0000
0001
0000
0100
0010
0000
1000
,
0000
0010
0100
0001
,
0010
0000
0100
0000
1000
0010
0000
0100
,
0000
0001
0010
0001
,
1000
0000
0100
0000
0010
0001
0000
1000
,
0000
0001
0010
0100
,
1000
0000
0010
0000
0100
0001
0000
1000
,
0000
0001
0010
0100
,
1000
0010
0100
0001
,
1000
0000
0000
0100
0000
0000
0010
0000
,
0000
0001
0010
0100
,
1000
0010
0000
1000
0000
0001
0000
0100
,
0001
0000
0100
0010
,
1000
0000
0000
0100
0000
0000
0010
0000
,
0001
0001
0010
0010
,
0100
0000
0000
1000
0000
0010
0100
0000
,
0001
0000
0100
0010
,
0100
0000
0000
0001
0000
0000
1000
0000
,
0000
0000
0000
0000
0000
0100
0010
0000
,
0001
0000
0000
0010
0000
0100
0000
1000
,
0000
0000
0010
0100
,
0001
0000
0000
1000
0000
0000
0100
0000
,
0000
0000
0000
MM1M
0000
MM1M
0000
MM1M
,
0000
0000
MM1M
0000
0000
0000
0000
MM1M
0000
0000
MM1M
0000
0000
0000
MM1M
0000
;

//---------------dance-single - Renard----------------
#NOTES:
     dance-single:
     Renard:
     Easy:
     2:
     0.248,0.313,0.054,0.279,0.000: // measure 1
0000
0000
0000
0000
,  // measure 2
0000
0000
0000
0000
,  // measure 3
0000
0000
0000
0000
,  // measure 4
0000
0000
0000
0000
,  // measure 5
0000
0000
0000
0000
,  // measure 6
0000
0000
0000
0000
,  // measure 7
1000
1000
1000
1000
,  // measure 8
1000
1000
1000
1000
,  // measure 9
0001
0001
0001
0001
,  // measure 10
1000
1000
0001
0001
,  // measure 11
0010
0010
0010
0010
,  // measure 12
0100
0100
0100
0100
,  // measure 13
0010
0010
0001
0001
,  // measure 14
1000
0001
1000
0000
,  // measure 15
0002
0000
0000
0000
,  // measure 16
0203
0000
0000
0000
,  // measure 17
0320
0000
0000
0000
,  // measure 18
2030
0000
3200
0000
,  // measure 19
0320
0000
0000
0000
,  // measure 20
0032
0000
0000
0000
,  // measure 21
2003
0000
0000
0000
,  // measure 22
3020
0000
0000
0000
,  // measure 23
0230
0000
0000
0000
,  // measure 24
0302
0000
0000
0000
,  // measure 25
2003
0000
0000
0000
,  // measure 26
3200
0000
0320
0000
,  // measure 27
0032
0000
0000
0000
,  // measure 28
2003
0000
0000
0000
,  // measure 29
3020
0000
0000
0000
,  // measure 30
0230
0000
0000
0000
,  // measure 31
0301
0000
0000
0000
,  // measure 32
1001
0000
0000
0000
,  // measure 33
1100
0000
0000
0000
,  // measure 34
1001
0000
0001
0100
,  // measure 35
0001
0000
1000
0000
,  // measure 36
0100
1000
0001
0000
,  // measure 37
1000
0000
0001
0000
,  // measure 38
0011
0000
0001
0010
,  // measure 39
0001
0000
0010
0000
,  // measure 40
1100
0000
1000
0100
,  // measure 41
1000
0000
0001
0000
,  // measure 42
1000
1000
0001
1000
,  // measure 43
0001
0000
1000
0000
,  // measure 44
0001
0010
0001
0000
,  // measure 45
1000
0010
1000
0000
,  // measure 46
0001
0001
1000
0001
,  // measure 47
1000
0000
0001
0000
,  // measure 48
0100
0001
0100
0000
,  // measure 49
0001
1000
0001
0000
,  // measure 50
1000
0000
0100
0000
,  // measure 51
1000
0001
0010
0000
,  // measure 52
0001
1000
0010
0000
,  // measure 53
1000
1000
0001
0000
,  // measure 54
1000
0000
0001
0010
,  // measure 55
0001
0000
0001
0000
,  // measure 56
1000
0000
0010
0000
,  // measure 57
1000
0000
0001
1000
,  // measure 58
0002
0000
0000
0000
,  // measure 59
0203
0000
0000
0000
,  // measure 60
0320
0000
0000
0000
,  // measure 61
2030
0000
3002
0000
,  // measure 62
0023
0000
0000
0000
,  // measure 63
0230
0000
0000
0000
,  // measure 64
2300
0000
0000
0000
0000
0001
0000
0001
,  // measure 65
0000
0001
0000
0001
0000
0001
0000
3001
;
