#TITLE:White and Black;
#SUBTITLE:;
#ARTIST:Omicron Complex;
#TITLETRANSLIT:;
#SUBTITLETRANSLIT:;
#ARTISTTRANSLIT:;
#CREDIT:;
#BANNER:wb.png;
#BACKGROUND:wb-bg.png;
#LYRICSPATH:;
#CDTITLE:;
#MUSIC:wb.ogg;
#OFFSET:0.000;
#SAMPLESTART:21.943;
#SAMPLELENGTH:12.000;
#SELECTABLE:YES;
#BPMS:0.000=175.000;
#STOPS:;
#BGCHANGES:;

//---------------dance-single - Renard----------------
#NOTES:
     dance-single:
     Renard:
     Challenge:
     8:
     0.641,0.599,0.399,0.000,0.000:
0000
0000
0000
0000
,
0000
0000
0000
0000
,
0000
0000
0000
0000
,
0000
0000
0000
0000
,
1001
0000
0110
0000
1000
0010
0100
0001
,
0000
0001
1000
0000
0100
0010
0001
0000
,
0010
0000
0100
0000
1000
0010
0100
0000
,
0001
0000
1000
0000
0001
0100
0001
0000
,
1001
0001
0001
0110
,
0010
0010
1010
0000
,
1100
0100
0100
0110
,
0010
0010
0011
0000
,
0001
0010
0100
1000
0100
0010
0001
1000
,
0010
0100
0001
0100
0010
1000
0100
0000
,
0100
1000
0001
0010
0100
1000
0100
0010
,
0001
1000
0010
0100
0001
1000
1001
0000
,
0001
0000
0100
0000
0001
1000
0100
0010
,
0000
0010
0100
0000
1010
0000
1001
0000
,
1100
0000
1001
0000
0001
0100
0010
1000
,
0000
1000
0010
0000
0100
0001
0100
0000
,
0001
1000
0100
0000
1000
0010
0100
0001
,
0000
0001
1000
0100
0010
0000
0110
0000
,
0100
1000
0010
0000
1010
0000
0010
0100
,
0001
1000
0100
1000
0001
1000
0001
0000
,
0101
0000
1001
0000
1000
0100
0010
0001
,
0000
0001
0010
0100
0000
1000
0001
0100
,
0001
0000
1001
0000
0001
0100
0010
1000
,
0000
0001
0000
1000
0000
0100
0010
0001
,
0010
0000
0100
0000
1000
0010
0100
0001
,
0000
0101
0000
1001
0000
1000
0100
0010
,
0001
0000
0011
0000
0010
0100
1000
0001
,
0000
1001
0000
0101
0000
0001
1000
0000
,
0001
0101
0101
0001
,
1000
0100
1000
0100
1000
0100
1000
0100
,
1000
1001
1001
0001
,
0100
0010
0100
0010
0100
0010
0100
0000
,
1010
1010
1010
0000
,
0001
0100
0001
0100
0001
0100
0001
0100
,
0001
0011
0011
0000
,
0100
0100
0100
0100
,
1000
0001
1000
0001
0100
0010
0100
0010
,
1000
0010
0100
0001
0010
0100
1000
0000
,
0001
1000
0001
1000
0010
0100
0010
0100
,
0010
1000
0100
0010
0001
0010
0100
1000
,
0001
1000
0001
0000
0100
0010
0100
0000
,
0010
1000
0001
1000
0100
1000
0001
1000
,
0001
1000
0100
0010
0001
0010
0100
1000
,
0001
1000
0001
0100
0010
0000
1010
0000
,
1000
0000
0010
0100
0001
0010
0100
1000
,
0000
1000
0001
1000
0010
0100
0001
0010
,
0100
1000
0001
0000
0001
0100
0010
1000
,
0000
1000
0010
0100
0001
0010
0100
1000
,
0001
0100
0001
1000
0001
0000
1001
0000
,
0001
0100
0010
1000
0100
0010
0110
0000
,
0100
1000
0010
1000
0001
0100
0001
0000
,
1000
0100
0010
0001
0010
0100
1000
0000
,
0001
0100
0001
1000
0100
0010
0001
0010
,
0000
0010
0100
1000
0000
1000
0010
0100
,
0001
0100
0001
1000
0001
0010
0001
0010
,
0000
0010
0001
1000
0001
0000
1001
0000
,
0001
0100
0001
1000
0001
0010
0001
1000
,
0000
1000
0100
1000
0000
1000
0010
1000
,
0001
1000
0100
0010
0001
0010
0100
1000
,
0000
1000
0001
0100
0010
0000
1010
0000
,
0010
1000
0010
1000
0001
1000
0100
1000
,
0001
0010
0001
1000
0000
1000
0001
0100
,
0010
0000
0010
1000
0100
0000
0010
0001
,
0000
0001
0010
0100
1000
0001
0100
0000
,
0110
0000
0010
1000
0100
0000
0100
1000
,
0001
0000
0001
0010
0000
0010
0001
0010
,
0100
1000
0001
0000
0001
0100
0010
1000
,
0000
1000
0010
0100
0001
0010
0100
1000
,
1001
1001
1001
0000
;

//---------------dance-single - Renard----------------
#NOTES:
     dance-single:
     Renard:
     Hard:
     7:
     0.461,0.494,0.214,0.000,0.000:
0000
0000
0000
0000
,
0000
0000
0000
0000
,
0000
0000
0000
0000
,
0000
0000
0000
0000
,
0001
0000
1000
0000
0010
0000
0100
0010
,
0000
1000
1000
0000
,
0010
0100
0001
0000
,
1000
0100
1000
1001
,
0001
0100
0001
0000
,
1000
0001
0100
0000
,
0010
1000
0100
0000
,
1000
0001
0010
0000
,
0001
0000
1000
0000
0001
0100
0001
0000
,
1000
0000
0100
1000
0001
0000
0000
0000
,
1000
0000
0001
0010
0001
0000
1000
0000
,
0010
1000
0001
0000
1001
0000
0000
0000
,
0001
0100
0001
0000
1000
0100
1000
0001
,
0000
0001
1000
0000
0001
0000
0000
0000
,
1000
0010
1000
0000
0001
0010
0100
1000
,
0000
1000
0001
0000
0100
0000
0100
0000
,
0001
1000
0001
0000
0100
0000
0010
1000
,
0000
1000
0001
0000
1000
0000
0100
0000
,
1000
0001
0010
0000
0001
0000
1000
0001
,
0000
0001
0100
0000
0001
1000
0001
0000
,
1000
0000
0100
0000
1000
0000
0001
1000
,
0000
0001
0000
0100
0000
0010
1000
0010
,
1000
0000
0100
0000
0010
0000
0001
1000
,
0000
0001
0000
0100
0000
0001
1000
0000
,
0001
0000
0001
0000
1000
0000
0001
0100
,
0000
0001
0000
1000
0000
0001
1000
0000
,
0001
0000
0001
0000
0100
0000
0001
1000
,
0000
0001
0000
1000
0100
0000
0000
0000
,
1000
1000
1000
0000
,
0001
0100
0001
0100
0001
0100
0001
0100
,
0001
0001
0001
0000
,
0011
0011
0011
0011
,
0010
0010
0010
0000
,
0100
1000
0100
1000
0100
1000
0100
1000
,
0010
0010
0010
0000
,
1010
1001
1100
1001
,
1000
1000
1000
0000
,
0001
0100
0001
0100
0001
0010
0001
0010
,
0001
0001
0001
0000
,
1000
0010
0100
0001
,
1000
1000
1000
0000
,
0001
0100
0001
0100
0001
0100
0001
0100
,
0010
0010
0010
0000
,
1010
1001
1100
1001
,
1000
0001
0100
0001
,
1000
0100
0010
0010
,
0100
1000
0001
0100
,
0010
1000
0010
0010
,
1000
0001
0100
0101
,
0001
1000
0100
1100
,
1000
1001
0001
1001
,
1000
0001
0100
1001
,
0001
0000
0001
0000
0100
0000
0100
0001
,
0000
0001
0100
0000
0001
0000
0100
0000
,
0001
0000
0100
0000
0001
0000
0001
0100
,
0000
0100
0001
0000
0100
0000
0001
0000
,
1000
0000
0100
0000
1000
0000
1000
0100
,
0000
0100
1000
0000
0100
0000
1000
0000
,
0100
0000
1000
0000
0100
0000
0100
1000
,
0000
1000
0100
0000
1000
0000
0100
0000
,
1000
0000
0010
1000
0010
0000
1000
0010
,
1000
0000
0010
1000
0000
1000
0010
1000
,
0010
0000
0010
1000
0010
0000
1000
0010
,
1000
0000
1000
0010
0000
0010
1000
0000
,
0001
0000
0001
0010
0001
0000
0001
0010
,
0001
0000
0001
0010
0000
0010
0001
0010
,
0001
0000
0001
0010
0001
0000
0010
0001
,
0000
0001
0010
0000
0011
0000
0011
0000
,
1001
0100
0100
0000
;

//---------------dance-single - Renard----------------
#NOTES:
     dance-single:
     Renard:
     Medium:
     5:
     0.377,0.353,0.039,0.000,0.000:
0000
0000
0000
0000
,
0000
0000
0000
0000
,
0000
0000
0000
0000
,
0000
0000
0000
0000
,
0001
0000
0001
0000
1000
0000
0000
0001
,
0000
0100
0100
0000
,
0010
0010
0010
0000
,
1000
1000
1000
0100
,
1000
1000
1000
0001
,
0001
0001
0100
0000
,
0010
0010
0010
1000
,
1000
1000
0001
0000
,
1000
0100
1000
0001
,
0010
0001
1000
0000
,
0001
0100
0001
1000
,
0001
1000
0001
1001
,
1000
0000
0001
0000
1000
0000
0001
1000
,
0000
1000
0001
0000
1000
0000
0001
0000
,
0100
0000
0010
0000
0100
0000
0100
0010
,
0000
0010
0100
0000
0010
0000
0100
0000
,
0010
0000
1000
0000
0010
0000
0010
1000
,
0000
1000
0010
0000
1000
0000
0010
0000
,
0100
0000
0001
0000
0100
0000
0100
0001
,
0000
0001
0100
0000
0001
0000
0100
0000
,
0001
1000
0100
0010
,
0001
0000
1000
0000
0001
1000
0001
0000
,
0100
0010
1000
0100
,
0010
0000
0001
0000
1000
0001
1000
0000
,
0010
0100
0001
0010
,
0100
0000
1000
0000
0001
1000
0001
0000
,
0100
0001
1000
0100
,
0010
0000
0001
0000
1000
0001
1000
0000
,
0001
0001
0001
0000
,
0100
0100
0100
0100
,
0010
0010
0010
0000
,
1000
1000
1000
1000
,
0100
0100
0100
0000
,
0010
0010
0010
0010
,
0001
0001
0001
0000
,
1000
0001
1000
1001
,
0001
0001
0001
0001
,
0100
0100
0100
0100
,
0010
0010
0010
0010
,
1000
0000
1000
0000
1000
0000
1000
0100
,
0010
0010
0010
0010
,
0001
0001
0001
0001
,
0100
0100
0100
0100
,
0010
0010
0010
0010
,
1000
0000
0001
0000
1000
0000
0010
1000
,
0000
0010
1000
0000
0010
0000
1000
0000
,
0001
0000
1000
0000
0001
0000
1000
0010
,
0000
1000
0010
0000
1000
0000
0010
0000
,
1000
0000
0001
0000
1000
0000
0001
1000
,
0000
0010
1000
0000
0010
0000
1000
0000
,
0001
1000
0010
1000
,
0001
0100
0001
1001
,
0001
0001
0100
0100
,
0001
1000
0100
0010
,
0100
0100
1000
1000
,
0010
1000
0001
0100
,
0010
0010
1000
1000
,
0100
0010
0001
1000
,
0100
0100
1000
1000
,
0010
0100
0001
1000
,
0100
0000
0010
0000
,
0001
0000
0000
0010
0000
0000
0100
0000
,
1000
0000
0010
0000
,
0100
0001
0100
0010
,
1000
0000
0010
0000
,
0100
0000
0000
0001
0000
0000
0100
0000
,
0010
0000
1000
0000
,
0100
0010
0001
1000
,
1001
0001
0001
0000
;

//---------------dance-single - Renard----------------
#NOTES:
     dance-single:
     Renard:
     Easy:
     2:
     0.257,0.317,0.000,0.000,0.000: // measure 1
0000
0000
0000
0000
,  // measure 2
0000
0000
0000
0000
,  // measure 3
0000
0000
0000
0000
,  // measure 4
0000
0000
0000
0000
,  // measure 5
0001
0100
0001
0000
,  // measure 6
1000
0000
0010
0000
,  // measure 7
0100
0000
0001
0000
,  // measure 8
1000
0100
0010
0001
,  // measure 9
1000
0000
0000
0001
,  // measure 10
0000
0000
1000
0000
,  // measure 11
0010
0000
0000
0100
,  // measure 12
0000
0000
0010
0000
,  // measure 13
1000
0000
0000
0010
,  // measure 14
0000
0000
0100
0000
,  // measure 15
0001
0000
0000
0010
,  // measure 16
0000
0000
0100
0100
,  // measure 17
1000
1000
0001
0000
,  // measure 18
0100
0000
0001
0000
,  // measure 19
0010
0010
0001
0000
,  // measure 20
1000
0000
0001
0000
,  // measure 21
0001
0001
0010
0000
,  // measure 22
0001
0000
0100
0000
,  // measure 23
0001
1000
0010
0000
,  // measure 24
1000
0000
0001
0000
,  // measure 25
1000
0000
0100
0000
,  // measure 26
0010
0001
0010
0000
,  // measure 27
0100
0000
1000
0000
,  // measure 28
0001
0100
0001
0000
,  // measure 29
1000
0000
0100
0000
,  // measure 30
1000
0010
0100
0000
,  // measure 31
0001
0000
1000
0000
,  // measure 32
0001
0100
0010
0000
,  // measure 33
1000
1000
1000
0000
,  // measure 34
0001
0000
0001
0000
,  // measure 35
0010
0100
1000
0000
,  // measure 36
0001
0000
0100
0000
,  // measure 37
0001
0001
0001
0000
,  // measure 38
0010
0000
0100
0000
,  // measure 39
1000
0001
1000
0000
,  // measure 40
0001
0000
0100
0000
,  // measure 41
0010
0010
0010
0000
,  // measure 42
1000
0000
0010
0000
,  // measure 43
0100
0100
0100
0000
,  // measure 44
0001
0000
0010
0000
,  // measure 45
0100
1000
0010
0000
,  // measure 46
0100
0000
0001
0000
,  // measure 47
1000
0001
0100
0000
,  // measure 48
0010
1000
0010
1000
,  // measure 49
0010
0010
0100
0000
,  // measure 50
0001
1000
0100
0000
,  // measure 51
1000
0001
0010
0000
,  // measure 52
0001
1000
0010
0000
,  // measure 53
0100
0001
1000
0001
,  // measure 54
1000
0001
1000
0001
,  // measure 55
0100
0010
1000
0001
,  // measure 56
0100
0010
1000
0001
,  // measure 57
1000
1000
0001
0000
,  // measure 58
0001
0001
1000
0000
,  // measure 59
0010
0010
0100
0000
,  // measure 60
0100
0100
0010
0000
,  // measure 61
1000
0001
1000
0000
,  // measure 62
0010
0100
0010
0000
,  // measure 63
1000
0100
1000
0000
,  // measure 64
0001
0010
0001
0000
,  // measure 65
1000
0000
0001
0000
,  // measure 66
0100
0000
0010
0000
,  // measure 67
1000
1000
0001
0010
,  // measure 68
0100
0100
1000
0010
,  // measure 69
0100
0000
0001
0000
,  // measure 70
1000
0000
0010
0000
,  // measure 71
0100
0001
1000
1000
,  // measure 72
0100
0010
0001
0001
,  // measure 73
1000
0001
1000
0000
;
