#TITLE:Wham Bam;
#SUBTITLE:;
#ARTIST:Kevin Energy;
#TITLETRANSLIT:;
#SUBTITLETRANSLIT:;
#ARTISTTRANSLIT:;
#CREDIT:;
#BANNER:bam.png;
#BACKGROUND:bam-bg.png;
#LYRICSPATH:;
#CDTITLE:;
#MUSIC:bam.ogg;
#OFFSET:0.000;
#SAMPLESTART:22.450;
#SAMPLELENGTH:12.000;
#SELECTABLE:YES;
#BPMS:0.000=171.050;
#STOPS:;
#BGCHANGES:;

//---------------dance-single - Renard----------------
#NOTES:
     dance-single:
     Renard:
     Challenge:
     11:
     0.860,0.901,0.446,0.033,0.500:
0000
0000
0000
0000
,
0000
0000
0000
0000
,
0000
0000
0000
0000
,
0000
0000
0000
0000
,
1001
0000
0000
0000
0000
0000
0000
0000
0000
0101
0000
0000
0000
0000
0000
0000
0000
0000
1000
0000
0000
0001
1000
0001
,
1000
0000
0000
0000
0000
0000
0000
0000
0000
1100
0000
0000
0000
0000
0000
0000
0000
0000
0001
0000
0000
1000
0010
1000
,
0010
0000
0000
0000
0000
0000
0000
0000
0000
0110
0000
0000
0000
0000
0000
0000
0000
0000
0001
0000
0000
1000
0100
1000
,
0100
0000
0000
0000
0000
0010
0001
1000
,
0001
0000
0010
0100
1000
0000
0001
0000
0100
0000
0010
0000
1000
0000
0010
0000
,
0100
0000
0001
1000
0100
0000
0010
0000
0001
0000
0010
0000
0100
0000
1000
0000
,
0001
0000
0100
0010
1000
0000
0010
0000
0100
0000
0001
0000
0100
0000
0010
0000
,
2000
0000
3200
0000
0320
0000
0031
0010
,
0100
0000
1000
0001
0100
0000
0010
0000
1000
0000
0100
0000
0010
0000
0001
0000
,
0010
0000
0100
1000
0001
0000
0100
0000
0010
0000
1000
0000
0100
0000
1000
0000
,
0001
0000
0100
0010
1000
0000
0100
0000
0010
0000
0001
0000
0010
0000
0100
0000
,
1000
0100
0010
0001
1000
0001
0010
0100
1000
0001
1000
0100
0010
0001
1000
0001
,
1000
0000
0000
0000
0000
0000
1000
0000
0000
0100
0000
0000
0000
0000
0000
0100
0000
0000
0010
0000
0000
0001
0010
0001
,
0010
0000
0000
0000
0000
0000
0010
0000
0000
0100
0000
0000
0000
0000
0000
0100
0000
0000
1000
0000
0000
0001
0100
0001
,
0100
0000
0000
0000
0000
0000
0100
0000
0000
0010
0000
0000
0000
0000
0000
0010
0000
0000
1000
0000
0000
0001
1000
0001
,
1000
0000
1000
0001
0000
0001
0100
0010
,
0010
0000
0000
0000
0000
0000
0010
0000
0000
1000
0000
0000
0000
0000
0000
1000
0000
0000
0001
0000
0000
0100
0001
0100
,
0001
0000
0000
0000
0000
0000
0001
0000
0000
1000
0000
0000
0000
0000
0000
1000
0000
0000
0010
0000
0000
0100
1000
0100
,
1000
0000
0000
0000
0000
0000
1000
0000
0000
0001
0000
0000
0000
0000
0000
0001
0000
0000
0010
0000
0000
0100
0010
0100
,
0010
0000
0010
0100
0000
0100
0010
1000
,
0001
0000
0100
0010
1000
0000
0010
0000
1000
0000
0100
0000
0010
0000
0001
0000
,
0010
0000
0001
0010
0100
0000
1000
0000
0001
0000
0100
0000
0010
0000
1000
0000
,
0100
0000
0010
0001
0010
0000
1000
0000
0010
0000
0001
0000
0010
0000
0100
0000
,
1000
0010
0100
0001
0100
1000
0100
0010
,
1000
0000
0010
1000
0010
0000
1000
0000
0010
0000
0100
0000
0001
0000
0010
0000
,
0100
0000
1000
0100
0001
0000
0100
0000
1000
0000
0010
0000
0100
0000
0001
0000
,
0100
0000
0010
0100
0010
0000
1000
0000
0010
0000
0001
0000
0010
0000
0100
0000
,
0110
0001
0110
1000
0110
0001
0110
0000
,
0010
0000
1000
0000
0100
0000
1000
0000
0001
0000
1000
0000
0100
0010
0001
0010
,
0100
1000
0001
0100
0010
1000
0001
0100
,
0010
0000
1000
0000
0100
0000
0010
0000
0001
0000
0010
0000
0100
1000
0001
0100
,
0010
1000
0100
0010
0001
0010
0100
1000
,
0001
0000
0100
0000
0010
0000
1000
0000
0001
0000
1000
0000
0100
0010
0001
0010
,
0100
1000
0001
0100
0010
1000
0100
0010
,
0001
0000
0010
0000
0100
0000
1000
0000
0001
0000
0100
0000
0010
1000
0010
0100
,
0010
1000
0010
0100
0001
0001
1000
1000
,
0101
0000
0110
0000
1010
0000
1010
1000
,
1100
0000
0110
0000
0011
0000
0011
0001
,
0101
0000
0110
0000
1010
0000
1001
0001
,
0101
0100
0110
0010
1010
0000
1000
0000
,
1100
0000
0110
0000
0011
0000
0011
0001
,
0101
0000
0110
0000
1010
0000
1100
0100
,
0110
0011
1001
0101
,
0110
0010
1010
1000
1001
0001
0101
0000
,
1000
0000
0001
0100
0001
0100
0001
0000
1000
0000
0100
1000
0100
0000
1000
0000
,
0001
0000
0010
0001
0010
0001
0010
0000
0001
0000
1000
0010
1000
0000
0001
0000
,
0100
0000
0010
1000
0010
1000
0010
0000
0100
0000
0001
0010
0001
0000
1000
0000
,
0100
0000
1000
0001
1000
0001
1000
0000
0001
0000
0010
0001
0010
0000
0001
0000
,
1000
0000
0100
1000
0100
1000
0100
0000
1000
0000
0001
0100
0001
0000
0100
0000
,
0010
0000
1000
0001
1000
0001
1000
0000
0001
0000
0010
0100
0010
0000
0100
0000
,
1000
0000
0001
0010
0001
0010
0001
0000
1000
0000
0010
1000
0010
0000
0100
0000
,
0001
0000
1000
0100
0010
0001
1000
0000
1001
0000
0000
0000
0000
0000
0000
0000
,
0001
0000
0010
0100
1000
0001
1000
0000
0001
0000
1000
0100
0010
0000
0001
0000
,
1000
0000
0100
0010
0001
1000
0001
0000
0010
0000
0100
1000
0001
0000
1000
0000
,
0100
0000
0010
0001
1000
0001
0010
0000
0100
0000
1000
0001
1000
0000
0100
0000
,
1000
0000
0001
0010
0100
0010
0001
0000
1000
0000
0100
1000
0001
0000
1000
0000
,
0001
0000
0100
0010
1000
0010
0100
0000
0001
0000
0100
0010
1000
0000
0010
0000
,
0100
0000
0001
0100
0010
0100
0001
0000
0100
0000
0010
1000
0010
0000
1000
0000
,
0001
0000
1000
0010
1000
0010
1000
0000
0010
0000
0100
0001
0100
0000
0010
0000
,
0100
0000
0001
1000
0001
1000
0010
0000
0100
0000
0010
0000
0110
0000
0000
0000
;

//---------------dance-single - Renard----------------
#NOTES:
     dance-single:
     Renard:
     Hard:
     9:
     0.682,0.658,0.022,0.000,0.217:
0000
0000
0000
0000
,
0000
0000
0000
0000
,
0000
0000
0000
0000
,
0000
0000
0000
0000
,
1000
0000
1000
0001
0000
0001
0100
0000
,
0010
0000
0000
0000
0010
0000
1000
0000
0000
0000
1000
0000
0100
0000
0010
0001
,
0010
0000
0000
0000
0100
0000
1000
0000
0000
0000
0001
0000
0100
0000
0010
1000
,
0010
0000
0000
0000
,
0100
0000
0001
0100
0010
0000
1000
0000
0010
0000
0100
0000
0001
0000
0000
0000
,
0010
0000
0100
1000
0001
0000
1000
0000
0001
0000
1000
0000
0001
0000
0000
0000
,
0100
0000
0001
1000
0001
0000
1000
0000
0001
0000
1000
0000
0100
0000
0000
0000
,
0010
0001
1000
0001
,
0100
0000
0001
1000
0001
0000
1000
0000
0001
0000
0100
0000
0010
0000
0000
0000
,
1000
0000
0100
1000
0100
0000
1000
0000
0001
0000
0010
0000
0001
0000
0000
0000
,
1000
0000
0001
0100
0001
0000
0100
0000
0010
0000
1000
0000
0100
0000
0010
0000
,
0001
0000
1000
0000
0001
0000
0100
0010
,
1000
0000
0000
0000
1000
0000
0001
0000
0000
0000
0001
0000
0100
0000
0010
1000
,
0010
0000
0100
0001
0000
0010
0100
1000
,
0001
0000
0000
0000
0010
0000
0001
0000
0000
0000
1000
0000
0001
0000
0100
0001
,
0100
0000
0010
1000
0000
0010
0100
0001
,
1000
0000
0000
0000
0100
0000
0010
0000
0000
0000
0001
0000
0010
0000
0100
1000
,
0001
0000
0000
0000
0100
0000
0010
0000
0000
0000
1000
0000
0001
0000
0100
0010
,
1000
0000
0000
0000
0001
0000
0100
0000
0000
0000
0001
0000
1000
0000
0100
1000
,
0100
0000
1000
0001
0000
0010
0100
1000
,
0001
0000
0100
0001
0100
0000
0010
0000
0100
0000
0001
0000
0100
0000
0010
0000
,
1000
0000
0100
1000
0100
0000
1000
0000
0100
0000
0010
0000
0001
0000
0000
0000
,
0010
0000
0100
1000
0001
0000
0100
0000
0010
0000
1000
0000
0001
0000
0100
0000
,
0010
0000
0010
0000
0010
0000
0010
1000
,
0100
0000
0010
0100
0010
0000
0100
0000
0010
0000
0001
0000
0100
0000
0000
0000
,
0010
0000
0100
0010
0100
0000
0010
0000
1000
0000
0100
0000
0010
0000
0000
0000
,
0100
0000
1000
0001
1000
0000
0001
0000
0100
0000
0001
0000
1000
0000
0001
0000
,
1000
0100
0010
0001
,
1000
0001
0100
0010
0100
0001
1000
0100
,
0010
0000
0001
0000
0010
0000
0100
0000
1000
0000
0001
0000
0100
0000
0001
0100
,
0001
0100
0010
1000
0100
0010
0001
0010
,
0100
0000
1000
0000
0001
0000
0100
0000
0010
0000
1000
0000
0100
0000
1000
0100
,
1000
0000
0100
0000
1000
0000
0010
0000
0100
0000
0001
0000
0100
0000
0001
0100
,
0001
0000
0100
0000
0001
0000
0010
0000
0100
0000
1000
0000
0001
0000
1000
0001
,
1000
0000
0001
0000
0100
0000
0010
0100
0010
0000
1000
0000
0010
0000
1000
0010
,
1000
0000
0001
0000
0100
0010
1000
0000
,
0100
0010
0001
0010
0100
1000
0001
0001
,
1000
0010
0100
0001
0010
0100
1000
1000
,
0001
0010
0100
1000
0001
0010
0100
1000
,
0001
0010
0100
1000
0001
0001
1000
1000
,
0001
0100
0010
1000
0001
0100
0010
0010
,
1000
0100
0010
0100
1000
0001
0010
0010
,
0100
1000
0001
0100
0010
1000
0001
0100
,
0010
0000
1000
0000
0001
0001
0100
0100
,
0010
0000
0000
0000
1000
0000
0001
0000
0000
0000
0100
0000
0010
1000
0010
0000
,
0100
0000
0000
0000
0001
0000
0010
0000
0000
0000
0100
0000
1000
0100
1000
0000
,
0001
0000
0000
0000
0100
0000
0010
0000
0000
0000
1000
0000
0010
1000
0010
0000
,
0100
0000
0000
0000
0001
0000
0010
0000
0000
0000
0100
0000
1000
0000
0001
1000
,
0001
0000
0000
0000
0100
0000
0010
0000
0000
0000
1000
0000
0100
1000
0100
0000
,
1000
0000
0000
0000
0001
0000
0010
0000
0000
0000
0100
0000
1000
0000
0001
1000
,
0001
0000
0000
0000
0100
0000
0010
0000
0000
0000
1000
0000
0010
1000
0010
0000
,
0100
0000
0001
0010
1100
0000
0000
0000
,
1000
0000
0010
0000
0100
0000
0001
0000
0000
0000
0100
0010
0100
0000
0010
0000
,
1000
0000
0100
0000
0010
0000
0001
0000
0000
0000
1000
0100
1000
0000
0001
0000
,
0010
0000
0100
0000
1000
0000
0001
0000
0000
0000
0100
0010
0100
0000
0010
0000
,
1000
0000
0100
0000
0010
0000
0001
0000
0000
0000
1000
0001
1000
0000
0001
1000
,
0001
0000
0100
0000
0001
0000
0100
0000
0000
0000
0010
0000
1000
0000
0010
1000
,
0010
0000
1000
0000
0100
0000
0010
0000
0000
0000
0001
0000
0010
0000
0100
0010
,
0100
1000
0001
0100
0010
1000
0100
0010
,
0001
0000
0010
0000
0100
0000
1000
0001
1000
0000
0000
0000
1001
0000
0000
0000
;

//---------------dance-single - Renard----------------
#NOTES:
     dance-single:
     Renard:
     Medium:
     5:
     0.384,0.450,0.022,0.000,0.000:
0000
0000
0000
0000
,
0000
0000
0000
0000
,
0000
0000
0000
0000
,
0000
0000
0000
0000
,
0000
0000
0000
0000
,
0000
0000
0000
0000
,
0000
0000
0000
0000
,
0000
0000
0000
0000
,
1000
0000
0100
0000
1000
0000
0100
1000
,
0100
1000
0100
1000
,
0001
0000
0010
0001
0010
0000
0001
0000
,
1000
1000
1000
1000
,
0001
0100
0001
0000
0100
0000
0100
0000
,
0010
1000
0010
0000
1000
0000
1000
0000
,
0100
0000
1000
0100
1000
0000
0001
0000
,
0010
0010
0010
0010
,
0001
0000
0000
0001
0000
0000
1000
0100
,
1000
0000
0000
1000
0000
0000
0001
0000
,
0100
0000
0000
0100
0000
0000
0010
1000
,
0010
0000
1000
0000
0001
0000
0100
0001
,
0100
0000
0000
0100
0000
0000
0001
0000
,
0010
0000
0000
0010
0000
0000
0100
0000
,
1000
0000
0000
1000
0000
0000
0001
0100
,
0001
0100
0010
1000
,
0100
0000
1000
0100
1000
0000
0100
0000
,
1000
0000
0001
1000
0001
0000
1000
0000
,
0001
0000
0010
0001
0010
0000
0001
0000
,
0010
0100
1000
0100
,
0010
0000
0000
0010
0000
0000
0100
1000
,
0100
0000
0000
0100
0000
0000
1000
0001
,
1000
0000
0000
1000
0000
0000
0001
1000
,
0001
0001
0001
0001
,
0100
0010
0100
0010
,
1000
0000
0010
0000
1000
0000
0001
1000
,
0001
0100
0001
0100
,
0001
0000
0010
0000
0100
0000
1000
0001
,
1000
0001
0100
0010
,
1000
0000
0100
0000
0010
0001
0010
0001
,
0000
0010
0000
0100
0000
1000
0000
0001
,
0000
0100
0000
0010
0000
0010
1000
0000
,
0010
0000
0010
0000
0010
0000
1000
0100
,
0010
0010
0010
0000
,
0001
0000
0001
0000
0001
0000
0100
0010
,
1000
1000
1000
0000
,
1000
0000
1000
0000
1000
0000
0100
1000
,
0001
0000
0001
0000
0001
0000
0010
0001
,
1000
1000
0001
0100
,
0010
1000
0001
1000
,
0100
0000
0100
0000
0100
0000
1000
0001
,
1000
0000
1000
0000
1000
0000
0001
0010
,
0001
0000
0001
0000
0001
0000
0010
0100
,
0010
0000
0010
0000
0010
0000
0001
1000
,
0010
0010
0010
0100
,
0001
0000
0001
0000
1000
0000
0100
0010
,
0001
0000
0001
0010
0100
0000
0100
0010
,
0001
0000
0001
0010
0100
0000
1001
0000
,
1000
0000
1000
0100
,
0010
0000
0000
0000
0010
0000
0001
1000
,
0010
0000
0010
0100
,
0001
0000
0000
0000
0001
0000
1000
0100
,
1000
1000
0001
0001
,
0010
0010
0100
0100
,
1000
0000
0001
1000
0001
0000
1000
0001
,
1000
0000
0001
1000
0001
0000
0110
0000
;

//---------------dance-single - Renard----------------
#NOTES:
     dance-single:
     Renard:
     Easy:
     2:
     0.259,0.312,0.011,0.000,0.000: // measure 1
0000
0000
0000
0000
,  // measure 2
0000
0000
0000
0000
,  // measure 3
0000
0000
0000
0000
,  // measure 4
0000
0000
0000
0000
,  // measure 5
0000
0000
0000
0000
,  // measure 6
0000
0000
0000
0000
,  // measure 7
0000
0000
0000
0000
,  // measure 8
0000
0000
0000
0000
,  // measure 9
1000
0000
0001
1000
,  // measure 10
0001
0000
1000
0001
,  // measure 11
1000
0000
0001
1000
,  // measure 12
0001
0001
0001
0000
,  // measure 13
0010
0000
0100
0010
,  // measure 14
0100
0000
0010
0100
,  // measure 15
0010
0000
0100
0010
,  // measure 16
0100
0010
0100
0010
,  // measure 17
0001
0000
0001
0010
,  // measure 18
0100
0000
0100
0000
,  // measure 19
1000
0000
1000
0010
,  // measure 20
0100
0000
0000
0000
,  // measure 21
0001
0000
0001
0100
,  // measure 22
0010
0000
0010
1000
,  // measure 23
0010
0000
0010
1000
,  // measure 24
0001
0000
0001
0000
,  // measure 25
0010
0010
0010
0000
,  // measure 26
0100
0100
0100
0000
,  // measure 27
1000
1000
1000
0000
,  // measure 28
0001
0001
0001
0001
,  // measure 29
0010
0000
0010
0001
,  // measure 30
1000
0000
0010
1000
,  // measure 31
0001
0000
1000
0010
,  // measure 32
1000
0000
1000
0000
,  // measure 33
0001
0000
0001
0100
,  // measure 34
0001
0000
0001
1000
,  // measure 35
0100
0000
0100
1000
,  // measure 36
0001
0000
0001
0010
,  // measure 37
0001
0000
1000
0000
,  // measure 38
0010
0000
0100
0001
,  // measure 39
0100
0000
0010
0000
,  // measure 40
1000
0100
1000
0001
,  // measure 41
0010
0010
0010
0000
,  // measure 42
0100
0100
0100
0000
,  // measure 43
0010
0010
0010
0010
,  // measure 44
0010
0010
0001
0000
,  // measure 45
1000
0001
1000
0000
,  // measure 46
0001
1000
0001
0000
,  // measure 47
0001
0010
0100
1000
,  // measure 48
0001
0010
0001
0001
,  // measure 49
1000
0000
1000
0000
,  // measure 50
0001
0000
0001
0010
,  // measure 51
0100
0000
0100
0000
,  // measure 52
1000
0000
1000
0001
,  // measure 53
0010
0000
0010
0000
,  // measure 54
0010
0001
1000
0010
,  // measure 55
0100
0000
0100
0000
,  // measure 56
0100
0001
1000
0000
,  // measure 57
0001
0000
0001
1000
,  // measure 58
0100
0000
0100
1000
,  // measure 59
0001
0000
0001
1000
,  // measure 60
0010
0000
0010
1000
,  // measure 61
0001
0000
0001
0010
,  // measure 62
0100
0000
0100
1000
,  // measure 63
0001
0010
0001
0010
,  // measure 64
0001
0010
0100
1001
;
