#TITLE:Welcome to the Black Parade;
#SUBTITLE:;
#ARTIST:My Chemical Romance;
#TITLETRANSLIT:;
#SUBTITLETRANSLIT:;
#ARTISTTRANSLIT:;
#CREDIT:;
#BANNER:black.png;
#BACKGROUND:black-bg.png;
#LYRICSPATH:;
#CDTITLE:;
#MUSIC:black.ogg;
#OFFSET:0.000;
#SAMPLESTART:58.520;
#SAMPLELENGTH:12.000;
#SELECTABLE:YES;
#BPMS:0.000=75.000,18.000=150.000,54.000=194.000,218.000=187.000;
#STOPS:;
#BGCHANGES:;

//---------------dance-single - Renard----------------
#NOTES:
     dance-single:
     Renard:
     Hard:
     9:
     0.654,0.716,0.529,0.037,0.200:
0000
0000
0000
0000
,
0000
0000
0000
0000
,
0000
0000
0000
0000
,
0000
0000
0000
0000
,
0000
0000
0000
0000
0000
0000
1001
0000
0000
0001
0010
0100
,
1000
0000
0000
0100
1000
0100
1000
0000
0000
0010
1000
0010
,
1000
0000
0000
1001
0000
0000
1100
0000
0000
0100
1000
0001
,
0010
0000
0000
0100
1000
0010
1000
0000
0000
0001
0100
0010
,
1000
0100
0010
0001
0010
0100
1000
0000
0000
0001
0100
0010
,
1000
0000
0000
0001
1000
0100
1000
0000
0000
0001
0010
0100
,
1000
0000
0000
1001
0000
0000
1010
0000
0000
1000
0010
0100
,
0001
0101
2002
0000
,
0000
0000
0000
0000
,
0000
0000
0000
0000
0000
0000
0000
0000
0000
0000
0000
0000
0000
0000
0000
0000
3003
0000
0000
0000
0000
0000
0000
0000
0001
0000
0000
0000
0000
0000
1000
0000
0000
0100
0000
0000
1000
0000
0000
0000
0000
0000
0001
0000
0000
0000
0000
0000
,
0100
0001
0100
0001
1000
0001
1000
0001
1000
0000
0010
0000
0100
0000
0000
0000
,
0100
0001
0010
0000
0100
1000
0010
0100
,
0001
1000
0100
0000
0100
1000
0001
0000
,
0001
0010
0100
0000
0100
1000
0010
0100
,
0001
1000
0100
0000
1000
0001
0010
0000
,
0001
1000
0010
0000
1000
0001
0100
0010
,
1000
0100
1000
0000
0001
0010
0100
1000
,
0001
0100
0010
1000
0100
1000
0001
0001
,
0010
0100
1000
0000
1001
0000
0001
0100
,
0010
1000
0100
0010
0001
0010
0100
1000
,
0001
0100
0010
1000
0100
1000
0001
0010
,
0100
1000
0001
1000
0001
0000
1001
0000
,
0010
1000
0000
1000
0001
0000
1001
0000
,
0001
0010
0100
1000
0001
0010
0100
1000
,
0010
0100
0001
0100
0010
0010
1000
0100
,
0010
0010
0100
1000
0010
0010
0100
0001
,
0010
0010
0100
1000
0010
0100
0001
0100
,
0010
1000
0100
0010
0001
0010
0100
1000
,
0001
0010
0100
1000
0010
0100
0001
1000
,
0100
1000
0001
1000
0100
0000
1001
0000
,
1000
0100
0000
1000
0001
0000
0101
0000
,
0001
1000
0100
0010
0001
0010
0100
1000
,
0001
0100
0010
1000
0100
1000
0001
0000
,
1000
0010
1000
0000
1001
0000
1010
0000
,
0001
1000
0100
0000
1000
0001
0100
0010
,
1000
0100
0010
0001
0100
0010
1000
0100
,
1000
0001
0010
0100
1000
0010
0100
0001
,
0010
0100
1000
0001
0100
0010
1000
0100
,
1000
0001
0010
0000
0011
0000
0010
0100
,
1000
0010
1000
0000
1010
0000
1000
0100
,
0010
0001
1000
0000
1001
0000
0001
0100
,
0110
0000
0010
1000
1010
0000
1001
0000
,
1100
0000
1001
0000
1000
0100
0010
0001
,
0010
0100
1000
0010
0100
0001
0010
0100
,
1000
0001
1000
0000
0001
0001
0100
0100
,
0010
1000
0010
1010
0000
0001
1000
0100
,
0010
0001
0010
0100
1000
0010
1000
0010
,
1000
0001
0100
0001
0010
0001
1000
0100
,
1000
0000
0000
0001
0000
0000
1000
0000
0000
0010
0000
0000
1000
0000
0000
0000
1000
0000
0001
0000
0100
0000
0001
0000
,
1000
0000
1000
0001
0010
0100
1000
0001
0100
0001
1000
0100
,
0010
0000
0001
0000
1000
0000
0001
0000
0100
0000
0001
0000
1000
0000
0000
0000
0000
0000
0001
0000
0000
0100
0000
0000
,
0010
0000
1010
0000
1001
0000
1000
0100
,
0010
0000
0110
0000
1100
0000
0001
0010
,
0100
0000
0110
0000
1100
0000
1000
0010
,
0100
0000
0101
0000
0101
0000
0001
0100
,
0010
0000
0010
0000
1010
0000
1000
0100
,
1000
0000
0011
0000
1100
0000
0001
1000
,
0010
1001
1100
1010
,
0101
0000
1001
0000
1001
0000
1000
0100
,
0010
0000
0001
0000
0110
0000
0100
1000
,
0010
0000
0110
0000
0101
0000
0001
0100
,
0010
0000
1010
0000
1001
0000
1000
0100
,
0010
0000
0110
0000
1100
0000
0001
0010
,
0100
0000
0100
1000
0010
0000
1010
0000
,
1001
0000
1100
0000
1001
0000
1000
0100
,
0010
0110
1100
0011
,
1100
1001
2020
0000
,
0000
0000
0000
0000
,
0000
0000
0000
0000
,
0000
0000
3030
0000
;

//---------------dance-single - Renard----------------
#NOTES:
     dance-single:
     Renard:
     Medium:
     5:
     0.338,0.407,0.176,0.019,0.000:
0000
0000
0000
0000
,
0000
0000
0000
0000
,
0000
0000
0000
0000
,
0000
0000
0000
0000
,
0000
0000
0010
0000
,
1000
0000
0010
0100
,
0001
0000
0001
0000
,
0010
0000
1100
0000
,
1001
0000
0101
0000
,
0100
0010
1010
0000
,
1000
0100
0011
0010
,
1100
1000
1001
0000
,
0000
0000
0000
0000
,
0000
0000
0000
0000
1000
0000
0000
0001
,
0000
0100
0010
1000
,
0010
1000
0001
0100
,
0001
0100
0001
1000
,
0100
0010
0001
0010
,
0001
0010
0100
1000
,
0100
1000
0010
1000
,
0010
1000
0001
0100
,
0010
1000
0010
1000
0000
0000
0000
0000
,
0010
0000
1000
0000
0010
0100
0000
0001
,
0000
0010
0000
0100
0000
1000
0000
0000
,
0000
0000
0001
0000
0010
0001
0000
1000
,
0000
0010
0000
0100
0000
0000
0101
0000
,
0000
0101
0000
0101
0000
0000
0001
0000
,
0100
0010
1000
0100
,
0010
0000
0001
0000
1000
0100
0000
1000
,
0100
1000
0000
0001
1000
0001
0100
0000
,
0100
0000
0100
0000
0010
1000
0000
0010
,
0000
0000
0100
0001
0000
0010
0000
0100
,
0000
0000
1000
0001
0000
0100
0000
0010
,
0000
1000
0000
0010
0000
0000
0000
0000
,
1000
0000
0100
0000
0010
0000
0001
1000
,
0000
0001
0000
0100
0000
0010
0000
1000
,
0000
0010
0000
0100
0000
0000
0000
0000
,
0000
0001
0100
0000
,
0100
0010
1000
0010
,
1000
0001
0100
0000
,
0100
0001
0010
0100
,
1000
0001
0100
0000
,
1000
0000
0010
0000
0100
0000
0001
0100
,
0001
0100
0001
0010
,
0100
0000
1000
0000
0001
0000
1000
0100
,
1000
0100
0010
0000
,
0010
0001
1000
0010
,
0100
0000
0001
0000
0100
0000
0010
1000
,
0010
1000
0100
0010
,
0001
0000
0010
0001
0000
0000
0000
0000
,
0010
0100
1000
0001
,
0100
0010
1000
0001
,
1000
0100
1000
0000
0001
0000
0010
0000
,
0100
1000
0001
0000
,
0100
0000
0010
1000
,
1010
0000
1000
0100
,
0010
0001
1000
0001
,
0101
0000
0001
0100
,
0010
1000
0100
0100
,
1000
0000
1100
1000
,
0100
0010
0001
0010
,
0100
1000
0001
0100
,
0100
0010
1010
0000
,
1000
0100
0010
0000
,
0010
0001
1001
0000
,
0001
0100
0110
0000
,
0010
1000
1100
0000
,
1000
0100
1100
0000
,
1000
0100
0010
0001
,
1000
0010
0100
0001
,
0010
0001
2002
0000
,
0000
0000
0000
0000
,
0000
0000
0000
0000
,
3003
0000
0000
0000
;

//---------------dance-single - Renard----------------
#NOTES:
     dance-single:
     Renard:
     Easy:
     3:
     0.255,0.309,0.130,0.019,0.000: // measure 1
0000
0000
0000
0000
,  // measure 2
0000
0000
0000
0000
,  // measure 3
0000
0000
0000
0000
,  // measure 4
0000
0000
0000
0000
,  // measure 5
0000
0000
1000
0000
,  // measure 6
1100
0000
0010
0001
,  // measure 7
0100
0010
1000
0000
,  // measure 8
0101
0000
0001
0010
,  // measure 9
0100
1000
0001
0000
,  // measure 10
0101
0000
0100
0010
,  // measure 11
1000
0100
0110
0000
,  // measure 12
0011
0000
1001
0000
,  // measure 13
0000
0000
0000
0000
,  // measure 14
0000
0000
1000
0000
,  // measure 15
0001
0000
1000
0001
,  // measure 16
1000
0000
0010
0100
,  // measure 17
0010
0000
1000
0001
,  // measure 18
1000
0000
0010
0000
,  // measure 19
1000
0000
0001
0100
,  // measure 20
0001
0000
1000
0100
,  // measure 21
1000
0000
0001
0010
,  // measure 22
0001
1000
0010
0000
,  // measure 23
1000
0000
0001
0100
,  // measure 24
0010
1000
0100
0010
,  // measure 25
0001
0010
0100
1000
,  // measure 26
0010
0100
0001
0000
,  // measure 27
0000
0000
0001
0100
,  // measure 28
0010
1000
0100
0010
,  // measure 29
0001
1000
0001
0000
,  // measure 30
0001
0000
1000
0000
,  // measure 31
0010
0000
0100
0010
,  // measure 32
0100
0000
0010
1000
,  // measure 33
0010
0000
0100
0001
,  // measure 34
0100
0000
0001
0010
,  // measure 35
0001
0000
0010
0100
,  // measure 36
1000
0000
1000
0100
,  // measure 37
0010
0000
0100
0000
,  // measure 38
1000
0000
0001
0100
,  // measure 39
0001
0000
1000
0000
,  // measure 40
0100
1000
0001
0000
,  // measure 41
0100
0010
0000
0000
,  // measure 42
1000
0010
0100
0000
,  // measure 43
0001
0000
0100
0000
,  // measure 44
0010
0000
1000
0000
,  // measure 45
0010
0000
1000
0000
,  // measure 46
0001
0000
0100
0001
,  // measure 47
0100
0000
0001
0000
,  // measure 48
1000
0000
0100
1000
,  // measure 49
0100
0000
1000
0000
,  // measure 50
0100
0000
1000
0000
,  // measure 51
0001
0000
0010
0001
,  // measure 52
0010
0000
0001
0000
,  // measure 53
1000
0000
0010
0000
,  // measure 54
1000
0000
0010
0100
,  // measure 55
0010
0000
0100
0000
,  // measure 56
0100
0000
0101
0000
,  // measure 57
0001
0000
1000
0000
,  // measure 58
1000
0000
1100
0000
,  // measure 59
1000
0100
0010
0000
,  // measure 60
0010
0000
0011
0000
,  // measure 61
0001
1000
0010
0000
,  // measure 62
1010
0000
0101
0000
,  // measure 63
1001
0000
1001
0000
,  // measure 64
1000
0100
1000
0000
,  // measure 65
0001
0010
0001
0000
,  // measure 66
1000
0010
1000
0000
,  // measure 67
0001
0100
0001
0000
,  // measure 68
1000
0100
0010
0000
,  // measure 69
0001
0010
0100
0000
,  // measure 70
1000
0010
0100
0001
,  // measure 71
0010
0001
2002
0000
,  // measure 72
0000
0000
0000
0000
,  // measure 73
0000
0000
0000
0000
,  // measure 74
0000
0000
0000
0000
,  // measure 75
3003
0000
0000
0000
;
