#TITLE:Welcome to Bucketheadland;
#SUBTITLE:;
#ARTIST:Buckethead;
#TITLETRANSLIT:;
#SUBTITLETRANSLIT:;
#ARTISTTRANSLIT:;
#CREDIT:;
#BANNER:welcome.png;
#BACKGROUND:welcome-bg.png;
#LYRICSPATH:;
#CDTITLE:;
#MUSIC:welcome.ogg;
#OFFSET:0.000;
#SAMPLESTART:42.463;
#SAMPLELENGTH:12.000;
#SELECTABLE:YES;
#BPMS:0.000=141.300;
#STOPS:;
#BGCHANGES:;

//---------------dance-single - Renard----------------
#NOTES:
     dance-single:
     Renard:
     Challenge:
     11:
     0.843,0.781,0.455,0.227,0.646:
0000
0000
0000
0000
,
0100
1000
0100
1000
0001
1000
0001
1000
0010
1000
0010
1000
0100
1000
0100
1000
,
0100
0000
0010
0000
0001
0000
1001
0000
0000
0000
0001
0100
0001
0000
1000
0000
,
0001
1000
0001
1000
0001
0100
0001
0100
0001
0010
0001
0010
0001
1000
0001
1000
,
0001
0000
0100
0010
1000
0000
0100
0000
1000
0000
1001
0000
1001
0000
0000
0000
,
0010
0001
0010
0001
1000
0001
1000
0001
0100
0001
0100
0001
0010
0001
0010
0001
,
0010
0000
0100
0000
1000
0000
1001
0000
0000
0000
1000
0010
1000
0000
0001
0000
,
1000
0001
1000
0001
1000
0010
1000
0010
1000
0100
1000
0100
1000
0001
1000
0001
,
1000
0000
0010
0100
0001
0000
0010
0000
0001
0000
1001
0000
0001
0100
0001
0000
,
1001
0000
1001
0000
0001
0000
0100
0000
0001
0000
1000
0000
0100
1000
0100
0000
,
1001
1001
1000
0001
0010
0001
1000
0001
,
1001
0000
1001
0000
1000
0000
0010
0000
1000
0000
0001
0000
1000
0001
1000
0000
,
1001
0000
0000
1001
0000
0000
0000
0000
0000
0000
0000
0000
0001
0010
0100
1000
0001
0010
0100
1000
0001
0010
0100
1000
,
0001
0002
1000
1000
0100
0100
0010
0003
,
1000
2000
0001
0001
0010
0010
0100
3000
,
0001
0002
1000
1000
0100
0100
0010
0003
,
1001
0000
0000
0000
,
1000
0000
0000
0000
0001
0000
0000
0001
0100
0000
0010
0000
1000
0000
0100
0000
,
1000
0000
0000
0000
0001
0000
0000
0001
0100
0000
0010
0000
0110
0000
0000
0000
,
0110
0000
0000
0000
0010
0000
0000
0010
1000
0000
0100
0000
0010
0000
0001
0000
,
1000
0000
0000
0000
0001
0000
0000
0001
0100
0000
0010
0000
1010
0000
0000
0000
,
1010
0000
0000
0000
1000
0000
0000
0100
1000
0000
0001
0000
0010
0000
0001
0000
,
1000
0000
0000
0000
1010
0000
0000
0010
1000
0000
0001
0000
0100
0001
0100
0000
,
0001
1000
0000
1100
0010
1001
0000
0001
,
0000
0101
1000
0011
0100
1001
0000
0000
,
0001
0100
0001
0100
0010
0100
0010
0100
0010
1000
0010
1000
0100
0010
0001
0010
,
0100
1000
0100
1000
0000
1100
1100
0000
,
1000
0100
0010
0001
0010
0100
1000
0010
0100
0001
0100
0010
1000
0100
0010
0001
,
0010
0001
0010
0011
0000
0110
0110
0000
,
0100
1000
0001
0100
0010
1000
0100
0010
0001
0010
0100
1000
0001
0100
0010
1000
,
0100
1000
1100
1100
0000
1000
0100
0000
,
1000
0001
0100
0001
0100
0010
1000
0100
0010
0001
0010
0100
1000
0100
0010
0001
,
1000
0000
0100
0000
1000
0000
1001
0000
0000
0000
1100
0000
0010
0001
0010
0000
,
0011
0011
1000
2000
0010
0010
0002
3000
,
0100
0203
1000
0010
0302
0010
1000
0203
,
0010
1000
0302
0023
1000
0100
0002
0030
,
1000
0000
0000
1003
0000
0000
0000
0000
0000
0000
0000
0000
0001
0010
0100
1000
0001
0010
0100
1000
0001
0010
0100
1000
,
0001
0002
0100
0010
1000
2003
0200
3000
,
0010
0320
0001
1000
0100
0001
0001
0230
,
1000
2300
0010
0001
0100
0001
0200
0000
,
3311
0000
0000
0000
,
1000
0000
1000
0000
0001
0000
0100
0001
0100
0001
0100
0000
0010
0000
0100
0010
,
1000
0000
1000
0000
0001
0000
0100
0001
0100
0001
0100
0000
0010
0000
0100
0010
,
1000
0000
1000
0000
0001
0000
0100
0001
0100
0001
0100
0000
0010
0000
1000
0100
,
1000
0000
0100
0000
1000
0000
0001
0000
0100
0001
1000
0000
0100
1000
0001
0000
,
0001
0000
0001
0000
1000
0000
0010
1000
0010
1000
0010
0000
0100
0000
0010
0100
,
0001
0000
0001
0000
1000
0000
0010
1000
0010
1000
0010
0000
0100
0000
0010
0100
,
0001
0000
0001
0000
1000
0000
0010
1000
0010
1000
0010
0000
0100
0000
0001
0010
,
0001
0000
0010
0000
0001
0000
1000
0000
0010
1000
0001
0000
0010
0001
1000
0000
,
1001
1001
0001
0100
1000
0100
0020
0000
,
1030
1010
1000
0100
0001
0100
0010
0001
,
0011
0011
0010
1000
0010
0100
1000
0000
,
1010
0000
0000
1010
0000
0000
0000
0000
0000
0000
0000
0000
1000
0010
0100
0001
1000
0010
0100
0001
1000
0010
0100
0001
,
1000
2000
0001
0001
0010
0010
0100
3000
,
0001
0002
0100
0010
1000
0100
0100
0003
,
1000
2000
0100
0010
0001
0100
0010
3000
,
1001
0000
0000
0000
;

//---------------dance-single - Renard----------------
#NOTES:
     dance-single:
     Renard:
     Hard:
     9:
     0.644,0.550,0.217,0.062,0.279:
0000
0000
0000
0000
,
0100
0000
1000
0001
1000
0000
0001
0100
0001
0000
0100
0010
0100
0000
0010
0000
,
1000
0100
0010
0011
0000
0000
0000
0000
,
0010
0000
0100
1000
0100
0000
1000
0001
1000
0000
0001
0100
0001
0000
0100
0000
,
0010
1000
0001
1001
0000
0000
0000
0000
,
1000
0000
0100
1000
0100
0000
1000
0001
1000
0000
0001
0100
0001
0000
0100
0000
,
0010
1000
0100
0010
0000
0010
0001
0000
,
1000
0000
0010
0100
0010
0000
0100
0001
0100
0000
0001
0010
0001
0000
0010
0000
,
0100
1000
0001
0100
0000
0100
0010
0000
,
1000
1000
0010
0100
0100
0001
0010
0000
,
0001
0000
0001
0000
0010
0000
0100
0000
1000
0001
1000
0000
0001
0100
0001
0000
,
0100
0010
1000
0100
0010
0001
1000
0000
,
0110
0000
0000
0000
0000
0000
0000
0000
0010
1000
0010
1000
0010
1000
0010
1000
,
0010
1000
0100
0010
0001
1000
0001
0000
,
0100
0000
0010
0000
1000
0000
0100
0000
0010
0001
0010
0000
0100
0010
0100
0000
,
0010
0100
1000
0010
0100
0001
1000
0000
,
0110
0000
0000
0000
,
0010
0000
0000
0000
1000
0000
0000
1000
0100
0000
0010
0000
0001
0000
1000
0000
,
0001
0000
0100
0000
0010
0000
0000
0010
1000
0000
0010
0000
1000
0000
0000
0000
,
1010
0000
0000
0000
1000
0000
0000
0100
0010
0000
0001
0000
0010
0000
0100
0000
,
1000
0001
0100
0010
1000
0001
1001
0000
,
0110
0000
0000
0000
0010
0000
0000
1000
0010
0000
0100
0000
0001
0000
0010
0000
,
0100
1000
0001
0100
0010
0000
1010
0000
,
0000
0101
0000
0110
0000
1100
0000
0110
,
0000
1001
0000
1100
0000
0110
0000
0000
,
0010
0001
0010
0100
1000
0001
0100
0010
,
1000
0001
0010
0011
0000
0000
0000
0000
,
0001
0010
0100
1000
0010
0100
0001
0010
,
0100
1000
0001
1001
0000
0001
0100
0000
,
0010
1000
0001
0010
0100
1000
0001
0100
,
0010
1000
0001
1001
0000
1000
0100
0000
,
0010
0001
0010
0100
1000
0010
0100
0001
,
0010
0100
1000
0001
0100
0000
0110
0000
,
0010
1000
0010
0100
0001
0001
0002
0000
,
0013
0000
0010
0000
0100
0000
1000
0000
0010
0100
0010
0000
0100
0010
0100
0000
,
0001
0010
0100
1000
0001
0100
0010
0000
,
1010
0000
0000
0000
0000
0000
0000
0000
0001
0100
0001
0100
0001
0100
0001
0100
,
0001
0100
0010
1000
0100
0010
0002
0000
,
0013
0000
0100
0000
1000
0000
0001
0000
0100
0010
0100
0000
0010
1000
0010
0000
,
1000
0010
0100
0001
0010
0100
1000
0000
,
1001
0000
0000
0000
,
0001
0000
1000
0000
0010
0000
0100
0001
0000
0001
0100
0000
0010
0000
0000
0000
,
1000
0000
0100
0000
0010
0000
0001
0010
0000
0010
0100
0000
1000
0000
0000
0000
,
0010
0000
0100
0000
0001
0000
1000
0100
0000
0100
1000
0000
0001
0000
0010
0000
,
0100
0000
1000
0000
0010
0000
0100
0001
0000
0001
0100
0000
0010
0000
1000
0000
,
0100
0000
0010
0000
0001
0000
1000
0010
0000
0010
1000
0000
0010
0000
0100
0000
,
0001
0000
0010
0000
0100
0000
1000
0001
0000
0001
1000
0000
0001
0000
0010
0000
,
0100
0000
1000
0000
0010
0000
0100
0001
0000
0001
0100
0000
0001
0000
0010
0000
,
0100
1000
0001
0100
0010
1000
0100
0010
,
0001
0001
0010
0100
1000
0001
0200
0000
,
0310
0000
1000
0000
0010
0000
0100
0000
0001
0010
0001
0000
0010
0100
0010
0000
,
0100
1000
0010
0100
0001
1000
0200
0000
,
1300
0000
0000
0000
0000
0000
0000
0000
0001
0100
0001
0100
0001
0100
0001
0100
,
0010
1000
0100
0010
0001
0010
0200
0000
,
1300
0000
0010
0000
0100
0000
0001
0000
1000
0100
1000
0000
0001
0010
0001
0000
,
1000
0010
0100
0001
0010
0100
2000
0000
,
3001
0000
0000
0000
;

//---------------dance-single - Renard----------------
#NOTES:
     dance-single:
     Renard:
     Medium:
     5:
     0.353,0.492,0.124,0.000,0.000:
0000
0000
0000
0000
,
0000
0000
0000
0000
,
0000
0000
0000
0000
,
0000
0000
0000
0000
,
0000
0000
0000
0000
,
1000
0000
0100
0000
0010
0001
0010
0000
,
0100
0000
0000
1100
0000
0000
0000
0000
,
1000
0010
0100
0001
,
0100
0000
0010
1000
0000
0000
0000
0000
,
0010
1000
0010
1000
0010
1000
0010
0000
,
0100
0001
0100
0001
0000
0000
0000
0000
,
0010
0001
0010
0001
0010
0001
0010
0000
,
0100
0000
1100
0000
,
1000
0010
1000
0010
1000
0010
1000
0000
,
0001
0100
0001
0100
0000
0000
0000
0000
,
0001
0010
0001
0010
0001
0010
0100
0000
,
1100
0000
0000
0000
,
1000
0000
0000
0001
0100
0000
0000
0110
,
0000
1001
0000
1000
0100
0000
1000
0000
,
0001
0000
0000
0010
0001
0000
0000
1001
,
0000
0110
0000
0010
1000
0000
0001
0000
,
0100
0000
0000
0010
0100
0000
0000
1001
,
0000
0110
0000
0010
1000
0000
0001
0000
,
0000
0100
0000
0010
0000
0100
0000
0010
,
0000
1000
0000
0001
0000
0010
0000
0000
,
0001
0010
0100
1000
,
0001
0100
0001
0100
0000
0000
0000
0000
,
0001
1000
0100
0010
,
0001
1000
0001
1000
0000
0000
0000
0000
,
0001
0010
0100
0010
,
0100
1000
0100
1000
0000
0000
0000
0000
,
0010
1000
0001
0100
,
0010
1000
0010
1000
0000
0000
0000
0000
,
0010
0100
0010
0100
0010
0100
0010
0000
,
1000
0010
1000
0010
0000
0000
0000
0000
,
0100
0001
0100
0001
0100
0001
0100
0000
,
0001
0000
0011
0000
,
0010
0100
0010
0100
0010
0100
0010
0000
,
0100
1000
0100
1000
0000
0000
0000
0000
,
0001
0100
0001
0100
0001
0100
0010
0000
,
1000
0000
0000
0000
,
1000
0000
0010
0000
0000
1000
0010
0000
,
0100
0000
0001
0000
0000
0100
0001
0000
,
0010
0000
0001
0000
0000
0010
0001
0000
,
1000
0100
1000
0100
,
1000
0000
0010
0000
0000
0100
0001
0000
,
1000
0000
0100
0000
0000
0010
0001
0000
,
1000
0000
0010
0000
0000
0100
0001
0000
,
0100
0010
1000
0100
,
0010
0000
0001
0000
0010
0100
0010
0000
,
0100
1000
0000
0000
,
0010
0000
0100
0000
0001
0010
0001
0000
,
1001
0000
0000
0000
0001
0100
0001
0100
,
0001
0100
0010
1000
0010
1000
0010
0000
,
1000
0100
1000
0100
0010
0001
0010
0100
,
1000
0001
0100
0010
1000
0001
0010
0000
,
1001
0000
0000
0000
;

//---------------dance-single - Renard----------------
#NOTES:
     dance-single:
     Renard:
     Easy:
     2:
     0.218,0.231,0.083,0.000,0.000: // measure 1
0000
0000
0000
0000
,  // measure 2
1000
1000
0001
0001
,  // measure 3
0100
0000
0100
0000
,  // measure 4
0010
0010
1000
1000
,  // measure 5
0001
0000
0001
0000
,  // measure 6
0100
0100
0010
0010
,  // measure 7
1000
0000
1000
0000
,  // measure 8
0100
0100
0010
0010
,  // measure 9
0001
0000
0001
0000
,  // measure 10
1000
0001
1000
0000
,  // measure 11
0001
1000
0001
0000
,  // measure 12
0100
0010
0100
0000
,  // measure 13
0010
0000
0000
0000
,  // measure 14
0010
1000
0010
0000
,  // measure 15
0100
0001
0100
0000
,  // measure 16
0001
0010
0001
0000
,  // measure 17
1000
0000
0000
0000
,  // measure 18
0100
0000
1000
0000
,  // measure 19
0001
0010
0100
1000
,  // measure 20
0001
0000
0010
0000
,  // measure 21
0001
1000
0100
0010
,  // measure 22
0001
0000
1000
0000
,  // measure 23
0010
0100
0001
0100
,  // measure 24
0010
0000
0010
0000
,  // measure 25
1000
0001
1000
0000
,  // measure 26
0001
0000
0001
0000
,  // measure 27
0010
0100
1000
0000
,  // measure 28
0001
0000
0010
0000
,  // measure 29
0001
1000
0100
0000
,  // measure 30
0010
0000
0001
0000
,  // measure 31
1000
0010
0100
0000
,  // measure 32
0001
0000
1000
0000
,  // measure 33
0100
1000
0001
0000
,  // measure 34
0011
0000
0000
0000
,  // measure 35
1100
0000
0000
0000
,  // measure 36
1010
0000
0000
0000
,  // measure 37
0101
0000
0000
0000
,  // measure 38
1001
0000
0000
0000
,  // measure 39
0110
0000
0000
0000
,  // measure 40
0011
0000
0000
0000
,  // measure 41
1100
0000
0000
0000
,  // measure 42
1000
0001
0000
0100
,  // measure 43
0010
1000
0000
0001
,  // measure 44
0010
0100
0000
1000
,  // measure 45
0001
0010
0001
0010
,  // measure 46
0100
1000
0000
0001
,  // measure 47
1000
0010
0000
0100
,  // measure 48
0001
1000
0000
0010
,  // measure 49
1000
0000
0001
0000
,  // measure 50
0100
0100
0100
0000
,  // measure 51
0010
0010
0000
0000
,  // measure 52
1000
1000
1000
1000
,  // measure 53
0001
0000
0000
0000
,  // measure 54
0100
0100
0100
0100
,  // measure 55
0010
0010
0000
0000
,  // measure 56
1000
1000
1000
0100
,  // measure 57
0010
0000
0000
0000
;
