#TITLE:Weekend + The Night;
#SUBTITLE:;
#ARTIST:Scooter;
#TITLETRANSLIT:;
#SUBTITLETRANSLIT:;
#ARTISTTRANSLIT:;
#GENRE:Hard Dance;
#CREDIT:;
#BANNER:week.png;
#BACKGROUND:week-bg.png;
#LYRICSPATH:;
#CDTITLE:;
#MUSIC:week.ogg;
#OFFSET:0.000;
#SAMPLESTART:41.958;
#SAMPLELENGTH:12.000;
#SELECTABLE:YES;
#BPMS:0.000=143.000;
#STOPS:;
#BGCHANGES:;
#KEYSOUNDS:;

//---------------dance-single - Renard----------------
#NOTES:
     dance-single:
     Renard:
     Challenge:
     10:
     0.715,0.000,0.184,0.276,0.558:
0000
0000
0000
0000
,
0000
0000
0000
0000
,
0000
0000
0000
0000
,
0000
0000
0000
0000
,
1000
0000
0001
0000
0100
0000
0000
0010
0000
1000
0000
0010
1000
0000
0010
0000
,
0100
0000
0001
0000
0010
0000
0000
0100
0000
0010
0000
0001
0010
0000
0001
0000
,
0010
0000
0100
0000
1000
0000
0000
0001
0000
0100
0000
0010
1000
0000
0010
0000
,
0100
0000
0001
0000
1000
0000
0000
0100
0000
0010
0000
0001
0010
0000
0100
0000
,
1000
0000
0001
0100
0000
0010
0000
1000
0010
0000
0100
0000
0001
0000
0001
0000
,
0100
0000
0010
1000
0000
0100
0000
0010
0000
0001
0010
0000
0100
0000
1000
0000
,
1001
1001
1010
0000
1001
1001
0101
0000
,
0001
0000
0100
0000
0010
0000
0100
0000
0010
0100
0010
0000
0100
0000
0000
0000
,
0010
0000
1000
0001
0000
0100
0010
0000
1000
0000
0001
0000
1100
0000
0011
0000
,
0100
0000
1000
0001
0010
0000
0100
0000
1000
0000
0001
0000
0100
0000
0010
0000
,
1000
0000
0010
0000
0100
0000
0001
0100
0000
0010
1000
0000
0010
0000
0100
0000
,
0001
0000
0100
0000
0010
0000
1000
0010
0000
0100
0000
0001
0100
0000
0010
0000
,
1001
0000
0000
0000
,
0002
0000
0000
0000
0000
0000
0103
0010
,
1000
0100
0000
0020
0000
0000
0000
0000
,
0031
0010
0100
1000
0010
0000
0000
0100
,
0001
0100
0000
0020
0000
0000
0000
0000
,
1030
0000
0010
0000
0110
0000
0001
0000
1000
0000
1100
0000
1000
0100
1000
0000
,
0001
0000
0010
0000
0110
0000
1000
0000
0001
0000
0110
0000
0010
1000
0010
0000
,
1000
0000
0001
0000
0101
0000
0001
0000
0010
0000
0110
0000
0010
0100
0010
0000
,
0100
1000
1001
0100
0010
1010
1001
0000
,
1000
0000
0001
0100
0000
0000
0010
0000
0000
1000
0000
0000
0100
0000
0010
0001
0000
0000
0010
0000
0000
0100
0000
0000
,
1000
0000
0001
0100
0000
0000
0010
0000
0000
1000
0000
0000
0001
0000
1000
0100
0000
0000
1000
0000
0000
0001
0000
0000
,
0010
0000
0001
1000
0000
0000
0001
0000
0000
0100
0000
0000
0010
0000
1000
0100
0000
0000
1000
0000
0000
0010
0000
0000
,
0100
0000
0001
0010
0000
0000
0001
0000
0000
0100
0000
0000
0010
0000
1000
0001
0000
0000
0100
0000
0000
0001
0000
0000
,
1000
0000
0100
0010
0000
0000
0001
0000
0000
1000
0000
0000
0001
0000
0010
0100
0000
0000
1000
0000
0000
0001
0000
0000
,
1000
0000
0010
0100
0000
0000
0001
0000
0000
1000
0000
0000
0001
0000
0100
0010
0000
0000
1000
0000
0000
0001
0000
0000
,
1000
0000
0100
1000
0000
0000
0100
0000
0000
0010
0000
0000
0100
0000
0001
0100
0000
0000
0010
0000
0000
0100
0000
0000
,
1000
0000
0010
1000
0000
0000
0001
0000
0000
0100
0000
0000
0001
0000
0010
0001
0000
0000
1000
0000
0000
0100
0000
0000
,
0010
0000
0001
0000
0100
0000
0010
1000
0010
0000
0100
0001
0100
0000
0001
0010
,
0001
0000
0010
0000
0100
0000
1000
0001
1000
0000
0010
1000
0010
0000
0100
0010
,
0100
0000
0001
0000
0010
0000
0100
1000
0100
0000
0010
0100
0010
0000
0001
0010
,
0001
0000
0010
0000
0100
0000
1000
0000
0001
0000
0100
0010
1000
0000
0010
0100
,
0001
0000
0100
0000
0010
0000
1000
0100
1000
0000
0001
0010
0001
0000
1000
0100
,
1000
0000
0010
0000
0100
0000
0001
0000
0100
0000
0010
1000
0010
0000
0100
0001
,
0100
0000
0010
1000
0100
0000
0010
0001
0010
0000
0100
1000
0001
0000
0100
0010
,
1000
0001
0100
0010
1000
0001
0100
0010
1000
0100
0010
0001
0010
0100
1000
0001
,
0100
0000
0010
0000
0100
0000
0010
1000
0010
0000
0100
0010
0100
0000
0001
0100
,
0001
0000
0100
0000
0010
0000
1000
0100
1000
0000
0100
0010
0100
0000
0010
0001
,
0010
0000
0100
0000
0010
0000
0100
1000
0100
0000
1000
0001
1000
0000
0001
0100
,
0001
0000
0100
0000
0010
0000
1000
0100
0010
0000
0001
0010
0100
0000
1000
0010
,
0100
0000
0001
0000
0100
0000
0010
1000
0010
0000
0100
0001
0100
0000
0001
0010
,
0001
0000
0010
0000
0100
0000
1000
0100
1000
0000
0001
0010
0001
0000
1000
0010
,
0100
0001
0100
0010
1000
0100
0010
0001
0010
0100
1000
0001
0100
0010
1000
0001
,
0100
0010
1000
0001
1000
0100
0010
0001
0010
0100
1000
0001
0010
0100
1000
0001
,
2000
0000
0000
0000
0000
0000
3002
0200
,
0003
0320
2030
0020
3000
0230
0302
0200
,
0000
0000
0000
0000
0003
0320
2030
0200
,
0000
0000
3000
0020
0000
0000
0300
0002
,
0000
0000
0000
0000
0000
0030
0023
0200
,
0030
2000
0300
0020
3000
0230
0320
0200
,
0000
0000
0000
0000
0030
0302
2003
0200
,
0000
0000
0000
0000
0000
3300
0000
0000
;

//---------------dance-single - pyroko----------------
#NOTES:
     dance-single:
     pyroko:
     Hard:
     7:
     0.458,0.000,0.184,0.113,0.005: // measure 1
0000
0000
0000
0000
,  // measure 2
0000
0000
0000
0000
,  // measure 3
0000
0000
0000
0000
,  // measure 4
0000
0000
0000
0000
,  // measure 5
1000
0100
0010
0001
0000
1000
0100
0010
,  // measure 6
0100
1000
0010
0000
0100
0010
0100
0001
,  // measure 7
0010
0001
0010
0000
0100
1000
0100
1000
,  // measure 8
0010
0100
0001
0000
0001
0010
0100
1000
,  // measure 9
0010
1000
0100
0000
0010
0001
0000
0000
,  // measure 10
1000
0010
0100
0010
0100
0001
0000
0000
,  // measure 11
0100
1000
0100
0000
0010
0100
0010
0000
,  // measure 12
0001
0010
0001
0010
0100
1000
0100
0000
,  // measure 13
1000
0010
0100
0001
0010
0001
0000
0000
,  // measure 14
0010
0100
0010
0100
1000
0100
1000
0000
,  // measure 15
0010
0100
0001
0010
,  // measure 16
0100
1000
0100
1000
0100
0010
0001
0010
,  // measure 17
1001
0000
0000
0000
,  // measure 18
2000
0000
0000
0000
3000
0000
0010
0100
,  // measure 19
0010
0100
0000
0001
0000
0000
0000
1000
,  // measure 20
0100
0010
0001
0010
0001
0000
0000
0010
,  // measure 21
0100
0010
0000
0100
0000
0000
0000
0000
,  // measure 22
1000
0000
0010
0100
0010
0100
0001
0000
,  // measure 23
0010
0001
0000
0011
0000
0000
0100
1000
,  // measure 24
0010
0100
0000
0010
0000
1000
0100
1000
,  // measure 25
0001
0010
0000
1001
0000
0000
0000
1000
,  // measure 26
0010
0000
0010
0000
0010
0000
1000
0100
,  // measure 27
0010
0001
1000
0100
0010
0000
0010
0010
,  // measure 28
0001
1000
0010
0100
0010
0000
0010
1000
,  // measure 29
0100
0010
0000
0010
0000
0001
1000
0010
,  // measure 30
0100
0000
0100
0001
0010
0001
0010
0000
,  // measure 31
0100
1000
0100
1000
0000
1000
1000
0010
,  // measure 32
0100
0010
0000
0100
0000
0001
0010
0100
,  // measure 33
1000
0100
0010
0010
0000
0100
1000
0010
,  // measure 34
0110
0010
1000
0100
0010
0100
0010
0001
,  // measure 35
0010
0001
0010
0100
1000
0010
1000
0010
,  // measure 36
0100
0001
0100
0001
0010
0100
0010
0100
,  // measure 37
1000
0010
0100
0010
0100
0001
0010
0100
,  // measure 38
1000
0100
0010
0000
0010
0001
0100
0000
,  // measure 39
0100
0010
1000
0000
0100
0010
0100
0000
,  // measure 40
1000
0100
0010
0001
1000
0010
0100
0000
,  // measure 41
0010
0001
0010
1000
0100
0010
0001
0010
,  // measure 42
0011
1001
1010
0110
,  // measure 43
0101
0000
0011
0000
0110
0000
0001
0010
,  // measure 44
0001
0011
0110
1100
,  // measure 45
1001
0000
0011
0000
0110
0000
1000
0010
,  // measure 46
1000
0100
0010
0001
1000
0100
1000
0100
,  // measure 47
0010
0001
0010
0001
1000
0100
1000
0010
,  // measure 48
0100
0010
0001
0010
1000
0100
0001
0100
,  // measure 49
1000
0100
0010
0001
0010
0001
1000
0010
,  // measure 50
0220
0000
0000
0000
0000
0000
0000
0030
,  // measure 51
0002
0000
0000
0000
0000
0000
0000
0300
,  // measure 52
0020
0000
0000
0000
0000
0000
0000
0003
,  // measure 53
2000
0000
0000
0030
0002
0000
0000
3000
,  // measure 54
0200
0000
0000
0000
,  // measure 55
0000
0003
0000
0020
0000
0000
0000
0000
0000
0000
0000
0000
0000
0000
0300
0000
,  // measure 56
0002
0000
0000
0000
0000
0000
0030
0200
,  // measure 57
0000
0000
0000
0303
;

//---------------dance-single - pyroko----------------
#NOTES:
     dance-single:
     pyroko:
     Medium:
     3:
     0.301,0.000,0.072,0.082,0.000: // measure 1
0000
0000
0000
0000
,  // measure 2
0000
0000
0000
0000
,  // measure 3
0000
0000
0000
0000
,  // measure 4
0000
0000
0000
0000
,  // measure 5
1000
0000
0100
0000
0010
0001
0010
0001
,  // measure 6
0010
0000
0100
0000
1000
0100
1000
0100
,  // measure 7
1000
0000
0010
0000
0100
0010
0100
0010
,  // measure 8
0100
0000
0001
0000
0010
0100
1000
0000
,  // measure 9
1000
0000
0100
0000
0010
0001
0010
0000
,  // measure 10
0001
0000
0100
0000
0010
0100
0010
0000
,  // measure 11
1000
0100
0010
0001
,  // measure 12
0010
0000
0100
0000
1000
0100
1000
0000
,  // measure 13
0010
0000
0100
0000
0001
0010
0001
0000
,  // measure 14
0010
0000
0100
0000
1000
0100
1000
0000
,  // measure 15
0010
0100
0001
0010
,  // measure 16
0001
1000
0010
0100
,  // measure 17
0110
0000
0000
0000
,  // measure 18
2000
0000
0000
0000
0000
3000
0100
0000
,  // measure 19
0010
0001
0010
0000
,  // measure 20
0010
0100
0010
0000
,  // measure 21
1000
0100
1000
0000
,  // measure 22
0001
0010
0001
0010
,  // measure 23
0100
1000
0100
0000
,  // measure 24
0010
0100
0010
0000
,  // measure 25
0100
0001
0010
0001
,  // measure 26
0011
0001
1000
0100
,  // measure 27
1000
0000
0100
0000
0010
0000
0001
0010
,  // measure 28
0001
0100
0010
0100
,  // measure 29
0010
0000
1000
0000
0100
0000
1000
0100
,  // measure 30
1000
0010
0100
0001
,  // measure 31
1000
0000
0100
0000
0010
0000
0001
0010
,  // measure 32
0001
0000
0010
0000
0100
0000
1000
0100
,  // measure 33
1000
0010
0100
0001
,  // measure 34
0011
0001
1000
0010
,  // measure 35
1000
0000
0010
0000
0100
0000
0001
0100
,  // measure 36
0001
0010
0001
0010
,  // measure 37
0100
1000
0100
1000
,  // measure 38
0100
0000
0010
0000
0001
0000
1000
0001
,  // measure 39
1000
0010
0100
0010
,  // measure 40
0100
0001
0010
0100
,  // measure 41
1000
0010
0100
0001
,  // measure 42
0011
0000
1001
0000
,  // measure 43
1000
0100
0010
0001
,  // measure 44
1001
0000
0110
0000
,  // measure 45
0100
0001
0100
0001
,  // measure 46
0010
0000
0100
0000
,  // measure 47
1000
0100
1000
0100
,  // measure 48
0010
0010
0001
0001
,  // measure 49
1000
0000
1000
0000
0100
0010
0100
0010
,  // measure 50
0002
0000
0000
0000
,  // measure 51
2003
0000
0000
0000
,  // measure 52
3020
0000
0000
0000
,  // measure 53
0230
0000
0000
0000
,  // measure 54
0302
0000
0000
0000
,  // measure 55
0000
0000
0000
0000
,  // measure 56
2003
0000
0000
0000
0000
0000
0000
3200
,  // measure 57
0000
0000
0000
0300
;

//---------------dance-single - pyroko----------------
#NOTES:
     dance-single:
     pyroko:
     Easy:
     1:
     0.190,0.000,0.133,0.092,0.000: // measure 1
0000
0000
0000
0000
,  // measure 2
0000
0000
0000
0000
,  // measure 3
0000
0000
0000
0000
,  // measure 4
0000
0000
0000
0000
,  // measure 5
1000
0100
0000
0000
,  // measure 6
0001
1000
0000
0000
,  // measure 7
0100
0010
0000
0000
,  // measure 8
0001
0010
0000
0000
,  // measure 9
0100
1000
0100
0000
,  // measure 10
0010
0001
0010
0000
,  // measure 11
0100
0010
0000
0000
,  // measure 12
1000
1000
0100
0000
,  // measure 13
0010
0010
0001
0000
,  // measure 14
0100
0100
0010
0000
,  // measure 15
1000
0000
0000
0100
,  // measure 16
0010
0001
0010
0001
,  // measure 17
1001
0000
0000
0000
,  // measure 18
0010
0000
0000
0000
,  // measure 19
1000
0000
0000
0000
,  // measure 20
0100
0000
0000
0000
,  // measure 21
0010
0000
0000
0000
,  // measure 22
0100
0000
0000
0000
,  // measure 23
1000
0000
0000
0000
,  // measure 24
0001
0000
0000
0000
,  // measure 25
0100
0000
0000
0000
,  // measure 26
0010
0010
1000
0000
,  // measure 27
0100
1000
0100
0000
,  // measure 28
0010
0010
0001
0000
,  // measure 29
0001
0010
0001
0000
,  // measure 30
0100
0000
0010
0000
,  // measure 31
1000
0010
1000
0000
,  // measure 32
0100
0000
1000
0000
,  // measure 33
0100
1000
0100
0000
,  // measure 34
2002
0000
0000
3003
,  // measure 35
0010
1000
0100
0000
,  // measure 36
0010
0010
0001
0000
,  // measure 37
1000
1000
0010
0100
,  // measure 38
0001
0001
0010
0000
,  // measure 39
0100
0100
1000
0000
,  // measure 40
0010
0000
0100
0000
,  // measure 41
0001
0000
0010
0000
,  // measure 42
0100
0000
1100
0000
,  // measure 43
1100
0000
1001
0000
,  // measure 44
1001
0000
0110
0000
,  // measure 45
0110
0000
0110
0000
,  // measure 46
1001
0000
1001
0000
,  // measure 47
1001
0000
1001
0000
,  // measure 48
1000
0000
0001
0000
,  // measure 49
1000
0100
0010
0001
,  // measure 50
2000
0000
0000
0000
0000
0000
0000
3000
,  // measure 51
0020
0000
0000
0000
0000
0000
0000
0030
,  // measure 52
2000
0000
0000
0000
0000
0000
0000
3000
,  // measure 53
0002
0000
0000
0000
0000
0000
0000
0003
,  // measure 54
0200
0000
0000
0000
,  // measure 55
0000
0000
0000
0000
0000
0000
0000
0300
,  // measure 56
0020
0000
0000
0000
0000
0000
0000
0030
,  // measure 57
0200
0000
0000
0300
;
