#TITLE:We Don't Give a Damn;
#SUBTITLE:;
#ARTIST:Plus System;
#TITLETRANSLIT:;
#SUBTITLETRANSLIT:;
#ARTISTTRANSLIT:;
#GENRE:;
#CREDIT:;
#BANNER:damn.png;
#BACKGROUND:damn-bg.png;
#LYRICSPATH:;
#CDTITLE:;
#MUSIC:damn.ogg;
#OFFSET:0.015;
#SAMPLESTART:42.841;
#SAMPLELENGTH:12.000;
#SELECTABLE:YES;
#BPMS:0.000=174.995;
#STOPS:;
#BGCHANGES:;
#GENRE:Trancecore;

//---------------dance-single - ----------------
#NOTES:
     dance-single:
     Renard:
     Challenge:
     9:
     0.643,0.000,0.247,0.525,0.139: // measure 1
0000
0000
0000
0000
,  // measure 2
0000
0000
0000
0000
,  // measure 3
0000
0000
0000
0000
,  // measure 4
0000
0000
0000
0000
,  // measure 5
0000
0000
0001
0100
0010
0000
0000
0000
1000
0000
0000
0000
0100
0000
0010
0000
,  // measure 6
0000
0000
0001
0010
0100
0000
0000
0000
1000
0000
0010
0000
0000
0000
0100
0000
,  // measure 7
0000
0000
0001
0100
0010
0000
0000
0000
1000
0000
0000
0000
0100
0000
0010
0000
,  // measure 8
0000
0000
0001
0010
0100
0000
0000
0000
1000
0000
0010
0000
0000
0000
0100
0000
,  // measure 9
0000
0000
0010
1000
0010
0000
0000
0000
0100
0000
0000
0000
0001
0100
0010
0000
,  // measure 10
0000
1000
0010
0000
0100
0001
0000
1000
,  // measure 11
0000
0000
0100
0010
0001
0000
0000
0000
0010
0000
0000
0000
0100
0000
1000
0000
,  // measure 12
0000
0000
0001
0010
0100
0000
0000
0000
1000
0000
0010
0000
0000
0000
0100
0000
,  // measure 13
0000
0000
0001
0100
0010
0000
0000
0000
1000
0000
0000
0000
0010
0100
0001
0000
,  // measure 14
0000
0000
0100
0010
1000
0000
0000
0000
0100
0000
0010
0000
0000
0000
0001
0000
,  // measure 15
0000
0000
0010
0100
1000
0000
0000
0000
0001
0000
0000
0000
1000
0000
0001
0000
,  // measure 16
2100
0010
0002
0000
,  // measure 17
0003
0000
0001
0100
0000
0100
3000
0010
,  // measure 18
0001
0000
0001
0010
0000
0010
1000
0100
,  // measure 19
0001
0000
0001
0100
0000
0100
1000
0010
,  // measure 20
0001
0000
0001
0010
0000
0010
1000
0000
,  // measure 21
0100
0000
0100
1000
0000
1000
0010
0001
,  // measure 22
0100
0000
0100
0001
0000
0001
0010
1000
,  // measure 23
0100
0000
0100
1000
0000
1000
0010
0001
,  // measure 24
0100
0000
0100
0001
0000
0001
0010
0000
,  // measure 25
0011
0011
0011
0011
,  // measure 26
0011
0000
1000
0100
0010
0001
0000
0000
,  // measure 27
1100
1100
1100
1100
,  // measure 28
1100
0000
0001
0010
0100
1000
0000
0000
,  // measure 29
1010
1010
1010
1010
,  // measure 30
1010
0000
0001
0100
0010
1000
0000
0000
,  // measure 31
0101
0101
0101
0101
,  // measure 32
0012
1000
0200
0000
,  // measure 33
0003
0000
0000
0000
0300
0010
0100
0000
0000
0000
0010
1000
0010
0000
1000
0000
,  // measure 34
0100
0000
0000
0000
0010
0001
0010
0000
0000
0000
0100
1000
0100
0000
1000
0000
,  // measure 35
0010
0000
0000
0000
0100
0001
0100
0000
0000
0000
0010
1000
0010
0000
1000
0000
,  // measure 36
0100
0000
0000
0000
1000
0100
1000
0000
0000
0000
0001
0010
0001
0000
0010
0000
,  // measure 37
0001
0000
0000
0000
0100
0010
0100
0000
0000
0000
0010
1000
0010
0000
1000
0000
,  // measure 38
0010
0000
0000
0000
0100
0001
0100
0000
0000
0000
0001
0010
0001
0000
0010
0000
,  // measure 39
0100
0000
0000
0000
1000
0100
1000
0000
0000
0000
0001
0010
0001
0000
1000
0000
,  // measure 40
2010
0001
0200
0000
,  // measure 41
0010
0001
3000
0300
0010
0000
0010
0100
,  // measure 42
1000
0001
0010
0000
0010
0000
0010
0000
,  // measure 43
0010
0001
1000
0100
0010
0000
0010
0100
,  // measure 44
1000
0001
0010
0000
0010
0000
0010
0000
,  // measure 45
0010
0001
0100
0010
1000
0000
1000
0010
,  // measure 46
0100
0001
0010
0000
0010
0000
0010
0000
,  // measure 47
0010
0001
0100
0010
1000
0000
1000
0010
,  // measure 48
0100
0001
0010
0000
2002
0000
0000
0000
,  // measure 49
0003
0100
0010
0100
3000
0100
0010
0100
,  // measure 50
0000
0100
0010
0001
0010
1000
0010
0100
,  // measure 51
0010
0100
0001
0010
0100
0010
1000
0010
,  // measure 52
0000
0010
0100
0010
0001
1000
0010
0100
,  // measure 53
0010
1000
0100
1000
0010
1000
0001
1000
,  // measure 54
0000
1000
0001
1000
0010
1000
0100
0010
,  // measure 55
0001
0100
0001
0010
0001
0100
0001
1000
,  // measure 56
0000
2000
0001
0000
0002
0000
0000
0000
,  // measure 57
3000
0000
0000
0000
1003
0000
0200
0000
0001
0000
2000
0300
0002
3000
0020
0003
,  // measure 58
2000
0000
0030
0000
0020
3000
0002
0000
0030
0000
2000
0003
0200
3000
0002
0300
,  // measure 59
0020
0000
0003
0000
0200
0030
2000
0000
0300
0000
0200
3000
0002
0300
2000
0003
,  // measure 60
0002
0000
3000
0000
0200
0003
2000
0000
0300
0000
0002
3000
0200
0003
2000
0300
,  // measure 61
0002
0000
3000
0000
2000
0003
0200
0000
0000
3000
0020
0300
2000
0030
0200
3000
,  // measure 62
0020
0000
0300
0000
0002
0030
0020
0000
0000
0003
2000
0030
0002
3000
0200
0003
,  // measure 63
2000
0000
0300
0000
0020
3000
0002
0000
0000
0030
0200
0003
0020
0300
1030
0000
,  // measure 64
0010
1000
0000
0000
;

//---------------dance-single - ----------------
#NOTES:
     dance-single:
     pyroko:
     Hard:
     8:
     0.565,0.000,0.129,0.043,0.000:
0000
0000
0000
0000
,
0000
0000
0000
0000
,
0000
1000
0100
0000
0010
0000
0010
0001
,
0000
0001
0100
0000
0100
0010
1000
0100
,
0010
0000
0010
0000
0001
0000
0001
0010
,
0000
0010
0001
0000
0001
1000
0100
0010
,
0100
0000
1000
0000
0010
0000
0010
0100
,
0000
0100
0001
0000
0010
0001
0010
0100
,
1000
1000
0010
0000
0100
0000
0100
0001
,
0000
0001
1000
0000
1000
0010
0100
0010
,
0000
0000
0011
0000
1000
0000
0100
0010
,
0000
0010
0001
0000
0001
0100
0010
0100
,
0010
1000
0100
0000
0010
0000
0100
1000
,
0000
0001
0100
0010
0001
0010
1000
0100
,
0000
0100
0010
0000
0010
0000
0001
0100
,
2002
0000
0000
3003
,
0100
0010
0001
1000
0010
0000
0100
0010
,
1000
0000
1000
0100
0000
0100
0010
0001
,
0010
0000
0001
0100
0000
0010
1000
0100
,
0010
0000
0010
0001
0000
0001
1000
0100
,
1000
0000
0010
0100
0000
0100
1000
0100
,
0001
0000
0100
1000
0000
1000
0100
0010
,
0100
0000
1000
0100
0000
0100
0010
0001
,
0100
0000
0100
0010
0000
0010
1000
0100
,
0010
0001
1000
0100
0010
0000
0010
0001
,
1000
0000
1000
0100
0000
0100
1000
0010
,
0100
0000
0100
0010
0000
0010
0001
0010
,
1000
0000
1000
0100
0000
0100
1000
0001
,
0010
0000
0010
0100
0000
0100
1000
0001
,
0100
0000
0100
0010
0000
0010
0001
0010
,
1000
0000
1000
0100
0000
0100
0010
0001
,
0020
0000
0000
0000
0001
0000
0001
0030
,
0001
0000
1000
0010
0000
0010
0100
0010
,
1000
0000
1000
0100
0000
0100
1000
0001
,
0010
0000
0010
0100
0000
0100
1000
0010
,
0001
0000
0001
0010
0000
0010
1000
0100
,
0010
0000
0010
1000
0000
1000
0010
0001
,
0100
0000
0100
0010
0000
0010
0001
0010
,
1000
0000
1000
0100
0000
0100
1000
0001
,
0100
0010
1100
0011
,
1000
0100
0010
0001
1000
0000
1000
0100
,
0010
0100
1000
0000
1010
0000
0101
0000
,
0010
1000
0100
0010
0100
0000
0100
1000
,
0001
0100
0010
0000
1010
0000
1100
0000
,
0100
0010
1000
0010
0001
0000
0001
0100
,
1000
0100
0001
0000
0011
0000
0110
0000
,
0100
1000
0010
0100
0010
0000
0010
0100
,
0010
1000
0001
0000
0110
0000
1100
0000
,
0000
1000
0100
0000
0100
0000
0100
0010
,
0000
0010
0001
0000
0001
0100
0000
0010
,
0000
0010
1000
0000
1000
0000
0100
0010
,
0000
0010
0100
0000
0100
1000
0001
0100
,
0010
0010
1000
0000
1000
0000
0100
0010
,
0000
0010
0001
0000
0001
0100
0000
0100
,
0010
0010
0001
0000
0010
0000
1000
0100
,
0000
0010
0100
0000
1000
0100
0010
0001
,
1000
0000
0100
0010
0000
0010
0001
0100
,
0010
0000
0010
1000
0000
1000
0100
0010
,
0100
0000
0100
0010
0000
0010
0001
0100
,
0010
0000
0010
0100
0000
0100
0010
1000
,
0100
0000
0100
0010
0000
0010
0100
1000
,
0001
0000
0001
0100
0000
0001
0100
1000
,
0100
0000
0010
1000
0000
1000
0100
0010
,
0002
0000
1000
0000
0010
0000
0100
0003
;

//---------------dance-single - ----------------
#NOTES:
     dance-single:
     pyroko:
     Medium:
     5:
     0.385,0.000,0.011,0.075,0.000:
0000
0000
0000
0000
,
0000
0000
0000
0000
,
0000
1000
0100
0000
0010
0000
0000
0000
,
0000
0100
0010
0000
,
0000
1000
0100
0000
0100
0000
0000
0000
,
0000
0010
0100
0000
,
0000
0001
0100
0000
0000
0000
0010
0000
,
1000
0000
0000
0000
,
1000
0100
0010
0001
,
1000
0000
0100
0000
0010
0001
0000
0000
,
1000
0010
0100
0010
,
1000
0000
0100
0000
0010
0001
0000
0000
,
0001
0100
0010
1000
,
0100
0000
0010
0000
0100
1000
0000
0000
,
0010
0100
0001
0010
,
0022
0000
0000
0000
0000
0000
0000
0033
,
1000
0000
0100
0000
0010
0000
0001
1000
,
0001
0010
0100
1000
,
0010
0100
0010
0000
1000
0000
0100
0000
,
0010
0001
0010
0000
0001
0000
0100
0000
,
0010
1000
0010
0000
1000
0000
0100
0000
,
0010
0100
0010
0000
0100
0000
1000
0000
,
0010
0100
0001
0000
0010
0000
0001
0000
,
1000
0100
0010
0100
,
1000
0000
0010
0100
0000
0100
0001
0000
,
0010
0010
0100
0100
,
1000
0000
1000
0100
0000
0100
1000
0000
,
0010
0100
0001
0010
,
0100
0000
0100
0010
0000
0010
0001
0000
,
0100
0010
1000
0100
,
0010
0000
0010
0001
0000
0001
0100
0000
,
0020
0000
0000
0000
0000
0000
0000
0030
,
1000
0100
0010
0001
,
1000
1000
0010
0100
,
0001
0010
0100
1000
,
0100
0100
0010
0001
,
1000
0010
0100
0100
,
0001
0010
0100
1000
,
1000
0010
0100
0001
,
0020
0000
0000
0000
0000
0000
0000
0030
,
1000
0000
0010
0000
0100
0000
0010
1000
,
0100
0010
0100
1000
,
0001
0010
0001
0000
0100
0000
0010
0000
,
1000
0010
1000
0000
0100
0000
0010
0000
,
0100
1000
0100
0000
1000
0000
0001
0000
,
0010
0001
0010
0000
0100
0000
0010
0000
,
0100
1000
0100
0000
1000
0000
0010
0000
,
0200
0000
0000
0000
0000
0000
0000
0300
,
1000
0100
0010
0001
,
1000
0000
0010
0000
0100
0001
0000
0000
,
0010
0000
0010
0000
0100
0000
0100
1000
,
0000
1000
0100
0000
0010
0000
0001
0000
,
0100
0000
0010
0000
1000
0000
0100
0010
,
0000
0010
0001
0000
0001
0000
0100
0000
,
0010
0000
1000
0000
0100
0000
0100
0010
,
0000
0010
0002
0000
0000
0000
0000
0003
,
1000
0100
0010
0001
,
1000
0100
0010
0001
,
1000
0100
0010
0001
,
1000
0010
0100
0001
,
0010
0001
0010
0000
0100
0000
1000
0000
,
0010
1000
0010
0000
1000
0000
0010
0000
,
0100
0001
0100
0000
0001
0000
0010
0000
,
0200
0000
0000
0000
0000
0000
0000
0300
;

//---------------dance-single - ----------------
#NOTES:
     dance-single:
     pyroko:
     Easy:
     3:
     0.285,0.000,0.043,0.193,0.000:
0000
0000
0000
0000
,
0000
0000
0000
0000
,
0000
0000
0000
0000
,
0000
0000
0000
0000
,
1000
1000
0100
0000
,
0010
0010
0001
0000
,
0001
0001
0100
0000
,
0010
0010
1000
0000
,
0100
0100
1000
0000
,
0001
0001
0100
0000
,
0010
0010
0100
0000
,
0001
0001
1000
0000
,
0100
0100
0010
0000
,
0001
0001
0010
0000
,
1000
1000
0010
0000
,
2002
0000
0000
3003
,
0020
0000
0000
0000
,
2030
0000
0000
0000
,
3002
0000
0000
0000
,
0203
0000
0000
0000
,
0302
0000
0000
0000
,
0023
0000
0000
0000
,
0230
0000
0000
0000
,
2300
0000
0000
0000
,
3010
0100
0010
0000
,
1000
0010
1000
0000
,
0001
0100
0010
0000
,
0010
1000
0100
0000
,
0010
0100
0010
0000
,
0001
0100
0010
0000
,
0010
0100
0010
0000
,
2200
0000
0000
3300
,
0010
0001
0010
0001
,
1000
0010
1000
0000
,
0100
0010
0100
0010
,
0001
1000
0001
0000
,
1000
0100
0010
0001
,
1000
0100
0010
0000
,
0001
0100
0010
1000
,
0200
0000
0000
0300
,
1000
0100
0010
0001
,
1000
0100
0010
0010
,
0001
1000
0001
0100
,
0010
1000
0100
0100
,
0010
0001
0010
0001
,
1000
0100
1000
1000
,
0010
0100
0001
0010
,
0002
0000
0000
0003
,
1000
0100
0100
0000
,
1000
0010
0010
0000
,
0100
0001
0001
0000
,
0010
0100
0100
0000
,
1000
0001
0001
0000
,
0100
0010
0010
0000
,
1000
0100
0100
0000
,
0220
0000
0000
0330
,
1000
0100
0010
0000
,
0100
0010
0100
0000
,
1000
0001
1000
0000
,
0100
0010
0100
0000
,
0100
0001
0100
0000
,
0001
0010
0001
0000
,
0010
0100
0010
1000
,
2200
0000
0000
0000
0000
0000
0000
3300
;
