#TITLE:Want You Bad;
#SUBTITLE:;
#ARTIST:The Offspring;
#TITLETRANSLIT:;
#SUBTITLETRANSLIT:;
#ARTISTTRANSLIT:;
#CREDIT:;
#BANNER:bad.png;
#BACKGROUND:bad-bg.png;
#LYRICSPATH:;
#CDTITLE:;
#MUSIC:bad.ogg;
#OFFSET:-0.002;
#SAMPLESTART:79.583;
#SAMPLELENGTH:12.000;
#SELECTABLE:YES;
#BPMS:0.000=211.100;
#STOPS:;
#BGCHANGES:;

//---------------dance-single - Renard----------------
#NOTES:
     dance-single:
     Renard:
     Challenge:
     10:
     0.882,1.000,1.000,0.077,0.019:
0000
0000
0000
0000
,
0000
0000
0000
0000
,
0101
0000
0010
0010
1000
1000
0100
0100
,
0010
0010
0001
0001
1000
1000
0001
0001
,
0100
0100
0010
0010
1000
0100
0100
0100
,
1000
0000
0001
0100
0001
0000
1000
0000
0001
0000
1000
0000
0001
0000
1000
0000
,
1001
0000
1000
0010
0100
0001
0010
0100
,
0010
0001
1000
0010
0100
0001
0100
0001
,
0101
0000
0100
0010
1000
0100
0010
0001
,
1000
0100
0010
0100
1000
0010
0100
0010
,
0110
0000
0010
1000
0001
0010
0100
0010
,
0001
1000
0010
0100
0001
0100
0001
0000
,
0101
0100
0110
0010
1010
1000
0100
0100
,
0010
0001
0010
0100
1000
0010
0100
0001
,
0101
0000
0100
0010
1000
0100
0010
0001
,
0010
1000
0010
0001
0100
1000
0100
0001
,
0101
0000
0001
0100
0010
1000
0100
1000
,
0001
0010
0001
1000
0001
1000
0001
0000
,
1001
0000
1000
0010
0100
0000
0110
0000
,
0101
0000
0001
1000
0100
0010
0001
0000
,
0011
0110
1100
1010
,
1010
0000
0001
0100
0001
0000
1010
0000
1000
0000
0100
0000
0010
0000
0001
0000
,
0011
0000
0010
0000
1000
0010
0100
0001
,
0100
0010
1000
0001
0100
0010
1000
0000
,
1001
0000
1000
0000
0100
0010
0001
0010
,
0100
1000
0010
0100
0001
1000
0001
0000
,
0101
0000
0001
0100
0010
1000
0100
0010
,
0001
0010
0001
0010
0100
1000
0010
0100
,
0001
0100
0010
1000
0001
0100
0001
1000
,
0001
0000
0100
0001
0100
0000
0001
0000
1000
0000
0100
1000
0100
0000
1000
0000
,
1000
0100
1100
0000
0010
0001
0011
0000
,
0001
0100
0101
0000
0010
1000
1010
0000
,
1000
0100
1100
0000
0010
0001
0011
0000
,
0001
0100
0101
0000
1000
0010
1010
0000
,
1000
0001
1001
0000
0100
0010
0110
0000
,
0010
0100
0110
0000
0001
1000
1001
0000
,
1000
1000
1100
0000
0010
0010
0011
0000
,
0001
0001
0101
0000
0100
0100
0110
0000
,
0010
1000
0100
0010
0001
0010
1000
0010
,
0001
0010
0001
0010
0001
0010
0001
0000
,
0001
0010
1000
0010
0001
0010
0001
0010
,
1000
0010
1000
0010
0001
0010
0001
0000
,
0001
0100
1000
0100
1000
0100
1000
0100
,
0001
0100
0001
0100
1000
0100
1000
0000
,
0001
0100
1000
0000
0001
0100
1000
0000
,
0001
0100
1000
0000
0001
0100
1000
0000
,
0001
0100
0110
0000
0010
1000
0010
0000
,
0100
0010
0100
0000
0001
1000
0001
0000
,
1000
0100
1100
0000
0100
0010
0001
1000
,
2002
0000
0000
3113
,
2020
0000
0000
0000
0000
0000
0000
0030
,
0200
0000
0000
0000
0000
0000
0000
3000
,
0020
0000
0000
0002
0000
0000
0000
0000
,
2000
0000
0000
3333
,
1001
1000
1000
1000
,
1000
0000
1000
0000
1000
0000
1000
0001
,
0001
0001
0001
0001
,
0001
0000
0001
0000
0001
0100
0100
0100
,
0100
0100
0100
0100
,
0100
0000
0100
0000
0100
0000
0100
0010
,
0010
0010
0010
0010
,
0010
0000
0010
0000
0010
0010
0010
0010
,
1000
0000
1000
0001
0001
0000
0001
0000
,
0100
0000
0100
0010
0010
0000
0010
0000
,
1000
0000
1000
1000
0100
0000
0100
0000
,
0010
0000
0010
0010
0001
0000
0001
0000
,
0100
0000
0100
0001
0001
0000
0001
0000
,
1000
0000
1000
0100
0100
0000
0100
0000
,
0010
0000
0010
0010
0001
0000
0001
0000
,
0100
0001
1000
0001
1000
0001
1001
0000
,
1000
0000
1100
0000
0100
0100
0010
0000
,
0001
0000
0101
0000
0001
1000
1000
0000
,
0010
0000
0110
0000
0001
0001
0100
0000
,
0010
0000
1010
0000
1000
1000
0100
0000
,
0010
0000
0011
0000
0001
1000
1000
0000
,
0010
0000
0101
0000
0001
1000
1000
0000
,
1000
0100
0010
0001
0010
0100
1000
0010
,
0100
0001
0100
0010
1000
0001
1001
0000
,
1100
0000
0011
0000
0001
0100
0101
0000
,
0010
1000
1010
0000
1000
0100
1100
0000
,
0010
0000
0011
0000
0001
0100
0101
0000
,
0001
1000
1001
0000
1000
0100
1100
0000
,
1000
0110
0001
0110
,
0001
1100
0001
0110
,
1001
1010
1001
0101
,
1001
1100
0011
0101
,
1100
1010
0011
0101
,
1010
1001
1100
0011
,
1100
1100
1010
1010
1001
1001
1100
1100
,
1001
1001
1010
1010
1100
1100
1001
1001
,
1010
1010
1001
1001
1100
1100
1010
1010
,
1001
0000
0000
0000
;

//---------------dance-single - Renard----------------
#NOTES:
     dance-single:
     Renard:
     Hard:
     9:
     0.720,0.741,0.489,0.038,0.000:
0000
0000
0000
0000
,
0000
0000
0000
0000
,
0000
0000
0000
0000
,
0000
0000
0000
0000
,
0001
0100
0001
0100
0010
0100
0010
1000
,
0010
1000
0010
1000
0010
1000
0010
0000
,
1000
0000
0100
0010
0001
1000
0000
1001
,
0000
1010
0000
0101
0000
1001
0000
1000
,
0100
0010
0001
1000
0010
0100
0000
0101
,
0000
1010
0000
1001
0000
1100
0000
1000
,
0100
0000
0010
0001
0010
0000
0100
1000
,
0010
0000
0100
0001
0100
0000
0001
0000
,
1000
0000
1000
0100
0010
0000
0010
0001
,
0010
0000
0010
0100
1000
0010
0100
0001
,
0100
0000
0001
0100
0010
1000
0000
1001
,
0000
1010
0000
0101
0000
1001
0000
1000
,
0100
0010
0001
0000
0010
0100
0000
1000
,
0000
1010
0000
0101
0000
1001
0000
0000
,
1001
0000
0000
0000
1010
0000
0000
0001
,
0100
0010
1000
0100
0010
0000
0001
0000
,
1000
0001
1000
0000
0010
0100
0010
0000
,
1000
0001
1000
0000
0010
0100
0010
0000
,
1000
0001
0100
0010
1000
0000
0001
0000
,
0100
0100
0010
0010
,
1000
0100
0010
0001
1000
0000
1000
0000
,
0001
0001
0100
0100
,
0001
1000
0100
0010
0001
0000
0001
0000
,
1000
1000
0010
0010
,
0100
0100
0001
0001
,
1000
1000
0100
0100
0010
0001
1000
0000
,
0001
1000
0001
0000
1001
0000
1000
0000
,
1010
0010
0110
0100
,
0001
0010
0001
0000
0011
0000
0010
0000
,
0110
0100
1100
1000
,
0001
0100
0001
0000
0101
0000
0100
0000
,
0110
0010
1010
1000
,
0001
0100
0001
0000
0100
0010
0100
0000
,
0010
1000
0010
0000
1000
0001
1000
0000
,
0001
0100
0010
0000
1010
0000
1000
0000
,
1100
0100
0110
0010
,
0001
0010
0100
0000
0110
0000
0010
0000
,
0011
0001
0101
0100
,
0001
0100
0010
0000
0110
0000
0100
0000
,
0101
0001
1001
1000
,
1001
1000
1010
1000
,
1001
1000
1100
1000
,
0001
1000
0001
1000
0010
1000
0010
1000
,
0100
1000
0100
1000
0100
1000
0100
1000
,
0001
0010
0100
1000
0001
0100
0001
1000
,
1001
0000
0000
0110
,
2000
0000
0000
0000
,
0000
0000
0000
0000
,
3020
0000
0000
0230
0000
0000
0000
0000
,
0302
0000
0000
0000
,
1003
0000
1000
0000
1000
0000
1000
0010
,
0100
0000
0100
0001
0000
0001
0100
0000
,
0010
0000
0010
1000
0100
0000
0100
0010
,
0001
0000
0001
0010
0000
0010
0100
0000
,
1000
0000
0010
0100
0001
0000
0001
0100
,
0010
0000
0010
1000
0000
1000
0001
0000
,
0100
0000
0001
1000
0100
0000
0100
0010
,
0001
0000
0001
1000
0000
1000
0001
0000
,
0100
0000
0010
1000
0001
0000
0001
0100
,
0001
0000
0001
1000
0000
1000
0001
0000
,
0100
0000
0010
1000
0001
0000
0001
1000
,
0100
0000
0100
0010
0000
0010
0001
0000
,
1000
0000
0001
0100
0001
0000
0001
1000
,
0100
0000
0100
0010
0000
0010
0001
0000
,
1000
0001
1000
0000
0010
0100
0010
0000
,
1000
0001
1000
0100
0010
0001
1000
0000
,
0001
0100
0001
0100
0010
0100
0010
1000
,
0010
1000
0010
1000
0100
1000
0100
0000
,
0001
0010
0001
0010
0100
0010
0100
0010
,
0100
1000
0100
1000
0010
1000
0010
1000
,
0001
0100
0001
0100
0010
1000
0010
1000
,
0001
1000
0100
1000
0001
0010
0001
0000
,
0001
0010
0001
0000
0010
0100
0010
0000
,
0100
1000
0100
0000
1000
0001
1000
0000
,
0001
1000
0010
1000
0001
1000
0100
1000
,
0010
1000
0001
1000
0100
1000
0001
0000
,
0001
1000
0001
0100
0001
0010
0001
0100
,
0001
1000
0001
0100
0001
0010
0001
0000
,
0001
1000
0010
0000
0010
0100
0001
0000
,
0001
0010
0100
1000
0001
0000
0100
0000
,
0101
0100
0110
0010
,
1010
1000
1100
0100
,
0110
0010
0011
0001
,
1001
1000
1001
0001
,
0101
0000
0100
0010
1000
0000
0010
0100
,
0001
0000
0010
0100
1000
0000
0001
0100
,
0010
1000
0100
0010
0001
0100
0010
0100
,
1001
0000
0000
0000
;

//---------------dance-single - Renard----------------
#NOTES:
     dance-single:
     Renard:
     Medium:
     6:
     0.449,0.567,0.192,0.230,0.000:
0000
0000
0000
0000
,
0000
0000
0000
0000
,
1000
1000
1000
1000
,
0001
0001
0001
0001
,
0100
0100
0010
0010
,
1000
0001
1000
0001
1000
0001
1000
0001
,
1000
0001
0100
0010
,
1000
0100
0010
0001
,
1000
0010
0100
0001
,
0100
0001
1000
0010
,
1000
0000
1000
0000
,
0001
0000
0001
0000
,
0100
0110
0100
0110
,
0100
0110
0100
0110
,
0010
0000
1000
0001
,
0100
0001
1000
0100
,
1100
0000
0010
0001
,
0100
0010
1000
0001
,
0101
0000
0001
1000
,
0100
0010
0001
1000
,
0010
0110
0100
0110
,
0010
0110
0100
0110
,
0010
1000
0010
1000
,
0001
1000
0001
0000
,
0100
0001
1000
0100
,
1000
0010
1000
0001
,
1000
0001
0100
0001
,
1000
0001
0100
0000
,
1001
0000
1010
0000
,
0101
0000
0000
0000
1000
0001
1000
0000
,
1000
0010
0100
0001
,
0100
0100
0010
0000
,
1000
0100
0010
0010
,
0001
0001
0010
0000
,
0100
1000
0001
1000
,
0100
1000
0001
1000
,
0010
1000
0001
1000
,
0100
1000
0001
1000
,
0001
0001
0100
0010
,
0100
0010
0100
0010
,
1000
0010
0100
0010
,
0100
0010
0100
0010
,
1000
0001
0100
0010
,
1000
0001
0100
0001
,
1001
0000
1010
0000
,
0101
0000
1001
0000
,
1000
1000
0100
0100
,
0010
0010
0001
0001
,
0010
0100
1000
0001
,
1001
0000
0000
1001
,
1000
0000
1000
0000
,
1000
0000
1000
0000
,
0010
0000
0000
0010
0000
0000
0000
0000
,
0010
0000
0010
0000
,
0200
0000
0000
0000
,
0302
0000
0000
0003
0020
0000
0000
0230
,
0000
0000
0000
0000
,
2300
0000
3020
0000
,
0230
0000
0302
0000
,
0203
0000
0000
0000
0320
0000
0000
2000
,
0030
0000
0000
0000
,
3200
0000
0000
0000
,
0320
0000
0032
0000
,
0203
0000
0000
0000
0302
0000
0000
2003
,
0000
0000
0000
0000
0000
3000
0100
0000
,
0020
0000
0032
0000
,
0023
0000
0230
0000
,
2300
0000
0000
0000
3020
0000
0000
0230
,
0000
0000
0000
0000
0000
0000
0000
0300
,
0001
0000
0001
0000
0100
0001
0100
0000
,
0001
0000
1000
0000
0010
0000
1000
0010
,
1000
0000
0001
0000
,
0100
0000
0001
0000
1000
0000
0001
1000
,
0001
0000
1000
0000
,
0010
0000
0100
0000
0001
0000
1000
0001
,
1000
0000
0010
0000
,
0100
0000
0100
0001
,
0010
0000
0010
0100
,
1000
0000
0000
0000
0001
0000
0100
0001
,
0100
0000
0001
0000
,
1000
0000
0000
0000
0100
0000
1000
0100
,
1000
0000
0010
0000
,
0100
0000
0001
1000
,
0001
0000
1000
0000
,
0010
0000
0100
0000
,
0010
0000
0100
0000
,
0001
0100
0001
0100
,
1000
0100
1000
0100
,
0010
0000
0000
0010
0100
0000
0000
0100
,
0001
0000
0000
0001
1000
0000
0000
0100
,
1000
0001
1000
0001
,
1001
0000
0000
0000
;

//---------------dance-single - Renard----------------
#NOTES:
     dance-single:
     Renard:
     Easy:
     2:
     0.281,0.392,0.086,0.048,0.000: // measure 1
0000
0000
0000
0000
,  // measure 2
0000
0000
0000
0000
,  // measure 3
0000
0000
0000
0000
,  // measure 4
0000
0000
0000
0000
,  // measure 5
0000
0000
0000
0000
,  // measure 6
0000
0000
0000
0000
,  // measure 7
1000
0000
0100
1000
,  // measure 8
0010
0100
0001
0010
,  // measure 9
0001
0000
0001
0100
,  // measure 10
0010
1000
0100
1000
,  // measure 11
0001
0000
0001
0000
,  // measure 12
0000
0000
1000
0000
,  // measure 13
0100
0000
1000
0000
,  // measure 14
0010
0000
0100
0000
,  // measure 15
0001
0000
0010
0001
,  // measure 16
0010
0100
1000
0001
,  // measure 17
1000
0000
0001
1000
,  // measure 18
0100
0010
0001
1000
,  // measure 19
0001
0000
1000
0000
,  // measure 20
0000
0000
0010
0000
,  // measure 21
1000
0000
0010
0000
,  // measure 22
0100
0000
0001
0000
,  // measure 23
0100
0000
0010
1000
,  // measure 24
0010
0000
0010
0000
,  // measure 25
0000
0000
0100
0001
,  // measure 26
0100
0000
0001
0000
,  // measure 27
0000
0000
0010
0001
,  // measure 28
0010
0000
0100
0000
,  // measure 29
1000
0000
1000
0000
,  // measure 30
0200
0000
0000
0000
,  // measure 31
1300
0000
1001
0000
,  // measure 32
0110
0000
1001
0000
,  // measure 33
0000
0000
1001
0000
,  // measure 34
0110
0000
1001
0000
,  // measure 35
0000
0000
0001
1000
,  // measure 36
0001
1000
0001
1000
,  // measure 37
0002
0000
0000
0000
,  // measure 38
2003
0000
0000
0000
,  // measure 39
3100
0000
1100
0000
,  // measure 40
0110
0000
0011
0000
,  // measure 41
0001
1000
0001
0000
,  // measure 42
0100
0000
0100
0000
,  // measure 43
0010
0000
1000
0010
,  // measure 44
1000
0000
0001
0000
,  // measure 45
0100
0000
0001
0000
,  // measure 46
1000
0000
0100
0000
,  // measure 47
1000
0100
1000
0000
,  // measure 48
0100
0000
1000
0000
,  // measure 49
0100
0000
1000
0000
,  // measure 50
0002
0000
0000
0000
,  // measure 51
0013
0000
0010
0000
,  // measure 52
0010
0000
0010
0000
,  // measure 53
0100
0000
0100
0000
,  // measure 54
2000
0000
0000
0000
,  // measure 55
3010
0000
0100
0000
,  // measure 56
0001
0000
0010
0000
,  // measure 57
0001
0000
0000
0010
,  // measure 58
0100
0000
1000
0000
,  // measure 59
0010
0000
0100
0000
,  // measure 60
0001
0000
0100
0000
,  // measure 61
0010
0000
0000
0000
,  // measure 62
0010
0000
1000
0000
,  // measure 63
0100
0000
1000
0000
,  // measure 64
0001
0000
0010
0000
,  // measure 65
0001
0000
0000
1000
,  // measure 66
0010
0000
1000
0000
,  // measure 67
0001
0000
0100
0000
,  // measure 68
0001
0000
1000
0000
,  // measure 69
0010
0000
0000
0000
,  // measure 70
0100
0001
0100
0000
,  // measure 71
0010
0000
1000
0000
,  // measure 72
0010
0000
1000
0000
,  // measure 73
0001
0000
0100
0000
,  // measure 74
0001
1000
0001
0000
,  // measure 75
0010
0000
0100
0000
,  // measure 76
1000
0000
0001
0000
,  // measure 77
0010
0000
0001
0000
,  // measure 78
0000
0000
1000
0000
,  // measure 79
0001
0000
0100
0000
,  // measure 80
0001
1000
0001
0000
,  // measure 81
1000
0000
0010
0000
,  // measure 82
1000
0010
1000
0000
,  // measure 83
0010
0000
0100
0000
,  // measure 84
0001
0000
1000
0000
,  // measure 85
0100
0000
0100
0010
,  // measure 86
0001
0000
0001
0010
,  // measure 87
0100
0000
0100
0010
,  // measure 88
0001
0000
1000
0000
,  // measure 89
0001
0100
0001
0100
,  // measure 90
0001
0100
0001
0100
,  // measure 91
0001
0100
0001
0100
,  // measure 92
0010
0000
0000
0000
;
