#TITLE:Walkie Talkie Man;
#SUBTITLE:;
#ARTIST:Steriogram;
#TITLETRANSLIT:;
#SUBTITLETRANSLIT:;
#ARTISTTRANSLIT:;
#GENRE:Rock;
#CREDIT:;
#BANNER:man.png;
#BACKGROUND:man-bg.png;
#LYRICSPATH:;
#CDTITLE:;
#MUSIC:man.ogg;
#OFFSET:0.000;
#SAMPLESTART:27.224;
#SAMPLELENGTH:12.000;
#SELECTABLE:YES;
#BPMS:0.000=141.050;
#STOPS:;
#BGCHANGES:;
#KEYSOUNDS:;

//---------------dance-single - Renard----------------
#NOTES:
     dance-single:
     Renard:
     Challenge:
     12:
     0.871,0.000,0.544,0.152,0.800:
0000
0000
0000
0000
,
0000
0000
0000
0000
,
0000
0000
0000
0000
,
0000
0000
0000
0000
0000
1001
1001
1001
,
1000
0000
0100
0000
0110
0000
0000
0010
0001
0000
0100
0000
0110
0000
0000
0010
,
1000
0000
0100
0000
1100
0000
0000
0100
0010
0001
0010
0000
0011
0000
0000
0001
,
0010
0000
0100
0000
1100
0000
0000
0100
1000
0000
0010
0000
1010
0000
0000
0010
,
0100
0000
0001
0000
0101
0000
0000
0001
1000
0100
0010
0000
0110
0000
0010
0100
,
1000
1000
0010
1000
0100
0100
1000
0001
0010
0010
0001
0100
0001
0001
0010
0100
,
1000
1000
0001
0100
0010
0010
1000
0010
0100
0100
0010
1000
1010
0000
0001
0100
,
0001
0001
0010
0100
0200
0000
0000
0000
1300
1000
0100
0010
0020
0000
0000
0031
,
0010
0000
0010
0001
0000
0001
0100
0000
0101
0000
0001
0100
0010
0000
0000
0000
,
1000
1000
0010
0100
0001
0000
0010
0000
0001
0001
0100
0010
1000
0000
0010
0000
,
1000
0000
0100
0010
0001
0010
0100
1000
0001
0100
0001
1000
0100
0000
0000
0000
,
1000
0100
0010
0000
0110
0000
0011
0000
0001
0100
0010
0000
0110
0000
1010
0000
,
1001
0001
0101
0100
0110
1010
1001
1001
,
0001
0100
0010
1000
0010
0000
0010
0100
0001
0000
0001
0010
0100
0000
0100
1000
,
0001
0100
0001
0100
0001
0000
0001
0000
0100
0000
0100
0000
0020
0000
0000
0000
,
1030
0010
0100
0001
0100
0000
0100
0010
1000
0000
1000
0100
0010
0000
0010
0001
,
1000
0010
1000
0010
1000
0000
1000
0000
0010
0000
0010
0000
0110
0000
0101
0000
,
1001
0000
0001
0100
0010
0000
0010
1000
0100
0000
0100
0010
0001
0000
1000
0001
,
0100
0000
0100
0000
0010
0000
0010
0000
1000
0001
0100
0001
1000
0000
0100
0000
,
0010
0000
0001
0010
0100
0000
1000
0100
0010
0000
0001
1000
0001
1000
0001
0000
,
1000
0000
0001
0100
0001
0000
1000
0000
0100
0000
0010
0001
0010
0100
1000
0000
,
1001
0000
1010
0000
0000
0000
1010
0000
0101
0000
0000
0000
0000
0000
0001
1000
,
0100
0010
0000
0110
0011
0000
1001
0000
,
0101
0000
0100
0000
0000
0000
0100
0000
0110
0000
0000
0000
0000
0000
0010
1000
,
0010
0000
0000
0000
0000
0000
0100
0000
0000
0000
0000
0000
0000
0000
0000
0000
0000
0000
0100
0000
0001
0000
0100
0000
0010
0000
0000
1000
0000
0000
0001
0000
0000
0010
0000
0000
0001
0000
0000
1000
0000
0000
0010
0000
0000
1000
0000
0000
,
0001
0000
0100
0000
0000
0000
0100
0000
0110
0000
0000
0000
0000
0000
0010
1000
,
0010
0100
0000
0100
0110
0100
0101
0001
,
1001
0000
1000
0000
0000
0000
1000
0000
1100
0000
0000
0000
0000
0000
0100
0010
,
0001
0000
0001
0000
0001
0000
0001
0000
0001
0000
0001
1000
0001
0100
0001
0100
,
0001
0100
0010
1000
0100
1000
0001
0010
,
0001
0000
0100
0000
0010
0000
1000
0000
0100
0000
0010
0000
0001
0010
0001
0010
,
0001
0010
0100
1000
0010
0100
0001
0100
,
0010
0000
1000
0000
0100
0000
0010
0000
0001
0000
1000
0000
0010
0100
0010
0100
,
0010
1000
0100
0010
0001
0010
0100
1000
,
0100
0000
1000
0000
0010
0000
0100
0000
0001
0000
1000
0000
0001
0100
0001
0100
,
0010
0010
1000
0100
0010
0001
0010
0100
,
1002
0000
0100
0203
0010
0320
2030
3001
,
1000
1000
0100
0010
0001
0001
0010
0100
1000
1000
0100
0010
0001
0001
0010
0100
,
1000
1000
0010
0100
0001
0001
0100
0010
1000
1000
0010
0100
0001
1000
0001
1000
,
0001
0001
0100
0010
2000
0000
3010
0100
0001
0010
0100
1000
0002
0000
0013
0001
,
0100
0000
0100
0010
0000
0010
1000
0000
0001
0100
0010
1000
0001
0000
1000
0001
,
1000
1000
0100
0010
0001
0000
0001
0000
1000
1000
0010
0100
0001
0000
0001
0000
,
0010
0000
0100
1000
0001
0010
0001
1000
0010
0100
0001
0100
0010
0000
1000
0001
,
0100
0010
1000
0010
0100
0000
0001
0000
1000
0100
0000
0010
0011
0000
0110
0000
,
1100
0100
0110
0010
0011
0001
1001
1001
,
0001
0000
0100
0010
1000
0000
0100
0010
0001
0000
0010
0100
1000
0000
0010
0100
,
0001
0000
0100
0010
1000
0000
0100
0010
0001
0000
0010
0000
0100
1000
0100
1000
,
0100
0000
1000
0000
0010
0000
0100
0001
0100
0000
0010
1000
0100
0000
0010
0000
,
0002
0000
0000
0000
,
1003
0000
0000
0000
0000
0000
0000
0000
0000
0000
0000
0000
0000
0000
0000
0000
0001
0000
0000
0000
0000
0000
0000
0000
0000
0000
0000
0000
0000
0000
0000
0000
0000
0000
0000
0000
0000
0000
0000
0000
0000
0000
0000
0000
0000
0000
0000
0000
0100
0000
0000
0000
0000
0000
0000
0000
0000
0000
0000
0000
0000
0000
0000
0000
0000
0000
0000
0000
0000
0000
0000
0000
0000
0000
0000
0000
0000
0000
0000
0000
0000
0000
0000
0000
0000
0000
0000
0000
0010
0000
0000
0000
0000
0000
0000
0000
0000
0000
0000
0000
0000
0000
0000
0000
0000
0000
0000
0000
0000
0000
0000
0000
0000
0000
0000
0000
0000
0000
0000
0000
0000
0000
0000
1000
0000
0000
0000
0000
0000
0000
0000
0000
0000
0000
0000
0000
0000
0000
0001
0000
0000
0000
0000
0000
0000
0000
0000
0000
0000
0000
0000
0000
0000
0000
0000
0000
0000
0000
0000
0000
0000
0000
0000
0000
0000
0000
0000
0000
0000
0000
0000
0000
0000
0000
0000
0000
0000
0000
0000
0000
0000
0000
0000
0000
0000
0000
0000
0000
0000
0000
0000
0000
,
0000
0000
0000
0000
0000
2002
0000
0000
0000
0000
0000
0000
0000
0000
0220
0000
0000
0000
0000
0000
3333
0000
0000
0000
0000
0000
0000
0000
0000
0000
0000
0000
0000
0000
0000
0000
0000
0000
0000
0000
0000
0000
0000
0000
0000
0000
0000
0000
;

//---------------dance-single - Blank----------------
#NOTES:
     dance-single:
     Jinxie:
     Hard:
     8:
     0.549,0.000,0.261,0.098,0.027: // measure 1
0000
0000
0000
0000
,  // measure 2
0000
0000
0000
0000
,  // measure 3
0000
0000
0000
0000
,  // measure 4
0000
0000
0000
0000
0000
1010
1001
1100
,  // measure 5
0100
0100
1000
1000
0010
0010
0100
0001
,  // measure 6
0010
0010
0100
1000
0010
0010
1000
0100
,  // measure 7
0010
0010
0001
0100
0010
0010
0100
0001
,  // measure 8
0010
0010
0100
1000
0010
0010
1000
0001
,  // measure 9
1001
1000
0010
1000
1000
0001
0010
0010
,  // measure 10
0100
1000
0010
1000
0100
0010
0001
0001
,  // measure 11
0100
0010
1000
0010
0100
0001
0010
0100
,  // measure 12
0010
0001
0100
0010
1000
0100
1000
1000
,  // measure 13
0010
1000
0001
0001
0010
0100
1000
1000
,  // measure 14
0010
1000
0001
0001
0010
0100
1000
1000
,  // measure 15
0010
0100
0001
0010
0001
0001
1000
0010
,  // measure 16
2000
3002
0023
0230
,  // measure 17
1300
0000
1000
0000
0010
0000
0010
0010
,  // measure 18
0100
0000
0100
0001
0011
0000
1100
0000
,  // measure 19
1000
0000
1000
0010
1000
1000
0001
0010
,  // measure 20
0001
0000
0000
1000
0010
1000
1000
0001
,  // measure 21
0011
0000
0100
0000
1000
0000
1000
0010
,  // measure 22
1000
0000
1000
0001
0011
0000
1100
0000
,  // measure 23
1000
0000
1000
0010
0100
0100
0001
0010
,  // measure 24
0100
0000
0100
1000
1010
1000
0001
0001
,  // measure 25
0010
0000
0010
0000
0000
0000
0100
0000
1000
0000
0000
0000
0000
0000
0000
0100
,  // measure 26
1000
1000
0000
1000
1010
1000
0000
0000
,  // measure 27
1000
0000
1000
0000
0000
0000
1000
0000
1010
0000
0000
0000
0000
0000
0000
1000
,  // measure 28
0001
0001
0000
0000
0000
0000
0000
0000
,  // measure 29
0001
0000
0001
0000
0000
0000
0001
0000
0011
0000
0000
0000
0000
0000
0000
0010
,  // measure 30
0100
0100
0000
0100
1000
1000
0000
0000
,  // measure 31
1000
1000
0000
1000
1010
0000
0000
0000
,  // measure 32
2002
0000
0000
3003
,  // measure 33
1000
1000
0100
0010
0001
0001
0010
0100
,  // measure 34
1000
1000
0010
0100
0001
0001
0100
0010
,  // measure 35
1000
1000
0010
0100
0001
0001
0010
0100
,  // measure 36
1000
1000
1000
0000
0000
1000
0100
1000
,  // measure 37
1000
0010
0100
0001
0010
0010
0001
0100
,  // measure 38
0010
0010
0100
0001
0010
0010
0100
1000
,  // measure 39
0010
0010
1000
0001
0010
0010
0100
1000
,  // measure 40
0020
0000
0000
0030
,  // measure 41
1000
1000
0010
0100
0001
0001
0100
0010
,  // measure 42
1000
1000
0010
0100
0001
0010
0001
0100
,  // measure 43
0010
0100
0001
0010
0100
0010
1000
0010
,  // measure 44
0100
0010
0001
0100
0010
1000
0100
1000
,  // measure 45
0010
1000
0100
0010
0001
0010
0100
0010
,  // measure 46
0001
0010
0100
1000
0010
0001
0010
1000
,  // measure 47
0100
0010
0001
0100
0010
0100
0001
0010
,  // measure 48
0100
1000
0010
1000
0001
1000
0001
1000
,  // measure 49
0100
1000
1001
0001
0010
0100
1100
1000
,  // measure 50
0010
1000
1001
0001
0100
0010
1010
1000
,  // measure 51
0100
0010
0011
0010
0100
1000
1100
1000
,  // measure 52
2002
0000
0000
0000
,  // measure 53
0000
0000
0000
0000
,  // measure 54
3003
0000
0110
0000
1001
0000
0000
0000
0000
0000
0000
0000
;

//---------------dance-single - Blank----------------
#NOTES:
     dance-single:
     Jinxie:
     Medium:
     5:
     0.330,0.000,0.087,0.087,0.000: // measure 1
0000
0000
0000
0000
,  // measure 2
0000
0000
0000
0000
,  // measure 3
0000
0000
0000
0000
,  // measure 4
0000
0000
0000
0000
,  // measure 5
1000
1000
0010
0010
,  // measure 6
0100
0000
0100
0000
0001
0010
0001
0000
,  // measure 7
0001
0001
0100
0100
,  // measure 8
0010
0000
0010
0000
0010
1000
0010
0000
,  // measure 9
1000
1000
0001
0001
,  // measure 10
0010
0010
0100
0100
,  // measure 11
1000
1000
0001
0001
,  // measure 12
1000
0010
0100
0001
,  // measure 13
0001
1000
1000
0100
,  // measure 14
0100
0010
0010
0001
,  // measure 15
0001
1000
0010
0100
,  // measure 16
0002
2003
3020
0130
,  // measure 17
0001
0001
0010
0010
,  // measure 18
0100
0000
0100
0000
0100
1000
0100
0000
,  // measure 19
1000
1000
0010
0010
,  // measure 20
0100
0000
0100
0000
0100
0001
0010
0001
,  // measure 21
0010
0100
1000
0100
,  // measure 22
0010
0000
0001
0000
1000
0100
1000
0000
,  // measure 23
1000
0010
0100
0001
,  // measure 24
0010
0000
0001
0000
0001
0100
0001
0000
,  // measure 25
1000
1000
1100
1000
,  // measure 26
0001
0001
0011
0001
,  // measure 27
0001
0100
0101
0100
,  // measure 28
0010
0010
2000
3000
,  // measure 29
1000
1000
1100
0100
,  // measure 30
0010
0010
0011
0001
,  // measure 31
0001
0100
0101
0100
,  // measure 32
0020
0000
0000
0000
0000
0000
0000
0030
,  // measure 33
1000
1000
0001
0001
,  // measure 34
1000
0000
1000
0000
1000
0010
1000
0000
,  // measure 35
1000
0001
0001
0010
,  // measure 36
0200
0000
0000
0300
,  // measure 37
1000
1000
0010
0010
,  // measure 38
0100
0000
0100
0000
0100
0010
0100
0000
,  // measure 39
0100
0001
0010
0100
,  // measure 40
1100
0000
0000
0000
,  // measure 41
1000
1000
0010
0010
,  // measure 42
0100
0000
0100
0000
0001
0100
0001
0000
,  // measure 43
1000
1000
0100
0010
,  // measure 44
0001
0000
0010
0000
0100
1000
0100
0000
,  // measure 45
1000
0010
1000
0001
,  // measure 46
0100
0000
0010
0000
0100
0001
0100
0000
,  // measure 47
0010
1000
0100
0010
,  // measure 48
0001
0000
1000
0000
0010
1000
0001
1000
,  // measure 49
0100
0010
0001
0000
0001
0000
0100
0000
,  // measure 50
0100
0001
0100
0000
0001
0000
0010
0000
,  // measure 51
0001
1000
0001
0000
1000
0000
0010
0000
,  // measure 52
0202
0000
0000
0000
,  // measure 53
0000
0000
0000
0000
,  // measure 54
0303
0000
0000
0000
;

//---------------dance-single - Blank----------------
#NOTES:
     dance-single:
     Jinxie:
     Easy:
     4:
     0.212,0.000,0.098,0.022,0.000: // measure 1
0000
0000
0000
0000
,  // measure 2
0000
0000
0000
0000
,  // measure 3
0000
0000
0000
0000
,  // measure 4
0000
0000
0000
0000
,  // measure 5
1000
0001
0010
0000
,  // measure 6
0100
1000
0010
0000
,  // measure 7
0010
1000
0001
0000
,  // measure 8
0001
0010
0100
0000
,  // measure 9
1000
0001
0001
1000
,  // measure 10
0010
0000
1000
0000
,  // measure 11
0001
0010
0100
1000
,  // measure 12
0010
0000
1000
0000
,  // measure 13
0001
1000
0100
1000
,  // measure 14
0001
0000
1000
0000
,  // measure 15
0010
0100
0001
0100
,  // measure 16
0001
0000
1000
0000
,  // measure 17
0001
0000
1000
0000
,  // measure 18
0010
0000
1000
0001
,  // measure 19
1000
0000
0100
0000
,  // measure 20
1000
0000
0001
0010
,  // measure 21
0001
0000
0001
0000
,  // measure 22
1000
0000
0010
1000
,  // measure 23
0001
0000
0100
0000
,  // measure 24
0001
0000
1000
0010
,  // measure 25
1000
0000
1001
0000
,  // measure 26
0001
0000
1001
0000
,  // measure 27
0010
0000
0110
0000
,  // measure 28
0100
0000
0101
0000
,  // measure 29
0001
0000
1001
0000
,  // measure 30
1000
0000
1100
0000
,  // measure 31
1000
0000
1001
0000
,  // measure 32
0010
0000
0000
0000
,  // measure 33
1000
0001
0000
0001
,  // measure 34
1000
0010
0000
0010
,  // measure 35
1000
0001
0000
0001
,  // measure 36
1000
0000
0000
0000
,  // measure 37
1000
0010
0000
0010
,  // measure 38
0100
0001
0000
0001
,  // measure 39
0010
0001
0000
0001
,  // measure 40
1001
0000
0000
0000
,  // measure 41
1000
0010
1000
0001
,  // measure 42
0010
0000
0100
0000
,  // measure 43
0100
1000
0010
1000
,  // measure 44
0001
0000
1000
0000
,  // measure 45
1000
0010
0100
0001
,  // measure 46
0010
0000
0001
0000
,  // measure 47
0001
1000
0010
1000
,  // measure 48
0100
0000
1000
0000
,  // measure 49
1000
0001
1000
0000
,  // measure 50
1000
0010
1000
0000
,  // measure 51
1000
0001
1000
0000
,  // measure 52
2200
0000
0000
0000
,  // measure 53
0000
0000
0000
0000
,  // measure 54
0000
0000
0000
0000
,  // measure 55
0000
0000
0000
0000
,  // measure 56
3300
0000
0000
0000
;
