#TITLE:Walk Together;
#SUBTITLE:;
#ARTIST:Scott brown;
#TITLETRANSLIT:;
#SUBTITLETRANSLIT:;
#ARTISTTRANSLIT:;
#CREDIT:;
#BANNER:walk.png;
#BACKGROUND:walk-bg.png;
#LYRICSPATH:;
#CDTITLE:;
#MUSIC:walk.ogg;
#OFFSET:0.000;
#SAMPLESTART:45.220;
#SAMPLELENGTH:12.000;
#SELECTABLE:YES;
#BPMS:0.000=169.835;
#STOPS:;
#BGCHANGES:;

//---------------dance-single - Renard----------------
#NOTES:
     dance-single:
     Renard:
     Hard:
     8:
     0.524,0.540,0.211,0.063,0.000:
0000
0000
0000
0000
,
0000
0000
0000
0000
,
0000
0000
0000
0000
,
0000
0000
0000
0000
,
0000
0000
0000
0000
,
0000
0000
0000
0000
,
0000
0000
0000
0000
,
0000
0000
0000
0000
,
1000
0001
0100
0000
1000
0001
0000
0010
,
2000
0000
0000
0000
,
3000
0100
0010
0001
0010
0100
1000
0001
,
0000
0010
0100
1000
0001
0010
0100
1000
,
0000
0001
0100
0000
1000
0001
0000
0010
,
2000
0000
0000
0000
,
3000
0100
0010
0001
0010
0100
1000
0010
,
0000
0100
0001
0100
0010
1000
0100
1000
,
0001
0010
0100
0000
0100
1000
0000
1000
,
0010
0000
0010
0100
0000
0100
0001
0100
,
0010
1000
0100
0000
0100
0010
0000
0010
,
0001
0000
0001
1000
0000
1000
0001
0100
,
0010
1000
0100
0000
0100
0010
0000
0010
,
0001
0000
0001
1000
0000
1000
0010
1000
,
0001
0010
0100
0000
0100
1000
0000
1000
,
0010
0000
0010
0100
0000
0100
0001
1000
,
0001
0100
0000
0100
0000
0100
0000
0100
,
0010
1000
0100
0010
0000
0010
0001
0010
,
0100
1000
0000
1000
0000
1000
0000
1000
,
0001
0100
0010
1000
0000
1000
0100
0010
,
0001
0010
0000
0010
0000
0010
0000
0010
,
0100
1000
0010
0100
0001
0010
0100
1000
,
0010
0100
0001
0000
0001
0010
0000
0020
,
0200
0000
0000
0330
,
1001
0101
1001
1010
,
1000
0100
0010
0001
0000
0001
0010
0100
,
1000
1001
0101
1001
,
1000
0100
0010
0000
0010
0100
1000
0000
,
0011
0000
1001
0000
0101
0000
0001
0100
,
0010
0000
0010
1000
0000
1000
0100
0000
,
1100
0000
0011
0000
1001
0000
0001
0100
,
0010
0000
0010
0100
0000
0100
0001
1000
,
0100
0000
1100
0000
1001
0000
0001
0100
,
0010
0000
0010
1000
0000
1000
0010
0000
,
1010
0000
1001
0000
1100
0000
1000
0100
,
0010
0000
0010
0001
0000
0001
1000
0001
,
0100
0010
1000
0000
1010
0000
1001
0000
,
1000
0100
0010
0001
0000
0001
0010
0100
,
1000
0001
0100
0000
0100
0010
0000
0020
,
2000
0000
0000
3030
,
1000
0010
0100
0000
0100
0001
0010
0100
,
0000
0100
1000
0010
0100
0001
0100
0010
,
0000
0010
1000
0100
0010
0001
0010
0100
,
0000
0100
1000
0010
0100
0001
0100
0010
,
0000
0010
0100
0001
0010
0100
0010
0001
,
0000
0001
1000
0100
0010
0100
1000
0100
,
0000
1000
0001
0010
0100
1000
0010
0100
,
0000
0100
0001
0100
0010
1000
0100
0010
,
0001
0010
0100
0000
0100
1000
0000
1000
,
0010
0000
0100
0001
0100
0010
0100
0001
,
0000
0000
0100
0010
0100
0001
0100
0010
,
0000
0000
0100
0001
0100
0010
0100
0001
,
0100
0010
1000
0000
0001
0100
0000
0001
,
1000
0000
1000
0100
1000
0001
0010
0001
,
0000
0000
1000
0001
0100
0010
1000
0100
,
0000
0000
1000
0100
0010
0001
1000
0001
;

//---------------dance-single - Renard----------------
#NOTES:
     dance-single:
     Renard:
     Medium:
     6:
     0.347,0.506,0.137,0.021,0.000:
0000
0000
0000
0000
,
0000
0000
0000
0000
,
0000
0000
0000
0000
,
0000
0000
0000
0000
,
0000
0000
0000
0000
,
0000
0000
0000
0000
,
0000
0000
0000
0000
,
0000
0000
0000
0000
,
1000
0000
1000
0000
0001
1000
0000
0001
,
1000
0000
0000
0000
,
0000
0000
0000
0000
,
0000
0000
0000
0000
,
0001
0000
0001
0000
1000
0001
0000
0001
,
1000
0000
0000
0000
,
0000
0000
0000
0000
,
0000
0000
0000
0000
,
0001
0000
0001
0000
0100
0001
0000
0001
,
0100
0001
0100
0000
,
0001
0000
0001
0000
1000
0001
0000
0001
,
1000
0100
1000
0000
,
0100
0000
0100
0000
1000
0100
0000
0100
,
1000
1000
1000
0000
,
0010
1000
0010
0000
1000
0010
0000
0010
,
1000
0000
1000
0010
0000
1000
0000
1000
,
0001
0100
0001
0000
0100
0000
0100
0000
,
0001
0100
0001
0100
,
0001
0010
0001
0000
0001
0000
0010
0000
,
0010
0100
0100
1000
,
0001
1000
0001
0000
1000
0001
0000
1000
,
0001
1000
1000
1000
,
0010
0100
0010
0000
0010
0100
0000
0200
,
0020
0000
0000
0330
,
0010
0100
0010
0000
0110
0000
0110
0000
,
0010
0100
0010
0100
,
0001
1000
0001
0000
1001
0000
1001
0000
,
0001
1000
0001
1000
0001
0000
1000
0000
,
0010
0100
0010
0000
0110
0000
0110
0000
,
0010
1000
0010
0000
1010
0000
1010
0000
,
0001
0100
0001
0000
0101
0000
0101
0000
,
0001
0010
0001
0000
0011
0000
0011
0000
,
0010
0000
0100
0000
1000
0000
0001
0100
,
0010
0000
1000
0010
0100
0001
1000
0000
,
0100
1000
0100
1000
0100
0000
1000
0000
,
0001
0010
0001
0010
0001
0000
0010
0000
,
0001
0001
1000
1000
,
0001
0100
0001
1000
,
0100
1000
0100
0000
1000
0000
0000
0000
,
1001
0000
0000
0000
,
0001
0000
1000
0000
0100
0010
0000
0001
,
0010
0000
0100
0000
0100
0000
0000
0100
,
0000
0000
1000
0000
1000
0000
0000
0001
,
0000
0000
0010
0000
0001
0000
0000
1000
,
0000
0000
0010
0000
0100
0001
0000
0100
,
0010
0000
0000
0000
1000
0000
0000
1000
,
0000
0000
0010
0000
0100
0000
0000
0001
,
0000
0000
0010
0000
0100
0000
0000
1000
,
0000
0001
0100
0000
0001
1000
0000
0100
,
1000
0000
0000
0000
0001
0000
0000
0010
,
0000
0000
0100
0000
1000
0000
0000
0010
,
0000
0000
0100
0000
0001
0000
0000
0100
,
0000
0010
1000
0000
0001
1000
0000
0100
,
1000
0000
0001
0000
0010
0000
0000
0100
,
0000
0000
1000
0000
0001
0000
0000
0100
,
0000
0000
0010
0000
1000
0000
0000
0100
;

//---------------dance-single - Renard----------------
#NOTES:
     dance-single:
     Renard:
     Easy:
     3:
     0.269,0.371,0.095,0.053,0.000: // measure 1
0000
0000
0000
0000
,  // measure 2
0000
0000
0000
0000
,  // measure 3
0000
0000
0000
0000
,  // measure 4
0000
0000
0000
0000
,  // measure 5
0000
0000
0000
0000
,  // measure 6
0000
0000
0000
0000
,  // measure 7
0000
0000
0000
0000
,  // measure 8
0000
0000
0000
0000
,  // measure 9
0000
0000
1000
0000
1000
0000
0000
1000
,  // measure 10
0000
0000
0001
0000
0001
0000
0000
0001
,  // measure 11
0000
0000
1000
0000
1000
0000
0000
1000
,  // measure 12
0000
0000
0001
0000
0001
0000
0000
0001
,  // measure 13
0000
0000
1000
0000
1000
0000
0000
1000
,  // measure 14
0000
0000
0001
0000
0001
0000
0000
0001
,  // measure 15
0000
0000
1000
0000
1000
0000
0000
1000
,  // measure 16
0000
0000
0001
0000
0001
0000
0000
0001
,  // measure 17
0000
0000
0100
0000
0000
0001
0000
0000
,  // measure 18
1000
0000
0000
0100
0000
0010
0000
0001
,  // measure 19
0000
0010
0000
0000
0100
0000
0000
1000
,  // measure 20
0000
0000
0010
0000
0000
0100
0000
0001
,  // measure 21
0000
0000
0100
0000
0000
0010
0000
0000
,  // measure 22
1000
0000
0000
0100
0000
0010
0000
0001
,  // measure 23
0000
0010
0000
0000
0100
0000
0000
1000
,  // measure 24
0000
0000
0010
0000
0000
0100
0000
0001
,  // measure 25
0000
0000
1000
0000
0000
0100
0000
0000
,  // measure 26
0010
0000
0000
0001
0000
1000
0000
0001
,  // measure 27
0000
0100
0000
0000
0010
0000
0000
0000
,  // measure 28
1000
0000
0000
0100
0000
0010
0000
0001
,  // measure 29
0000
0000
0010
0000
0000
0100
0000
0000
,  // measure 30
1000
0000
0000
0010
0000
0100
0000
0001
,  // measure 31
0000
0010
0000
0000
0100
0000
0000
2000
,  // measure 32
0002
0000
0000
3003
,  // measure 33
1000
1000
0001
0000
,  // measure 34
1000
1000
0001
0000
,  // measure 35
0001
1000
0001
0000
,  // measure 36
0100
0010
0100
0000
,  // measure 37
0010
0010
1000
0000
,  // measure 38
0001
0001
0100
0000
,  // measure 39
0001
1000
0100
0000
,  // measure 40
1000
0000
1001
0000
,  // measure 41
0001
1001
0000
1001
,  // measure 42
1000
1001
0000
1001
,  // measure 43
0001
0100
0010
1000
,  // measure 44
0100
0010
0100
0000
,  // measure 45
0010
0110
0000
0110
,  // measure 46
0100
0110
0000
0110
,  // measure 47
0001
1000
0001
0100
,  // measure 48
0020
0000
0000
0000
,  // measure 49
0130
0000
0100
0000
0100
0000
0000
0100
,  // measure 50
0000
0000
0100
0000
0100
0000
0000
0100
,  // measure 51
0000
0000
0010
0000
0010
0000
0000
0010
,  // measure 52
0000
0000
0010
0000
0010
0000
0000
0010
,  // measure 53
1000
0000
1000
0000
1000
0000
0000
1000
,  // measure 54
0000
0000
1000
0000
1000
0000
0000
1000
,  // measure 55
0000
0000
0001
0000
0001
0000
0000
0001
,  // measure 56
0000
0000
0001
0000
0001
0000
0000
0001
,  // measure 57
1000
1000
0001
0001
,  // measure 58
0200
0000
0000
0000
,  // measure 59
0010
0000
0010
0000
,  // measure 60
0010
0000
0010
0000
,  // measure 61
0310
1000
0100
0010
,  // measure 62
0002
0000
1000
0000
,  // measure 63
1000
0000
1000
0000
,  // measure 64
1000
0000
0000
0003
1000
0000
0001
0100
;
