#TITLE:Wakey Wakey;
#SUBTITLE:;
#ARTIST:Plus System;
#TITLETRANSLIT:;
#SUBTITLETRANSLIT:;
#ARTISTTRANSLIT:;
#CREDIT:;
#BANNER:wakey.png;
#BACKGROUND:wakey-bg.png;
#LYRICSPATH:;
#CDTITLE:;
#MUSIC:wakey.ogg;
#OFFSET:0.000;
#SAMPLESTART:44.665;
#SAMPLELENGTH:12.000;
#SELECTABLE:YES;
#BPMS:0.000=177.320;
#STOPS:;
#BGCHANGES:;

//---------------dance-single - Renard----------------
#NOTES:
     dance-single:
     Renard:
     Hard:
     8:
     0.561,0.653,0.819,0.079,0.000:
0000
0000
0000
0000
,
0000
0000
0000
0000
,
0000
0000
0000
0000
,
0000
0000
0000
0000
,
0000
0000
0000
0000
,
1000
0000
1000
0001
0000
0100
0000
0001
,
1000
0000
1000
0001
0000
0010
0000
0001
,
1000
0000
1000
0001
0000
0100
0000
0001
,
1000
0000
1000
0001
0000
0010
0100
1000
,
0001
0000
0001
1000
0000
0001
0000
0100
,
0001
0000
0001
0010
0000
0010
0001
0000
,
0001
1000
0000
0000
0001
0000
0100
0000
,
0010
0000
0010
1000
0000
1000
0100
0000
,
0100
0010
0000
0000
0001
0000
1000
0000
,
0010
0000
0010
0100
0000
0100
0001
0000
,
0002
2000
0000
0000
0000
0000
0000
0000
,
0000
0000
0000
0000
0000
0000
0000
3003
,
1001
0000
1001
0000
0110
0000
0010
1000
,
0000
0001
0000
0100
0000
0001
0000
1000
,
0100
0000
1001
0000
0110
0000
0010
1000
,
0000
0101
0000
1001
0000
1100
0000
1000
,
0001
0000
1001
0000
0110
0000
0010
1000
,
0000
0101
0000
1001
0000
1100
0000
1000
,
0100
0000
0011
0000
1100
0000
0001
0100
,
0000
1010
0000
0101
0000
1001
0000
1000
,
0100
0000
1100
0000
1001
0000
1000
0001
,
0000
0011
0000
1001
0000
1010
0000
1000
,
0010
0000
1001
0000
1100
0000
1000
0001
,
0000
0101
0000
1001
0000
1100
0000
1000
,
0001
0000
0011
0000
1001
0000
1000
0010
,
0000
1001
0000
1100
0000
1001
0000
0001
,
0010
0000
1001
0000
0001
0000
0100
0002
,
2000
0000
0000
3003
,
0101
1001
1100
1001
,
1010
0000
1001
0000
1000
0100
1100
0000
,
0011
1001
0101
0011
,
1001
0000
1100
0000
1000
0001
1001
0000
,
0101
0011
1001
1100
,
1010
0000
1001
0000
1000
0001
1001
0000
,
0001
1000
1001
0000
1000
0010
1010
0000
,
1000
0001
0100
0001
1000
0001
1001
0000
,
0011
1001
0101
1001
,
1100
0000
1010
0000
1000
0001
1001
0000
,
1001
0101
0011
1100
,
1010
0000
1001
0000
1000
0001
1001
0000
,
0001
0100
0101
0000
1000
0100
1100
0000
,
1000
0001
0010
0001
1000
0010
1010
0000
,
2002
0000
0000
0000
,
0000
0000
0000
3003
,
0001
0000
0001
0100
0000
0110
0000
0010
,
1000
0000
0100
1000
0000
1100
0000
1000
,
0001
0000
0010
0001
0000
1001
0000
0001
,
0100
0000
0010
1000
0000
1001
0000
1000
,
0100
0000
1000
0001
0000
0011
0000
0010
,
0100
0000
1000
0010
0000
1010
0000
1000
,
0001
0000
0100
0001
0000
1001
0000
1000
,
0100
0000
1000
0001
0000
0100
0001
1000
,
0001
0000
0001
0100
0000
0001
0000
1000
,
0100
0000
1000
0001
0000
0010
0000
0100
,
1000
0000
0010
0100
0000
0001
0000
1000
,
0100
0000
1000
0001
0000
0010
0100
1000
,
0001
0000
1000
0100
0000
0010
0000
0010
,
0001
0000
0010
0100
0000
1000
0000
1000
,
0010
0000
0100
0001
0000
0100
0000
0100
,
0010
0000
0010
1000
0000
0100
0010
0001
,
0010
0000
0100
1000
0000
0010
0000
1000
,
0001
0000
0001
0100
0000
0100
0001
0000
,
0001
1000
0000
1000
0100
0000
1000
0000
,
0001
0000
0001
0010
0000
0010
0001
0000
,
0001
1000
0000
1000
0010
0000
0100
0000
,
0001
0000
0001
1000
0000
1000
0100
0000
,
0200
0020
0000
0000
0000
0000
0000
0000
,
0000
0000
0000
0000
,
0000
0000
0330
0000
;

//---------------dance-single - Renard----------------
#NOTES:
     dance-single:
     Renard:
     Challenge:
     9:
     0.622,0.653,0.750,0.079,0.000:
0000
0000
0000
0000
,
0000
0000
0000
0000
,
0000
0000
0000
0000
,
0000
0000
0000
0000
,
0000
0000
0000
0000
,
1000
0000
1000
0001
0000
1001
0000
1001
,
0001
0000
1000
0001
0000
1001
0000
1001
,
0001
0000
1000
0001
0000
1001
0000
1001
,
0001
0000
1000
0001
0000
1000
0001
0100
,
0010
0000
1000
0010
0000
1000
0000
0001
,
0100
0000
0001
1000
0000
0001
0010
0000
,
0001
1000
0000
0001
0100
0010
1000
0000
,
0100
0000
1000
0001
0000
1000
0010
0000
,
1000
0100
0000
1000
0100
0010
0001
0000
,
1000
0000
0001
0100
0000
0001
0010
0000
,
0002
2000
0000
0000
0000
0000
0000
0000
,
0000
0000
0000
0000
0000
0000
0000
3003
,
1001
0000
0110
0000
1001
0000
1000
0100
,
0000
1001
0000
1010
0000
1100
0000
1000
,
0100
0010
0001
0010
0100
1000
0010
0100
,
0001
0010
0100
1000
0001
0100
0001
0000
,
0101
0000
1001
0000
0011
0000
0001
1000
,
0000
0101
0000
1010
0000
1001
0000
0100
,
1000
0010
0100
0001
0010
0100
1000
0001
,
0100
0010
1000
0100
1000
0001
1000
0000
,
0001
0100
0001
0000
1001
0000
1000
0100
,
1000
0000
1001
0000
1000
0001
1000
0000
,
0001
0100
0001
0000
0101
0000
1000
0010
,
1000
0000
1001
0000
1000
0100
0010
0001
,
1000
0001
1000
0000
1001
0000
0001
0100
,
0001
0000
0101
0000
1000
0100
1000
0100
,
1000
0100
1000
0001
1000
0010
1000
0002
,
2000
0000
0000
0000
0000
0000
0000
3003
,
1001
0000
0101
0000
1001
0000
1100
1100
,
0000
0011
0000
1100
0000
1001
0000
1010
,
1010
0000
1001
0000
1100
0000
0011
0011
,
0000
0101
0000
1001
0000
0101
0000
0110
,
0110
0000
1010
0000
1001
0000
1100
1100
,
0000
0011
0000
0110
0000
1100
0000
1100
,
1100
0000
1010
0000
1001
0000
1100
1100
,
0000
0011
0000
0110
0000
1100
0000
1001
,
0001
0100
0010
1000
0100
0000
0100
1000
,
0000
0001
0010
0100
1000
0000
1001
0000
,
0001
0100
0010
1000
0100
0000
1000
0001
,
0000
0010
0100
1000
0001
0000
1001
0000
,
0001
0100
0010
1000
0100
0000
0010
0100
,
0000
1000
0010
0100
0001
1000
0001
1000
,
2002
0000
0000
0000
,
0000
0000
0000
3003
,
0001
0100
0001
0100
0000
0101
0000
1000
,
0100
0010
0001
0010
0000
0011
0000
0010
,
0100
1000
0010
1000
0000
1010
0000
1000
,
0001
0100
0001
1000
0000
1001
0000
1000
,
0100
0010
0001
0010
0000
0011
0000
0010
,
0100
1000
0010
0100
0000
0110
0000
0010
,
1000
0100
0010
0001
0000
0011
0000
0010
,
0100
1000
0001
0100
0010
1000
0001
1000
,
0100
0000
0100
1000
0000
1100
0000
0100
,
1000
0000
0001
0100
0000
0101
0000
0001
,
0010
0000
0001
0010
0000
0011
0000
0010
,
0100
1000
0010
1000
0000
0010
1000
0010
,
1000
0100
1000
0001
0000
1001
0000
0001
,
0100
0001
0010
0001
0000
0011
0000
0010
,
0100
1000
0010
1000
0000
1010
0000
1000
,
0001
0100
0001
1000
0000
0001
0100
0001
,
1000
0100
1000
0001
0000
0001
1000
0001
,
0100
0000
0100
0010
0000
0010
1000
0000
,
1000
0100
0000
0100
0010
0001
0010
0100
,
1000
0000
1000
0001
0000
0001
0100
0000
,
0100
0010
0000
0010
1000
0100
0010
0001
,
0010
0000
0010
0100
0000
0100
1000
0000
,
2000
0020
0000
0000
0000
0000
0000
0000
,
0000
0000
0000
0000
,
0000
0000
3030
0000
;

//---------------dance-single - Renard----------------
#NOTES:
     dance-single:
     Renard:
     Medium:
     6:
     0.391,0.508,0.217,0.168,0.000:
0000
0000
0000
0000
,
0000
0000
0000
0000
,
0000
0000
0000
0000
,
0000
0000
0000
0000
,
0000
0000
0000
0000
,
1000
0000
0000
0001
0000
0100
0000
0001
,
1000
0000
0000
0001
0000
0010
0000
0100
,
1000
0000
0000
0001
0000
1000
0000
0001
,
0100
0000
0000
0001
0000
1000
0000
0001
,
0100
0000
0000
0000
,
0001
0000
0000
1000
0000
0000
0100
0000
,
0000
0010
0000
0000
0000
0000
0000
0000
,
0001
0000
0000
0010
0000
0000
0100
0000
,
0000
1000
0000
0000
0000
0000
0000
0000
,
0010
0000
0000
1000
0000
0000
0001
0000
,
0000
0100
0000
0000
0000
0000
0000
0000
,
0000
0000
0000
0000
,
0001
0000
0001
0000
0001
0000
0001
1000
,
0000
0010
0000
0100
0000
0001
0000
0000
,
1000
0000
0100
0000
0010
0000
0001
1000
,
0000
0001
0000
1000
0000
0001
0000
0000
,
1000
0000
0001
0000
0100
0000
0001
1000
,
0000
0100
0000
1000
0000
0001
0000
0000
,
0010
0000
0001
0000
1000
0000
0010
1000
,
0000
0001
0000
0100
0000
0001
0000
0000
,
1000
0000
0100
0000
1000
0000
0001
1000
,
0000
0001
0000
0100
0000
0001
0000
0000
,
1000
0000
0100
0000
1000
0000
0001
0010
,
0000
0001
0000
1000
0000
0001
0000
0000
,
1000
1000
1000
2000
,
0001
0001
0001
0001
,
0001
0000
0002
0000
,
0010
0000
0000
3003
0000
0000
M00M
0000
,
1001
0000
1001
0000
1001
0000
1000
0001
,
1000
0001
1000
0001
1000
0000
0000
0000
,
1001
0000
1001
0000
1001
0000
0001
1000
,
0001
1000
0001
1000
0001
0000
0000
0000
,
0110
0000
0110
0000
0110
0000
0010
0100
,
0010
0100
0010
0100
0010
0000
0000
0000
,
0110
0000
0110
0000
0110
0000
0100
0010
,
0100
0010
0100
0010
0100
0000
0000
0000
,
1010
1100
1001
0000
,
1000
0100
0010
0001
,
0011
0101
1001
0000
,
0001
0100
0010
1000
,
1100
1010
1100
0000
,
0001
1000
0100
1000
,
2002
0000
0000
0000
,
0000
0000
0000
3003
,
0001
0000
0001
1000
0000
1000
0000
1000
,
0001
0000
0001
1000
0000
1000
0000
1000
,
0001
0000
0001
1000
0000
1000
0000
1000
,
0001
0000
0001
1000
0000
1000
0000
1000
,
0010
0000
0010
0100
0000
0100
0000
0100
,
0010
0000
0010
0100
0000
0100
0000
0100
,
0010
0000
0010
0100
0000
0100
0000
0100
,
0010
0000
0010
0100
0000
0100
0000
0100
,
0010
0010
0010
0010
,
1000
1000
1000
1000
,
0001
0001
0001
0001
,
0100
0000
0100
0000
0001
0100
0001
0000
,
1000
1000
1000
1000
,
0100
0100
0100
0100
,
0010
0010
0010
0010
,
0001
0000
0001
1000
0001
0000
0001
1000
,
0002
0000
0000
0000
,
0203
0000
0000
0320
0000
0000
2030
0000
,
0000
3200
0000
0000
0000
0000
0000
0000
,
0320
0000
0000
0032
0000
0000
0023
0000
,
0000
0230
0000
0000
0000
0000
0000
0000
,
2300
0000
0000
3020
0000
0000
0230
0000
,
0000
0002
0000
0000
0000
0000
0000
0000
,
0000
0000
0000
0000
,
0000
0000
0303
0000
;

//---------------dance-single - Renard----------------
#NOTES:
     dance-single:
     Renard:
     Easy:
     2:
     0.271,0.323,0.000,0.178,0.000: // measure 1
0000
0000
0000
0000
,  // measure 2
0000
0000
0000
0000
,  // measure 3
0000
0000
0000
0000
,  // measure 4
0000
0000
0000
0000
,  // measure 5
0000
0000
0000
0000
,  // measure 6
0000
0000
0000
0000
,  // measure 7
0000
0000
0000
0000
,  // measure 8
0000
0000
0000
0000
,  // measure 9
0000
0000
0000
0000
,  // measure 10
1000
1000
1000
1000
,  // measure 11
0002
0000
0000
0203
,  // measure 12
0000
0000
0000
0000
,  // measure 13
0320
0000
0000
2030
,  // measure 14
0000
0000
0000
0000
,  // measure 15
3200
0000
0000
0320
,  // measure 16
0000
0000
0000
0000
,  // measure 17
0000
0000
0000
0000
,  // measure 18
0031
0001
0001
0001
,  // measure 19
0010
0010
0010
0010
,  // measure 20
0100
1000
0100
1000
,  // measure 21
0100
1000
0100
1000
,  // measure 22
0010
0010
0010
0010
,  // measure 23
1000
1000
1000
1000
,  // measure 24
0001
0100
0001
0100
,  // measure 25
0001
0100
0001
0100
,  // measure 26
0001
0001
0010
0010
,  // measure 27
0100
0100
1000
1000
,  // measure 28
0001
0001
0010
0010
,  // measure 29
0100
0100
1000
1000
,  // measure 30
0001
0001
0010
0010
,  // measure 31
0100
0100
1000
1000
,  // measure 32
0001
0010
0100
1000
,  // measure 33
0001
0000
0000
0000
,  // measure 34
1000
0001
1000
0000
,  // measure 35
0010
0100
0010
0000
,  // measure 36
1000
0001
1000
0000
,  // measure 37
0100
1000
0100
0000
,  // measure 38
0010
0001
0010
0000
,  // measure 39
0001
0100
0001
0000
,  // measure 40
1000
0010
1000
0000
,  // measure 41
0100
1000
0100
0000
,  // measure 42
0010
0001
0010
0000
,  // measure 43
1000
0001
1000
0000
,  // measure 44
0001
0100
0001
0000
,  // measure 45
1000
0100
1000
0000
,  // measure 46
0001
1000
0001
0000
,  // measure 47
0010
0001
1000
0010
,  // measure 48
0200
0000
0000
0000
,  // measure 49
0000
0000
0000
0000
,  // measure 50
0301
0001
0001
0001
,  // measure 51
1000
1000
1000
1000
,  // measure 52
0001
0001
0001
0001
,  // measure 53
1000
1000
0001
0001
,  // measure 54
1000
1000
1000
1000
,  // measure 55
0001
0001
0001
0001
,  // measure 56
1000
1000
1000
1000
,  // measure 57
0001
0001
1000
1000
,  // measure 58
0002
0000
0000
0000
,  // measure 59
0203
0000
0000
0000
,  // measure 60
0310
0010
0010
0010
,  // measure 61
0100
0010
0100
0010
,  // measure 62
2000
0000
0000
0000
,  // measure 63
3002
0000
0000
0000
,  // measure 64
0013
0010
0010
0010
,  // measure 65
0100
0100
0010
0010
,  // measure 66
0200
0000
0000
0000
,  // measure 67
2300
0000
0000
3002
,  // measure 68
0000
0000
0000
0000
,  // measure 69
0203
0000
0000
0320
,  // measure 70
0000
0000
0000
0000
,  // measure 71
2030
0000
0000
3200
,  // measure 72
0000
0000
0000
0000
,  // measure 73
0000
0000
0000
0300
;
