#TITLE:Wac't;
#SUBTITLE:;
#ARTIST:Kitsune²;
#TITLETRANSLIT:;
#SUBTITLETRANSLIT:;
#ARTISTTRANSLIT:;
#CREDIT:;
#BANNER:;
#BACKGROUND:;
#LYRICSPATH:;
#CDTITLE:;
#MUSIC:wact.ogg;
#OFFSET:0.000;
#SAMPLESTART:10.667;
#SAMPLELENGTH:12.000;
#SELECTABLE:YES;
#BPMS:0.000=180.000;
#STOPS:;
#BGCHANGES:;

//---------------dance-single - Renard----------------
#NOTES:
     dance-single:
     Renard:
     Hard:
     8:
     0.584,0.612,0.159,0.019,0.080:
0000
0000
0000
0000
,
0000
0000
0000
0000
,
0000
0000
0000
0000
,
0000
0000
0000
0000
,
1000
0100
1000
0100
1000
0010
1000
0010
,
1000
0001
1000
0001
0001
0010
0100
1000
,
0001
1000
0001
1000
0001
0100
0001
0100
,
0001
0010
0001
0010
0001
0000
1001
0000
,
1000
0000
0001
0100
0000
0001
0010
0100
,
0000
0110
0000
0000
0000
0000
0100
0000
,
1000
0001
0000
0101
0000
1001
0000
1001
,
0000
0000
1000
0100
0010
0000
0001
0000
,
1000
0010
0000
0100
0000
0001
0000
0010
,
0100
0010
0100
1000
0000
0010
0100
0001
,
0000
0100
0000
0010
1000
0001
0100
0010
,
1000
1001
0001
1001
,
1000
0000
0100
0010
0000
0001
0010
0100
,
0000
1100
0000
0000
1000
0001
0010
0000
,
0001
1000
0000
0001
0000
0100
0000
0010
,
0000
1000
0100
0010
0001
0000
1000
0000
,
0001
0100
0000
0010
0000
1000
0000
0100
,
0010
0100
0010
0001
0000
1000
0001
0100
,
0000
0001
0000
1000
0100
0010
0001
1000
,
0000
0001
0000
0100
0010
0100
0010
0000
,
1000
1000
0001
0001
0000
1000
0100
0010
,
0001
0010
0100
1000
0010
0100
0001
0010
,
0100
1000
0010
0100
0001
0100
0010
1000
,
0100
0010
0001
1000
0010
0100
0001
0000
,
1000
0100
1000
0100
0000
0000
1001
0000
,
1000
0100
0010
0001
0010
0100
1000
0010
,
0100
0001
0010
0100
1000
0100
0010
0001
,
0100
0010
1000
0001
1000
0000
1001
0000
,
0110
0000
0010
0100
0000
1001
0000
1001
,
0000
1000
0001
0000
1000
0000
0100
0000
,
0010
0000
0001
0010
0000
0100
0000
1000
,
0000
0000
0001
0100
0001
0000
1000
0000
0100
0000
0000
0000
1001
0000
0000
0000
,
1000
0000
0000
0000
0000
0000
0000
0000
0000
0000
0000
0000
0001
0100
0001
0000
,
0100
0000
0001
0000
,
1000
0000
0000
0000
0000
0000
0000
0000
0100
0000
0000
0100
0000
0000
0100
0000
,
1000
0001
0010
0000
,
0001
0000
0000
0000
1000
0000
0000
0000
0010
0000
0000
0100
0000
0000
0001
0000
,
1000
0100
0010
0001
,
1000
0000
0000
0000
0001
0000
0000
0000
0100
0000
0000
0010
0000
0000
0100
0000
,
0001
1000
0100
0010
,
0001
0000
0000
0000
0000
0000
0000
0000
0000
0000
0000
0000
1000
0001
1000
0000
,
0001
0000
0100
0010
1000
0000
0001
0000
,
1000
0000
0000
0000
0100
0000
0000
0000
0010
0000
0000
0010
0001
0000
1000
0000
,
0001
0100
0001
1000
,
0001
0000
0000
0000
0100
0000
0000
0000
0010
0000
0000
0010
1000
0000
0100
0000
,
0010
0001
1000
0001
,
0010
0000
0000
0000
0100
0000
0000
0000
1000
0000
0000
1000
0010
0000
0100
0000
,
0001
0010
0100
1000
0001
0000
1001
0000
,
1000
0100
1000
0000
0000
0000
0001
0000
0010
0000
0000
0000
0001
0000
0000
0000
,
1000
0001
1000
0000
0000
0000
0001
0000
0100
0000
0000
0000
0010
0000
1000
0000
,
0100
0000
0010
0001
0010
0000
0100
1000
,
0001
0000
0000
0000
,
0100
0001
0100
0000
0000
0000
0001
0000
0010
0000
0000
0000
0100
0000
0000
0000
,
1000
0001
1000
0000
0000
0000
0010
0000
1000
0000
0000
0000
0100
0000
0010
0000
,
0001
0000
1000
0001
0100
0000
0010
1000
,
0100
0000
0010
0000
0001
1000
0001
0000
,
1000
0100
1000
0000
0000
0000
0001
0000
0010
0000
0000
0000
0001
0000
0000
0000
,
1000
0001
1000
0000
0000
0000
0001
0000
0100
0000
0000
0000
0010
0000
1000
0000
,
0100
0000
0010
0001
0010
0000
0100
1000
,
0001
0100
0000
0010
1000
0000
0001
0000
,
0100
0001
0100
0000
0001
0000
1000
0000
0100
0000
0000
0000
0010
0000
0000
0000
,
0001
0010
0001
0000
0010
0000
0100
0000
1000
0000
0000
0000
0001
0000
1000
0000
,
0100
0000
1000
0001
0010
0000
0001
1000
,
0010
0000
0100
0001
1000
0100
0010
0000
,
0001
0001
1000
1000
0000
0001
0010
0100
,
1000
0001
0100
0010
0100
0001
1000
0100
,
0010
0100
1000
0010
0100
0001
1000
0100
,
0010
0001
0010
0100
1000
0001
0100
0000
,
0010
0010
0100
0100
0000
0000
1001
0000
,
1000
0100
0010
0001
0100
0010
0100
0001
,
1000
0100
0010
1000
0010
0100
0010
0001
,
0010
0100
0001
0100
0010
0000
1001
0000
,
0100
0200
0010
0020
0000
0000
0330
0000
;

//---------------dance-single - Renard----------------
#NOTES:
     dance-single:
     Renard:
     Medium:
     5:
     0.348,0.358,0.009,0.019,0.000:
0000
0000
0000
0000
,
0000
0000
0000
0000
,
0000
0000
0000
0000
,
0000
0000
0000
0000
,
1000
0000
0001
0000
0000
1000
0001
0000
,
0100
0000
0010
0000
0000
0100
0010
0000
,
1000
0000
0001
0000
0000
1000
0001
0000
,
0100
0010
1000
1001
,
1000
0000
0100
1000
0000
0001
0000
0010
,
0000
0001
0000
0000
0000
0000
1000
0000
,
0001
0000
0000
0100
0000
0001
0000
1000
,
0000
0100
0010
0000
,
0001
0000
0000
1000
0000
0001
0000
0000
,
0100
0000
0001
1000
0000
0100
0000
0010
,
0000
0001
0000
0000
1000
0000
0000
0001
,
0000
0000
0000
0000
,
0100
0000
0000
0001
0000
1000
0000
0100
,
0000
0010
0000
0000
0000
0000
0001
0000
,
1000
0000
0000
0001
0000
0100
0000
0010
,
0000
1000
0010
1000
,
0100
0000
0000
0010
0000
0001
0000
0000
,
1000
0000
0000
0001
0000
0100
0000
0010
,
0000
1000
0000
0100
0000
0010
0001
1000
,
0000
0000
0001
0000
,
0100
0100
0000
0010
,
0000
0010
1000
0001
,
1000
0100
0000
0100
,
0000
0010
0001
1000
,
0001
1000
0001
1000
0000
0000
0001
0000
,
1000
0001
0000
0001
,
0100
0010
0000
0010
,
1000
0100
0010
0001
,
1000
0000
0001
1000
0000
0001
0000
0100
,
0000
0010
1000
0000
0000
0000
0100
0000
,
0010
0000
0001
0010
0000
0100
0000
1000
,
0000
0001
1000
0000
0001
0000
0000
0000
,
1000
0000
0000
0000
0000
0000
0001
0100
,
0001
0000
1000
0000
,
0100
0000
0010
0010
,
0010
0000
0001
0000
,
1000
0000
0100
0100
,
0100
0010
0001
1000
,
0001
0000
0100
0100
,
0100
0010
1000
0001
,
1000
0000
0000
0000
0000
0000
0010
0100
,
0010
0000
1000
0000
,
0001
0000
0100
0000
0001
0000
1000
0001
,
1000
0000
0100
0000
,
0010
0000
0001
0000
1000
0000
0001
1000
,
0001
0100
0010
1000
,
0100
0000
0010
0001
,
1000
0001
0100
0010
,
1000
0000
0000
0010
1000
0000
0001
0000
,
0100
0000
0000
0001
0100
0000
0001
0000
,
0010
0100
1000
0001
,
0020
0001
0001
0031
,
0001
0000
0000
0010
0100
0000
1000
0000
,
0001
0000
0000
1000
0001
0000
1000
0000
,
0010
0100
0001
2000
,
0100
0100
0100
3100
,
1000
0001
1000
0000
0001
0000
0000
0000
,
0100
0010
0100
0000
0010
0000
0000
0000
,
1000
0000
0010
1000
0001
0000
0100
0000
,
0001
0000
0000
0000
,
0010
0100
0000
0000
0010
0000
0100
0000
,
1000
0100
0000
0000
1000
0000
0001
0000
,
0010
0001
1000
0001
,
0100
0000
0010
0000
1000
0001
1000
0000
,
0001
1000
0001
1000
0000
0000
0001
0000
,
0000
0100
0000
0010
,
1000
0001
0000
0100
,
0001
1000
0100
0010
,
0001
1000
0001
1000
0000
0000
0001
0000
,
1000
0001
0000
0100
,
0010
1000
0000
0001
,
0100
0010
1000
0001
,
0100
0100
0010
0010
0000
0000
0000
0000
;

//---------------dance-single - Renard----------------
#NOTES:
     dance-single:
     Renard:
     Easy:
     2:
     0.253,0.286,0.019,0.000,0.000: // measure 1
0000
0000
0000
0000
,  // measure 2
0000
0000
0000
0000
,  // measure 3
0000
0000
0000
0000
,  // measure 4
0000
0000
0000
0000
,  // measure 5
0001
0000
0001
0000
,  // measure 6
0001
0010
0100
0000
,  // measure 7
1000
0000
1000
0000
,  // measure 8
1000
0100
0010
0000
,  // measure 9
0001
0000
1000
0001
,  // measure 10
0100
0010
0000
0000
,  // measure 11
1000
0000
0001
0100
,  // measure 12
0001
0000
0000
0000
,  // measure 13
1000
0000
0100
0010
,  // measure 14
0001
0000
0010
0100
,  // measure 15
1000
0001
1000
0001
,  // measure 16
0100
0000
0000
0000
,  // measure 17
0001
0000
1000
0100
,  // measure 18
0010
0010
0000
0001
,  // measure 19
0010
0000
0010
0100
,  // measure 20
1000
0000
0000
1000
,  // measure 21
0001
0000
0001
0100
,  // measure 22
0001
0000
0001
1000
,  // measure 23
0100
0100
1000
1000
,  // measure 24
0001
0000
0010
0000
,  // measure 25
0001
0001
0000
1000
,  // measure 26
0000
1000
0000
0010
,  // measure 27
0000
1000
0000
0010
,  // measure 28
0000
0100
0000
0001
,  // measure 29
1000
1000
0000
1001
,  // measure 30
0000
0001
0000
0010
,  // measure 31
0000
0100
0000
1000
,  // measure 32
0000
0001
0100
0001
,  // measure 33
1000
0000
0100
0010
,  // measure 34
0001
0010
0100
0000
,  // measure 35
1000
0000
0001
0000
,  // measure 36
0100
0010
0100
0000
,  // measure 37
0010
0000
0000
0010
,  // measure 38
1000
0000
0001
0000
,  // measure 39
0100
0000
0001
0001
,  // measure 40
0001
0000
1000
0000
,  // measure 41
0100
0000
0010
0000
,  // measure 42
0001
1000
0001
1000
,  // measure 43
0001
0000
0100
0000
,  // measure 44
0010
0000
0000
0000
,  // measure 45
1000
0000
0000
0001
,  // measure 46
0100
0000
0001
0000
,  // measure 47
1000
0000
0100
0010
,  // measure 48
0001
0000
0010
0000
,  // measure 49
0100
0000
1000
1000
,  // measure 50
1000
0001
1000
0001
,  // measure 51
0100
0000
0100
0000
,  // measure 52
0100
0010
1000
0001
,  // measure 53
1000
0000
1000
1000
,  // measure 54
0001
0000
0001
0000
,  // measure 55
0100
0010
0100
0010
,  // measure 56
0100
0000
0010
0000
,  // measure 57
1000
0000
1000
1000
,  // measure 58
0001
0000
0001
0010
,  // measure 59
0100
0010
0100
0010
,  // measure 60
0100
0000
0010
0000
,  // measure 61
0001
0000
0001
0001
,  // measure 62
1000
0000
1000
0000
,  // measure 63
0001
0000
1000
0001
,  // measure 64
1000
0000
0001
0000
,  // measure 65
0100
0000
0010
0100
,  // measure 66
0010
0000
1000
0010
,  // measure 67
0100
0000
0001
0000
,  // measure 68
1000
0000
0100
0000
,  // measure 69
0010
0010
0000
0001
,  // measure 70
0000
0001
0000
0001
,  // measure 71
0000
1000
0000
1000
,  // measure 72
0000
1000
0000
1000
,  // measure 73
0001
0001
0000
1001
,  // measure 74
0000
1000
0000
0010
,  // measure 75
0000
0100
0000
0001
,  // measure 76
0000
1000
0100
0010
,  // measure 77
0001
0001
0000
0000
;
