#TITLE:Viroid;
#SUBTITLE:;
#ARTIST:Scott Brown;
#TITLETRANSLIT:;
#SUBTITLETRANSLIT:;
#ARTISTTRANSLIT:;
#CREDIT:;
#BANNER:viroid.png;
#BACKGROUND:viroid-bg.png;
#LYRICSPATH:;
#CDTITLE:;
#MUSIC:viroid.ogg;
#OFFSET:0.000;
#SAMPLESTART:53.333;
#SAMPLELENGTH:12.000;
#SELECTABLE:YES;
#BPMS:0.000=180.000,159.000=360.000,160.000=180.000;
#STOPS:159.000=0.167
;
#BGCHANGES:;

//---------------dance-single - Renard----------------
#NOTES:
     dance-single:
     Renard:
     Challenge:
     11:
     0.852,0.826,0.160,0.250,0.924:
0000
0000
0000
0000
,
0000
0000
0000
0000
,
0000
0000
0000
0000
,
0000
0000
0000
0000
,
1000
0000
0001
0000
0000
0000
0100
0000
0010
1000
0010
1000
0010
0000
0000
0000
,
0100
0000
0001
0000
0000
0000
1000
0000
0001
0010
0001
0010
0001
0000
0000
0000
,
0010
0000
0100
0000
0000
0000
1000
0000
0001
0100
0001
0100
0001
0000
0000
0000
,
1000
0000
1000
0000
1000
0000
1000
0000
1000
0000
1000
0000
,
0001
0000
0100
0010
0000
2000
0010
0000
0001
0000
0000
0000
3010
0000
0000
0000
,
0010
0000
0100
0001
0000
2000
0100
0000
0010
0000
0000
0000
3001
0000
0000
0000
,
0001
0000
0010
0100
0000
0020
0001
0000
1000
0000
0000
0000
0031
0000
0000
0000
,
1000
0000
0010
0100
0000
0001
0100
0000
0010
1000
0000
0010
0100
0000
0001
0000
,
1000
0000
0010
0100
0000
0002
0100
0000
1000
0000
0000
0000
0103
0000
0000
0000
,
0100
0000
0010
1000
0000
0002
0010
0000
0100
0000
0000
0000
1003
0000
0000
0000
,
1000
0000
0100
0010
0000
0200
1000
0000
0001
0000
0000
0000
1300
0000
0000
0000
,
0001
0000
0100
0010
0000
1000
0010
0000
0100
0001
0000
0100
0010
0000
1000
0000
,
0001
0000
0100
0010
0000
1000
0010
0000
0000
0000
0000
0000
0000
0000
0000
0000
,
0100
0000
0001
1000
0000
0100
0010
0000
0000
0000
0000
0000
0000
0000
0000
0000
,
0001
0000
0010
0100
0000
1000
0001
0000
0000
0000
0000
0000
0000
0000
0000
0000
,
1000
0000
0010
0100
0000
0001
0100
0000
0010
1000
0000
0010
0100
0000
0001
0000
,
1000
0000
0010
0100
0000
0001
0100
0000
0000
0000
0000
0000
0000
0000
0000
0000
,
0010
0000
1000
0100
0000
0010
0001
0000
0000
0000
0000
0000
0000
0000
0000
0000
,
0010
0000
0100
1000
0000
0001
1000
0000
0000
0000
0000
0000
0000
0000
0000
0000
,
0010
0000
0100
0001
0000
0100
0010
0000
1000
0001
0000
0100
0010
0000
1000
0000
,
0001
0000
0100
0010
0000
1000
0010
0000
0100
0001
0000
0100
0010
0000
1000
0001
,
0100
0000
0010
1000
0000
0001
0100
0000
0010
1000
0000
0001
0100
0000
0010
1000
,
0100
0000
0010
0001
0000
0010
0100
0000
1000
0001
0000
0010
0100
0000
1000
0001
,
1000
0000
0010
0100
0000
0001
0100
0000
0010
1000
0000
0001
0100
0000
0010
1000
,
0001
0000
0100
0010
0000
1000
0001
0000
0100
0010
0000
1000
0001
0000
0100
0010
,
1000
0000
0001
0010
0000
0100
1000
0000
0001
0010
0000
0100
1000
0000
0001
1000
,
0010
0000
0100
0001
0000
1000
0010
0000
0100
0001
0000
1000
0010
0000
0100
0001
,
1000
0000
0010
0100
0000
0001
1000
0000
0010
0100
0000
0001
1000
0000
0100
0010
,
0001
0000
0001
0010
0000
0010
0100
0000
0100
1000
0000
1000
0001
0000
1000
0000
,
0002
0000
0000
0203
0000
0000
0320
0000
0000
2030
0000
0000
3200
0000
0000
0000
,
0310
0000
0010
0001
0000
0001
1000
0000
1000
0001
0000
0001
0100
0000
0010
0000
,
2000
0000
0000
3020
0000
0000
0230
0000
0000
0302
0000
0000
2003
0000
0000
0000
,
3001
0000
0001
1000
0000
1000
0001
0000
0001
1000
0000
1000
0001
0000
1000
0000
,
0020
0000
0000
0230
0000
0000
0320
0000
0000
0230
0000
0000
0320
0000
0000
0000
,
0130
0000
0100
0010
0000
0010
0100
0000
0100
0010
0000
0010
0100
0000
0010
0000
,
2000
0000
0000
3002
0000
0000
2003
0000
0000
3002
0000
0000
0003
0000
0000
0000
,
1000
0000
0000
0011
0000
0000
0100
0000
0000
0011
0000
0000
1000
0000
0001
0000
,
0100
0000
0000
1010
0000
0000
0100
0000
0000
0011
0000
0000
0100
0000
0010
0000
,
1000
0010
0100
0001
0100
0010
1000
0010
,
0001
0010
0100
1000
0100
0001
0100
0010
,
1000
0000
0000
0101
0000
0000
0010
0000
0000
1100
0000
0000
0001
0000
0100
0000
,
0010
0000
0000
1010
0000
0000
0100
0000
0000
0011
0000
0000
0100
0000
1000
0000
,
0001
0100
0010
1000
0100
1000
0001
0010
,
0001
0000
0001
1000
0000
1000
0010
0000
0010
0100
0000
0100
0001
0000
1000
0000
,
0001
0000
0000
1100
0000
0000
0010
0000
0000
1100
0000
0000
0001
0000
1000
0000
,
0010
0000
0000
0101
0000
0000
0010
0000
0000
1100
0000
0000
0010
0000
0100
0000
,
0001
0100
0010
1000
0010
0100
0001
0100
,
1000
0100
0010
0001
0010
1000
0010
0100
,
0001
0000
0000
1010
0000
0000
0100
0000
0000
0011
0000
0000
1000
0000
0010
0000
,
0100
0000
0000
0101
0000
0000
0010
0000
0000
1100
0000
0000
0010
0000
0001
0000
,
1000
0010
0100
0001
0010
0001
1000
0100
,
1000
0000
1000
0000
1000
0000
0001
0000
0001
0000
0001
0000
,
1000
0000
0001
1000
0000
0001
1000
0000
0001
0000
0100
0000
0010
0000
1000
0000
,
0100
0000
0010
0100
0000
0010
0100
0000
1000
0000
0001
0000
0100
0000
0010
0000
,
1000
0000
0001
1000
0000
0001
1000
0000
0001
0000
0100
0000
0010
0000
1000
0000
,
0100
0000
0010
0100
0000
1000
0001
0000
1000
0010
0000
0100
0001
0000
1000
0000
,
0010
0000
0100
0001
0000
0100
0010
0000
1000
0000
0001
0000
0100
0000
0010
0000
,
1000
0000
0100
1000
0000
0001
0010
0000
0001
0000
1000
0000
0010
0000
0100
0000
,
0001
0000
0100
0010
0000
1000
0010
0000
0100
0000
0001
0000
1000
0001
1000
0000
,
0001
0000
1000
0010
0000
0100
0001
0000
1000
0010
0000
0100
0001
0000
1000
0000
,
0001
0000
0100
0010
0000
1000
0010
0000
0100
0000
0001
0100
0001
0000
0100
0000
,
0010
0000
1000
0100
0000
0010
0001
0000
0010
0000
0100
1000
0100
0000
1000
0000
,
0001
0000
0100
0010
0000
1000
0001
0000
0100
0000
0001
0100
0001
0000
0100
0000
,
0010
0000
1000
0100
0000
0010
0001
0000
0010
0100
0000
1000
0001
0000
0010
0000
,
0100
0000
1000
0001
0000
0100
0010
0000
1000
0000
0010
1000
0010
0000
1000
0000
,
0010
0000
0100
0001
0000
1000
0001
0000
0010
0000
0001
0010
0001
0000
0010
0000
,
0100
0000
1000
0001
0000
1000
0010
0000
0100
0000
0001
0100
0001
0000
0100
0000
,
0010
0000
1000
0010
0000
0100
0001
0000
1000
0010
0000
0100
0001
0000
1000
0000
;

//---------------dance-single - Ryvard----------------
#NOTES:
     dance-single:
     Ryvard:
     Hard:
     9:
     0.679,0.826,0.580,0.310,0.694:
0000
0000
0000
0000
,
0000
0000
0000
0000
,
0000
0000
0000
0000
,
0000
0000
0000
0000
,
0001
0100
1000
0100
0001
0010
0100
1000
,
0100
0001
0100
0010
0001
1000
0010
0100
,
0101
1010
1100
0011
,
2200
0000
0000
3300
,
0001
0000
0010
0100
0000
0100
1000
0000
0000
0000
0000
0000
0000
0000
0000
0000
,
1100
0000
0100
0010
0000
0010
0001
0000
0000
0000
0000
0000
0000
0000
0000
0000
,
1100
0000
0010
0001
0000
0100
1000
0000
0000
0000
0000
0000
0000
0000
0000
0000
,
0202
0000
0010
1000
0000
0010
1000
0000
0303
0000
0000
0000
0000
0000
0000
0000
,
1000
0100
1000
0000
0010
0001
0010
0000
0000
0000
0000
0000
0000
0000
0000
0000
,
0010
0000
1000
0000
0100
0000
0010
0100
0000
0000
0000
0000
0000
0000
0000
0000
,
1001
0000
0100
0000
0001
0000
0010
0100
0000
0000
0000
0000
0000
0000
0000
0000
,
0001
0010
0100
1000
0001
0010
0100
1000
0010
0100
0001
1000
0010
0100
0001
0000
,
2200
0000
0000
0000
,
0000
0000
0010
0001
0000
0010
0001
0000
0000
0000
0300
0000
0000
0000
0000
0000
,
0002
0000
0100
0010
0000
0100
0010
0000
0000
0000
3003
0000
0000
0000
0000
0000
,
0010
0000
1000
0001
0000
0001
1000
0000
1000
0010
0000
0010
1000
0000
0000
0000
,
0220
0000
0000
0000
0000
0300
0000
0000
,
2000
0000
0001
0100
0000
0001
0100
0000
0000
0000
3030
0000
0000
0000
0000
0000
,
0202
0000
0010
1000
0000
0010
1000
0000
0000
0000
0303
0000
0000
0000
0000
0000
,
1000
0000
0100
0010
0000
0001
1000
0000
0010
0100
0000
0001
1000
0000
0010
0000
,
0001
0000
0000
0001
0000
0000
0100
0000
0000
0100
0000
0000
0000
0000
0000
0010
,
1000
0000
0000
1000
0000
0000
0100
0000
0000
0001
0000
0000
0100
0000
0000
0000
,
0001
0000
0000
1000
0000
0000
0010
0000
0000
0001
0000
0000
0100
0000
0000
0000
,
0101
0000
0000
0000
0110
0000
0000
0000
1010
0000
0000
0000
1100
0000
0000
0010
,
0001
0000
0000
0100
0000
0000
1000
0000
0000
0001
0000
0000
0010
1000
0010
0000
,
0100
0000
0000
1000
0000
0000
0100
0000
0000
0001
0000
0000
0010
0001
0010
0000
,
0100
0000
0000
0010
0000
0000
0010
0000
0000
0010
0000
0000
0000
0000
0000
0010
,
0100
0000
0000
0100
0000
0000
0100
0000
0000
0100
0000
0000
0110
0000
0000
0010
,
0001
0000
0000
0110
0000
0000
1100
0000
0000
1010
0000
0000
0110
0000
0000
0010
,
0001
0000
0000
1010
0000
0000
1100
0000
0000
0101
0000
0000
1001
0000
0000
0000
,
1000
0000
0000
0010
0000
0000
0100
0000
0000
0010
0000
0000
0001
0000
0000
1000
,
0200
0000
0300
0022
0000
0033
2200
3300
,
0001
0000
0000
0010
0000
0000
2200
0000
3300
0000
0000
0000
0220
0000
0330
0001
,
0200
0000
0000
0000
0300
0000
0010
0000
0000
0100
0000
0000
0110
0000
0000
0020
,
0200
0000
0000
0000
0000
0000
0001
0000
0000
1000
0000
0000
0331
0000
0000
0000
,
1000
0000
0000
0100
0000
0000
0001
0000
0000
1000
0000
0000
0220
0330
0000
0000
,
1000
0000
0000
0010
0000
0000
0100
0000
0000
1000
0000
0000
0001
0000
0000
0001
,
0010
0000
0000
0101
0000
0000
0110
0000
0000
1100
0000
0000
0110
0000
0000
0000
,
0001
0000
0000
0100
0000
0000
0010
0000
0000
0000
1000
0100
1000
0000
0000
0000
,
0001
0010
0001
0000
0000
0000
0100
0000
0000
0010
0000
0000
1000
0000
0000
0000
,
0010
0100
0010
0000
0000
0000
0100
0000
0000
0100
0000
0000
0100
0000
0000
0000
,
1000
0100
1000
0000
0000
0010
0000
0000
0000
0000
0001
0100
0001
0000
0000
0001
,
0100
0000
0000
1010
0000
0000
0101
0000
0000
0110
0000
0000
1100
0000
0000
0000
,
0110
0000
0000
0101
0000
0000
0011
0000
0000
0000
1000
0100
1000
0000
0000
0000
,
0001
0000
0000
1000
0000
0000
0100
0000
0000
1000
0000
0000
0001
0000
0000
0000
,
0100
0000
0000
0001
0000
0000
1000
0000
0000
0100
0000
0000
0010
0000
0000
0000
,
0001
0010
0001
0000
0010
0100
0010
0000
0000
1000
0000
0000
0100
0000
0000
0000
,
1000
0000
0000
0010
0000
0000
0100
0001
0100
0000
0010
1000
0010
0000
0000
0000
,
0110
0000
0000
0001
0000
0000
0110
0000
0000
1000
0000
0000
0110
0000
0000
0000
,
0100
0000
0000
1100
0000
0000
0010
0000
0000
0011
0000
0000
0100
0000
0000
0000
,
0001
0000
0000
0010
0000
0000
1000
0000
0000
0100
0000
0000
0001
0000
0000
0000
,
0202
0000
0000
0303
,
1000
0000
0100
0001
0000
0001
0100
0000
0010
0000
0000
0000
0010
0000
0000
0000
,
0001
0000
0010
0100
0000
0100
0010
0000
1000
0000
0000
0000
1000
0000
0000
0000
,
1000
0100
1000
0000
0010
0000
0001
0010
0000
0000
0000
0000
0000
0000
0000
0000
,
0001
0000
0010
0100
0000
0100
0010
0000
1000
0010
0000
0010
0001
0000
0001
0000
,
0102
0100
0100
0203
,
0020
0000
0001
1000
0000
0001
1000
0000
0000
0000
0330
0000
0000
0000
0000
0000
,
1100
0000
0010
0100
0000
0010
0100
0000
0000
0000
0000
0000
0000
0000
0000
0000
,
0011
0000
0001
0010
0000
0100
1000
0000
0001
0010
0000
0100
1000
0000
0011
0000
,
0011
0000
0000
1100
0000
0000
0000
0000
,
0110
0000
0000
0000
0000
0000
0101
0000
0000
0000
0001
0010
0001
0000
0000
0000
,
0100
0010
0100
0000
0000
0000
0011
0000
0000
0000
1000
0100
1000
0000
0000
0000
,
0100
0000
0001
0010
0000
0010
0100
0000
0001
0100
0000
0010
0001
0000
0100
0000
,
0010
0000
0100
0010
0000
1000
0100
0000
0000
0000
0000
0000
0000
0000
0000
0000
,
0001
0000
0000
0100
0000
0000
0010
0000
1000
0000
0000
0100
0000
0000
0000
0000
,
0010
0000
0000
0001
0000
0000
1000
0000
0000
0000
0000
0000
0000
0000
0000
0000
,
0001
0000
0100
0010
0000
0100
0001
0000
1000
0100
0000
0010
0001
0000
0110
0000
;

//---------------dance-single - Renard----------------
#NOTES:
     dance-single:
     Renard:
     Medium:
     5:
     0.337,0.395,0.000,0.020,0.000:
0000
0000
0000
0000
,
0000
0000
0000
0000
,
0000
0000
0000
0000
,
0000
0000
0000
0000
,
1000
0000
0100
0000
1000
0001
1000
0000
,
0001
0000
0010
0000
0001
1000
0001
0000
,
0100
0000
0010
0000
1000
0001
1000
0000
,
0002
0000
0000
0000
,
0013
0000
0010
0100
0000
0000
0000
0000
,
0100
0000
0100
1000
0000
0000
0000
0000
,
0010
0000
0010
0100
0000
0000
0000
0000
,
0001
0000
0001
0010
0000
0000
0100
0000
,
1000
0000
1000
0010
0000
0000
0000
0000
,
0100
0000
0100
0001
0000
0000
0000
0000
,
0010
0000
0010
0100
0000
0000
0000
0000
,
1000
0000
1000
0001
0000
0000
0100
0000
,
0010
0000
0000
0010
0000
0000
0000
0000
,
1000
0000
0000
1000
0000
0000
0000
0000
,
0001
0000
0000
0001
0000
0000
0000
0000
,
0010
0000
0000
0010
0000
0000
0100
0000
,
1000
0000
0000
1000
0000
0000
0000
0000
,
0001
0000
0000
0001
0000
0000
0000
0000
,
0010
0000
0000
0010
0000
0000
0000
0000
,
0100
0000
0000
0100
0000
0000
1000
0000
,
0010
0000
0000
0010
0000
0000
0010
0000
,
1000
0000
0000
1000
0000
0000
1000
0000
,
0001
0000
0000
0100
0000
0000
0001
0000
,
1000
0000
0000
0100
0000
0000
1000
0000
,
0001
0000
0000
0001
0000
0000
0001
0000
,
0010
0000
0000
0010
0000
0000
0010
0000
,
0100
0000
0000
1000
0000
0000
0100
0000
,
1000
0000
0000
0001
0000
0000
1000
0000
,
0001
0100
0001
0100
,
0010
0000
0000
0010
0000
0000
0010
0000
,
1000
0100
1000
0100
,
0010
0000
0000
0010
0000
0000
0010
0000
,
0100
1000
0100
1000
,
0010
0000
0000
0010
0000
0000
0010
0000
,
0100
0001
0100
0001
,
0010
0000
0000
0010
0000
0000
0000
0000
,
0001
0000
0010
0000
0001
0000
0010
0001
,
0010
0000
0100
0000
1000
0000
0100
1000
,
0100
0000
1000
0000
0010
0000
1000
0010
,
0100
0001
0100
0000
,
0001
0000
0010
0000
0001
0000
0010
0001
,
0010
0000
0100
0000
1000
0000
0100
1000
,
0100
0000
1000
0000
0010
0000
1000
0010
,
1000
0000
0010
0000
0100
0000
0001
0100
,
0001
0000
1000
0000
0100
0000
0010
0001
,
0010
0100
1000
0001
,
0100
0000
0010
0000
1000
0000
0001
1000
,
0001
1000
0100
0010
,
0001
0000
1000
0000
0100
0000
1000
0001
,
1000
0001
0100
0010
,
1000
0000
0100
0000
0010
0000
0001
1000
,
0002
0000
0000
0000
0000
0000
0000
0003
,
0100
0000
0100
0010
0000
0000
0000
0000
,
1000
0000
1000
0010
0000
0000
0000
0000
,
0100
0000
0100
0001
0000
0000
0000
0000
,
0010
0000
0010
0100
0000
0000
1000
0000
,
0001
0000
0001
0010
0000
0000
0000
0000
,
0001
0000
0001
1000
0000
0000
0000
0000
,
0010
0000
0010
0100
0000
0000
0000
0000
,
0001
0001
0010
0100
,
1000
0000
1000
0001
0000
0000
0000
0000
,
0100
0000
0100
0010
0000
0000
0000
0000
,
1000
0000
1000
0010
0000
0000
0000
0000
,
0100
0001
1000
0100
,
0010
0000
0010
0001
0000
0000
0000
0000
,
1000
0000
1000
0100
0000
0000
0000
0000
,
0010
0000
0010
0001
0000
0000
0000
0000
,
1000
0000
0000
0010
0000
0000
0100
0001
;

//---------------dance-single - Renard----------------
#NOTES:
     dance-single:
     Renard:
     Easy:
     2:
     0.236,0.287,0.000,0.240,0.000: // measure 1
0000
0000
0000
0000
,  // measure 2
0000
0000
0000
0000
,  // measure 3
0000
0000
0000
0000
,  // measure 4
0000
0000
0000
0000
,  // measure 5
1000
0000
1000
0001
,  // measure 6
0100
0000
0100
0000
,  // measure 7
0001
0000
0001
1000
,  // measure 8
0200
0000
0000
0000
,  // measure 9
1300
0100
0000
0000
,  // measure 10
0010
0001
0000
0000
,  // measure 11
1000
0010
0000
0000
,  // measure 12
0100
0000
0001
0000
,  // measure 13
0010
0100
0000
0000
,  // measure 14
1000
0001
0000
0000
,  // measure 15
0100
0010
0000
0000
,  // measure 16
1000
0000
0010
0000
,  // measure 17
0100
0001
0000
0000
,  // measure 18
0010
0100
0000
0000
,  // measure 19
1000
0010
0000
0000
,  // measure 20
0100
0001
0000
0000
,  // measure 21
1000
0100
0000
0000
,  // measure 22
0010
0001
0000
0000
,  // measure 23
1000
0010
0000
0000
,  // measure 24
0100
0001
0000
0000
,  // measure 25
2000
0000
0000
0000
,  // measure 26
3200
0000
0320
0000
,  // measure 27
0032
0000
0000
0000
,  // measure 28
0013
0020
0230
0000
,  // measure 29
1300
2000
0000
0000
,  // measure 30
3020
0000
0230
0000
,  // measure 31
0302
0000
0000
0000
,  // measure 32
2003
0000
0000
0000
,  // measure 33
3002
0000
0000
0000
,  // measure 34
0023
0000
0230
0000
,  // measure 35
2300
0000
0000
0000
,  // measure 36
3200
0000
0320
0000
,  // measure 37
0032
0000
0000
0000
,  // measure 38
2003
0000
3020
0000
,  // measure 39
0230
0000
0000
0000
,  // measure 40
0302
0000
0000
0003
,  // measure 41
1000
0000
1000
0000
,  // measure 42
0001
0100
0001
0000
,  // measure 43
1000
0000
1000
0000
,  // measure 44
0100
1000
0001
0000
,  // measure 45
0010
0000
0010
0000
,  // measure 46
0001
1000
0010
0000
,  // measure 47
1000
0000
1000
0000
,  // measure 48
0001
0100
0001
0000
,  // measure 49
1000
0000
1000
0000
,  // measure 50
0100
0010
0001
0000
,  // measure 51
0010
0000
0010
0000
,  // measure 52
0100
1000
0100
0000
,  // measure 53
1000
0000
1000
0000
,  // measure 54
0001
0100
0010
0000
,  // measure 55
1000
0000
0010
0100
,  // measure 56
0002
0000
0000
0000
,  // measure 57
0103
0000
0000
0000
,  // measure 58
0100
0010
1000
0000
,  // measure 59
0010
0000
0000
0000
,  // measure 60
0100
0001
0010
0000
,  // measure 61
0100
0000
0000
0000
,  // measure 62
1000
0010
0100
0000
,  // measure 63
0010
0000
0000
0100
,  // measure 64
0100
0100
0100
0000
,  // measure 65
0010
0000
0000
0000
,  // measure 66
1000
0100
0010
0001
,  // measure 67
0010
0000
0000
0000
,  // measure 68
0100
1000
0100
0010
,  // measure 69
0001
0000
0000
0000
,  // measure 70
0010
0100
1000
0100
,  // measure 71
0010
0000
0000
0000
,  // measure 72
0001
0010
0100
1000
;
