#TITLE:Vieni Con Me;
#SUBTITLE:;
#ARTIST:Paps'N'Skar;
#TITLETRANSLIT:;
#SUBTITLETRANSLIT:;
#ARTISTTRANSLIT:;
#CREDIT:;
#BANNER:me.png;
#BACKGROUND:me-bg.png;
#LYRICSPATH:;
#CDTITLE:;
#MUSIC:me.ogg;
#OFFSET:0.000;
#SAMPLESTART:59.549;
#SAMPLELENGTH:12.000;
#SELECTABLE:YES;
#BPMS:0.000=133.000,93.000=266.000,99.000=133.000;
#STOPS:74.000=0.451
,81.000=0.451
,88.000=0.451
;
#BGCHANGES:;

//---------------dance-single - Renard----------------
#NOTES:
     dance-single:
     Renard:
     Hard:
     7:
     0.436,0.435,0.133,0.133,0.000:
0000
0000
0000
0000
,
0000
0000
0000
0000
,
0000
0000
0000
0000
,
0000
0000
0000
0000
,
0000
0000
0000
0000
,
0001
0000
0101
0000
0001
1000
1100
0000
,
1000
0000
1001
0000
1000
0001
0011
0000
,
0001
1000
0001
1000
0010
0100
0010
0100
,
0020
0000
0000
0000
,
1030
0000
0010
0100
0001
0000
0001
1000
,
0100
0000
0100
1000
0001
0000
0010
0001
,
0010
0000
0010
0100
1000
0000
1000
0010
,
0100
0000
0100
0001
1000
0000
1000
0001
,
0100
0000
0100
0010
1000
0000
1000
0001
,
0010
0000
0010
0100
1000
0000
1000
0001
,
1000
0000
1000
0010
0100
0000
0100
0001
,
0010
0000
0010
0001
1000
0001
0100
0010
,
1000
0010
1000
0001
0000
0100
0010
1000
,
0001
0000
0000
0000
0000
0000
0000
0000
0000
0000
0000
0000
0000
0000
0000
0000
1001
0000
0000
0000
0000
0000
0000
0000
0000
0000
0000
0000
0000
0000
0000
0000
0220
0330
0000
0000
0000
0000
0000
0000
0000
0000
0000
0000
0000
0000
0000
0000
0010
0000
0000
0000
0000
0000
0000
0000
1000
0000
0000
0000
0000
0000
0000
0000
,
0001
0010
0000
0010
0100
1000
0001
0000
,
1000
0000
0000
0000
0000
0000
0000
0000
0000
0000
0000
0000
0000
0000
0000
0000
0002
0003
0000
0000
0000
0000
0000
0000
0000
0000
0000
0000
0000
0000
0000
0000
0001
0000
0000
0000
0000
0000
0000
0000
0100
0000
0000
0000
0000
0000
0000
0000
0010
0000
0000
0000
0000
0000
0000
0000
0000
0000
0000
0000
0000
0000
0000
0000
,
1010
1000
0100
0000
1000
0001
0100
0001
,
2000
3000
0000
0000
0000
0000
0000
0000
0000
0000
0000
0000
0000
0000
0000
0000
0001
0000
0000
0000
0000
0000
0000
0000
0100
0000
0000
0000
0000
0000
0000
0000
0010
0000
0000
0000
0000
0000
0000
0000
0000
0000
0000
0000
0000
0000
0000
0000
0010
0000
0000
0000
0000
0000
0000
0000
1000
0000
0000
0000
0000
0000
0000
0000
,
0100
2000
0002
0000
0000
0000
0000
0000
,
0000
0000
3003
0110
,
1000
0010
0100
0001
0010
0100
1000
0001
,
0000
0001
0100
0010
0000
0010
1000
0100
,
1000
0000
0010
0100
0001
0000
1000
0100
,
1000
0001
0010
0100
1000
0000
1001
0000
,
0001
0100
0010
1000
0010
0100
0000
0001
,
0000
1000
0100
1000
0001
0010
0000
0001
,
0000
1000
0010
0100
0001
2000
0000
0200
,
3000
0020
0300
0002
0030
0200
0003
0310
,
0110
0000
0010
1000
1100
0000
1000
0000
,
0001
0000
0010
0100
1000
0001
0010
0001
,
1000
0000
1000
0100
0010
0000
0010
0001
,
0100
0000
0001
1000
0100
1000
0001
1000
,
0010
0000
0010
0100
0001
0000
0001
1000
,
0100
1000
0000
0010
0000
0100
0001
1000
,
0000
0100
0000
0010
0000
0001
1000
0010
,
0000
0010
0100
0001
1000
0100
1000
0001
,
0010
0000
0001
1000
0010
0000
0000
0000
,
0010
0000
0100
0000
0001
1000
0100
0010
,
0001
0000
0001
0010
0100
0000
0000
0000
,
0100
0000
1000
0010
0100
0001
1000
0100
,
1000
0000
0001
0010
0100
0000
1000
0000
,
0010
0100
0000
0110
0000
0010
1000
0001
,
0000
0001
0100
0010
0000
0010
1000
0100
,
1000
0000
0000
0001
0100
0010
1000
0100
,
0010
0000
0000
0000
;

//---------------dance-single - Renard----------------
#NOTES:
     dance-single:
     Renard:
     Challenge:
     9:
     0.565,0.602,0.510,0.089,0.238:
0000
0000
0000
0000
,
0000
0000
0000
0000
,
0000
0000
0000
0000
,
0000
0000
0000
0000
,
0000
0000
0000
0000
,
0101
0000
0010
0100
1100
0000
0010
0100
,
0101
0000
0010
0100
1100
0000
0010
0100
,
0101
0100
0110
0010
1010
1000
1001
0001
,
2002
0000
0000
0000
0000
0000
3003
M00M
,
0001
0000
0000
0000
0100
0000
0010
0000
1000
0000
0000
0000
1000
0000
0000
0100
,
0010
0000
0000
0000
0001
0000
0010
0000
0100
0000
0000
0000
1000
0001
1000
0001
,
0100
0000
0000
0000
0010
0000
1000
0100
1000
0000
0000
0000
0001
0000
0010
0001
,
0010
0000
0001
0100
0010
1000
0001
0100
,
0010
0000
0000
0010
1000
0000
0100
0000
0010
0000
0000
0010
0001
0000
0010
0000
,
0100
0000
0000
0100
1000
0000
0010
0000
0100
0000
0000
0000
0001
1000
0001
1000
,
0001
0000
0000
0000
0100
0000
0010
0000
1000
0000
0000
1000
0100
0000
1000
0000
,
0010
0000
0000
0010
0100
0000
0001
0000
0010
0000
0100
0000
1000
0000
0001
0000
,
0100
0010
1000
0000
0100
0010
0001
0000
,
0010
0000
0000
0000
0000
0000
0100
0000
0000
0000
0000
0000
1000
0000
0000
0000
0000
0000
0001
0000
0000
0000
0000
0000
1001
0000
M00M
0000
0000
0000
1000
0000
0000
0001
0000
0000
1000
0000
0000
0000
0000
0000
0010
0000
0000
0000
0000
0000
,
0100
0001
0000
0010
0100
1000
0001
0000
,
1000
0000
0000
0000
0000
0000
0001
0000
0000
0000
0000
0000
1001
0000
M00M
0000
0000
0000
0001
0000
0000
1000
0000
0000
0001
0000
0000
0000
0000
0000
0000
0000
0000
0000
0000
0000
0100
0000
0000
0000
0000
0000
0010
0000
0000
0000
0000
0000
,
1010
0000
1000
0100
1100
0000
1000
0001
,
0100
0M0M
0001
0000
0100
0000
0001
0000
0100
0000
0000
0000
0000
0000
0000
0000
0010
0000
0000
0000
1000
0000
0000
0000
0100
0000
0000
0000
0000
0000
0000
0000
,
0100
1000
2020
0000
0000
0000
0000
0000
,
0000
0000
0000
0000
0000
0000
0000
0030
30M0
M000
00M0
M000
1001
0000
0000
0000
,
0101
0000
0100
0010
0110
0000
0010
1000
,
1100
0000
0000
0000
1000
0100
0010
0001
0010
0000
0100
1000
0001
0000
0010
0000
,
0100
0000
0100
1000
1010
0000
0010
0100
,
0101
0001
1001
1000
1100
0000
1001
0000
,
0001
0100
0010
1000
0100
1000
0100
1100
,
0000
0000
1000
0000
0001
0000
0001
0100
0010
1000
0100
0000
0010
0000
0110
0000
,
0000
0100
1000
0001
0100
0010
0000
2002
,
0000
0010
0000
0100
0000
0010
0000
3003
,
0101
0000
0110
1000
0110
0000
1001
0000
,
1100
0000
0110
0010
1100
1000
0110
0100
,
0011
0000
0010
0100
1001
0000
0001
0100
,
0110
0000
0010
1000
1100
1000
0101
0100
,
0110
0000
0010
1000
1100
0000
1000
0010
,
0100
0001
0010
0110
0000
0100
1000
1010
,
0000
0010
0100
0101
0000
0001
1000
1100
,
0000
0000
1000
0000
0001
0000
0100
0000
0010
1000
0010
1000
0010
0000
1000
0000
,
0100
0000
0000
0100
1000
0000
0001
0000
0010
0000
0000
0010
0001
0000
1000
0000
,
0010
0000
0000
0010
1000
0000
0001
0000
0100
0000
0010
1000
0100
0000
1000
0000
,
0001
0000
0000
0001
0010
0000
0001
0000
0100
0000
0000
0100
0001
0000
1000
0000
,
0100
0000
0000
0100
1000
0000
0001
0000
0010
0000
0100
1000
0001
0000
0010
0100
,
1000
0000
0000
1000
0001
0000
0100
0000
0010
0000
0000
0010
1000
0000
0010
0000
,
0100
0000
0001
0100
0001
0000
0100
0000
0000
0000
0010
1000
0010
0000
1000
0000
,
0000
0000
0100
1000
0100
0000
1000
0000
0000
0000
0001
0010
0001
0000
0010
0000
,
0000
0011
0000
0010
0100
1000
0001
0200
,
0020
0000
0000
0330
0000
0000
0000
0000
;

//---------------dance-single - Renard----------------
#NOTES:
     dance-single:
     Renard:
     Medium:
     4:
     0.287,0.299,0.033,0.000,0.000:
0000
0000
0000
0000
,
0000
0000
0000
0000
,
0000
0000
0000
0000
,
0000
0000
0000
0000
,
0000
0000
0000
0000
,
1000
0000
0100
1000
0100
0000
0000
0000
,
1000
0000
0000
0001
0000
0100
0000
0001
,
0000
0010
0000
0100
0000
1000
0000
0001
,
0000
0100
0000
0000
0010
0000
0010
0000
,
1000
0000
0010
0000
,
0100
0000
0000
0000
0001
0000
0010
0001
,
1000
0000
0001
0000
,
0010
0000
0000
0000
0100
0000
1000
0001
,
0100
0000
0010
0000
,
1000
0000
0000
0000
0001
0000
0100
0010
,
1000
0000
0010
0000
,
0100
0000
0000
0000
0001
0010
0100
1000
,
0001
0100
0010
1000
,
0001
0010
0110
0000
,
0100
1000
0010
0100
,
0001
1000
0000
0001
,
0010
0000
0001
0000
1000
0000
0010
1000
,
0010
0000
1000
0010
,
0100
0001
1000
0000
0000
0000
0000
0000
,
0000
0000
0000
0000
,
1000
1000
0001
0001
,
0100
0000
0010
1000
0010
0000
0100
0001
,
0100
0001
0010
0100
,
1000
0000
0001
1000
0001
0000
1001
0000
,
0000
1000
0100
0010
,
0001
0000
1000
0001
1000
0001
0000
1001
,
0000
0000
1000
0000
0001
0000
0100
0010
,
0000
1000
0000
0010
0000
0100
0000
0001
,
1000
0000
1000
0001
0010
0000
0000
0000
,
0100
0000
0000
1000
0001
1000
0001
0100
,
0010
0000
1000
0010
1000
0000
0000
0000
,
0000
0000
0000
0010
0100
0010
0100
0001
,
0100
0000
0001
0010
0001
0000
0000
0000
,
0010
0100
0000
1000
0000
0001
0000
0100
,
0000
0010
0000
1000
0000
0100
0000
0010
,
0000
0001
0000
1000
0001
1000
0001
0000
,
0100
0000
0100
0010
1000
0000
0010
0000
,
0100
0000
0001
0000
0010
0000
0001
1000
,
0001
0000
0010
0100
0010
0000
0100
0000
,
1000
0000
0010
0000
0100
0001
0100
0000
,
0010
0000
1000
0100
1000
0000
0100
0000
,
0010
0000
0001
1000
0000
0001
0000
0010
,
0000
0100
0000
1000
0000
0010
0000
0100
,
0000
0001
0000
0000
1000
0100
0010
0001
,
1000
0000
0000
0000
;

//---------------dance-single - Renard----------------
#NOTES:
     dance-single:
     Renard:
     Easy:
     1:
     0.177,0.244,0.000,0.222,0.000: // measure 1
0000
0000
0000
0000
,  // measure 2
0000
0000
0000
0000
,  // measure 3
0000
0000
0000
0000
,  // measure 4
0000
0000
0000
0000
,  // measure 5
0000
0000
0000
0000
,  // measure 6
2000
0000
3002
0000
,  // measure 7
0203
0000
0320
0000
,  // measure 8
2030
0000
3002
0000
,  // measure 9
0013
0000
0000
0000
,  // measure 10
0001
0000
0010
0000
,  // measure 11
0100
0000
1000
1000
,  // measure 12
0100
0000
0010
0000
,  // measure 13
0001
0000
1000
1000
,  // measure 14
0010
0000
0100
0000
,  // measure 15
0001
0000
1000
1000
,  // measure 16
0001
0000
0010
0000
,  // measure 17
0100
0000
1000
1000
,  // measure 18
0002
0000
0023
0000
,  // measure 19
0130
0000
1000
0020
,  // measure 20
0000
0230
0000
0302
,  // measure 21
0000
1003
0002
0000
,  // measure 22
0023
0000
0230
0000
,  // measure 23
1300
0020
0000
0230
,  // measure 24
0000
0302
0000
0000
,  // measure 25
0000
0000
0000
0000
,  // measure 26
1003
0000
1000
0000
,  // measure 27
0001
0100
0001
0000
,  // measure 28
1000
0000
1000
0000
,  // measure 29
0001
0010
0001
0000
,  // measure 30
0010
0000
0010
0000
,  // measure 31
0100
1000
0100
0000
,  // measure 32
1000
0000
0010
0000
,  // measure 33
0200
0000
0000
0000
,  // measure 34
0310
0000
0010
0000
,  // measure 35
0000
0000
0010
1000
,  // measure 36
0010
0000
0010
0000
,  // measure 37
0000
0000
1000
0010
,  // measure 38
0100
0000
0100
0000
,  // measure 39
0001
0000
0001
0000
,  // measure 40
1000
0000
0001
0000
,  // measure 41
0200
0000
0010
0000
,  // measure 42
0310
0000
1000
0000
,  // measure 43
0000
0000
0010
0100
,  // measure 44
0001
0000
0100
0000
,  // measure 45
0000
0000
0010
1000
,  // measure 46
0010
0000
1000
0000
,  // measure 47
0001
0000
1000
0000
,  // measure 48
0100
0000
0010
0000
,  // measure 49
0002
0000
0000
0000
,  // measure 50
1003
0000
0000
0000
;
