#TITLE:Verruckte Jungs;
#SUBTITLE:;
#ARTIST:Blümchen;
#TITLETRANSLIT:;
#SUBTITLETRANSLIT:;
#ARTISTTRANSLIT:;
#CREDIT:;
#BANNER:jungs.png;
#BACKGROUND:jungs-bg.png;
#LYRICSPATH:;
#CDTITLE:;
#MUSIC:jungs.ogg;
#OFFSET:0.000;
#SAMPLESTART:76.800;
#SAMPLELENGTH:12.000;
#SELECTABLE:YES;
#BPMS:0.000=200.000;
#STOPS:;
#BGCHANGES:;

//---------------dance-single - Renard----------------
#NOTES:
     dance-single:
     Renard:
     Hard:
     8:
     0.640,0.697,0.440,0.009,0.000:
0000
0000
0000
0000
,
1000
0000
0001
0100
,
0001
1000
0000
0000
0000
0000
0100
0000
,
1000
0001
0010
0001
,
1000
0010
0000
0000
0100
0000
0001
0000
,
1000
0000
0100
0000
0010
0000
0001
1000
,
0000
0001
0000
0000
0000
0000
1000
0000
,
0010
0000
0100
0000
0001
0010
0000
0100
,
0000
1001
0110
1001
,
0110
0000
0010
1000
,
0010
1000
0000
0000
0000
0000
0001
0000
,
0100
0001
0010
0100
,
1000
0001
0000
0000
0100
0000
0010
0000
,
0110
0000
1001
0000
,
0110
0000
1001
0000
,
0110
0110
1001
1001
,
0110
0000
0010
1000
0010
0000
1000
0000
,
0001
0000
0001
0000
0100
0001
0100
0001
,
0000
1000
0000
0100
1000
0100
1000
0000
,
0001
0000
0010
0000
0001
1000
0001
1000
,
0000
0010
0000
0000
0100
0010
0100
0000
,
0010
0000
1000
0000
0001
1000
0001
1000
,
0000
0000
0010
0000
0100
0001
0100
0000
,
0001
1000
0100
1000
,
1001
0110
1001
0110
,
1001
0000
0001
0000
0100
0000
0001
1000
,
0000
0100
1100
0000
,
1000
0000
0001
0000
0010
0000
0001
1000
,
0000
0010
1000
0000
1001
0000
0000
0000
,
1000
0000
0100
0010
0001
0000
0010
0100
,
0000
0010
0100
0000
0110
0000
0100
1000
,
0100
0000
1000
0000
1001
0000
0000
0001
,
0000
0100
0001
0000
1001
0000
1001
0000
,
0110
0000
0010
1000
0010
1000
0001
0100
,
0001
0000
1000
0100
0000
1000
0001
0010
,
0001
0000
1000
0000
0001
0100
0001
0000
,
1000
0100
1000
0001
0000
0010
0001
1000
,
0001
0000
1000
0000
0001
0100
0001
0000
,
1000
0100
1000
0001
0000
1000
0010
1000
,
0001
0000
1000
0000
0001
0100
0001
1000
,
0010
1001
1001
1001
,
1001
0000
0001
0000
0100
0001
0100
0001
,
0100
0000
0001
0000
1000
0100
1000
0100
,
1000
0001
0010
0001
1000
0001
1000
0001
,
1000
0000
0000
0000
0000
0001
0100
0010
,
0100
0000
0000
0000
0000
0010
1000
0010
,
1000
0000
0000
0000
0000
0001
1000
0001
,
1000
0100
1000
0100
1000
0001
0010
0001
,
0010
0000
0000
0000
0000
0001
1000
0001
,
1000
0010
0100
0010
0100
0001
1000
0001
,
1000
0010
0100
0010
0100
0001
1000
0001
,
1000
0010
0100
0010
0100
0001
1000
0001
,
1000
0010
0100
0010
0100
0001
1000
0001
,
1000
0010
0100
0001
1000
0010
0100
0001
,
1000
0010
0100
0001
1000
0010
0100
0001
,
1000
0010
0100
0001
1000
0010
0100
0001
,
1000
0010
0100
0001
1000
0010
0100
0001
,
1001
0000
0000
0000
0000
0000
0001
0100
,
0001
0000
0000
0000
0000
0000
1000
0100
,
1000
0001
0010
0100
1000
0001
0100
0010
,
1000
0100
0010
0001
0010
0100
1000
0001
,
1000
0000
0000
0000
0000
0000
0001
0100
,
0001
0000
0000
0000
0000
1000
0100
1000
,
0001
1000
0010
1000
0001
0010
0100
1000
,
0002
1000
1000
1003
,
1000
0001
1000
0000
0001
0000
0100
0000
,
0010
0100
0000
0000
0010
1000
0001
0000
,
1000
0100
0010
0001
,
0010
0100
0000
0000
0110
0000
1100
0000
,
0011
0000
0011
0000
0110
0000
0100
1000
,
0000
1001
0000
0000
0000
0000
1000
0001
,
0100
0000
0001
0000
1000
0100
0000
1001
,
0000
0000
1000
0001
0100
0000
1001
0000
,
0110
0000
0010
1000
,
0001
0100
0000
0000
0000
0000
0001
0000
,
1000
0100
1000
0000
0001
0000
0010
0000
,
0001
1000
0000
0000
0110
0000
0110
0000
,
1010
0000
1001
0000
,
1000
0100
0010
0001
,
0011
0011
0110
1100
,
1001
0000
0000
0000
0000
1000
0001
0100
,
0010
0000
0000
0000
0000
1000
0010
0100
,
0001
0000
0000
0000
0000
0010
0100
1000
,
0100
0010
0001
0010
0100
1000
0001
0010
,
0100
1000
0100
0010
0001
1000
0001
0100
,
0010
0000
0000
0000
0000
1000
0010
0100
,
0001
0000
0000
0000
0000
0001
0100
0010
,
1000
0100
0010
0001
0010
0100
1000
0001
,
0100
0010
1000
0001
0100
0010
1000
0001
,
1000
0000
0000
0001
0001
0000
0000
0000
;

//---------------dance-single - Renard----------------
#NOTES:
     dance-single:
     Renard:
     Challenge:
     9:
     0.706,0.699,0.440,0.027,0.014:
0000
0000
0000
0000
,
0000
0000
0000
0000
,
0000
0000
0000
0000
,
0000
0000
0000
0000
,
0000
0000
0000
0000
,
0000
0000
0000
0000
,
0000
0000
0000
0000
,
0000
0000
0000
0000
,
0000
1000
0001
1000
,
1001
0000
0001
0100
,
0010
1000
0000
0000
0000
0000
0001
0100
,
0001
0000
1000
0100
1000
0000
0001
0010
,
0001
1000
0000
0000
0001
0100
0010
0000
,
0110
0000
1010
0000
,
1001
1001
0110
0110
,
0010
1000
0010
0000
0100
0001
0100
0000
,
1001
0110
1001
0110
,
1010
0000
0010
1000
0000
0010
1000
0010
,
1000
0000
0001
0100
0000
0001
0100
0001
,
0010
0000
0001
0010
0000
0100
1000
0100
,
1000
0000
0001
1000
0000
0010
0100
0010
,
0100
0000
0010
0100
0010
0100
0010
1000
,
0000
0001
0000
0100
0001
1000
0100
1000
,
0001
0000
1000
0010
0000
1000
0001
0000
,
1001
0110
1001
1001
,
1001
0000
1000
0000
0100
0000
0010
0001
,
0000
0001
0010
0000
0011
0000
0010
0100
,
1000
0001
0100
0000
0110
0000
0010
1000
,
0000
0001
0100
0010
1000
0000
1001
0000
,
1100
0000
0001
1000
0100
0000
1000
0100
,
0000
0010
0001
0010
0100
0000
0110
0000
,
1100
0000
1000
0100
1000
0000
0010
1000
,
0000
0001
0100
0000
1001
0000
1001
0000
,
1001
0000
0001
0100
0010
1000
0100
0010
,
0001
0010
0100
1000
0000
0001
0100
0010
,
1000
0000
0010
0100
0001
0100
0010
1000
,
0100
0010
0001
0010
0100
1000
0001
0100
,
0010
0000
1000
0010
0001
0010
0100
0010
,
1000
0010
1000
0100
0000
1000
0100
0010
,
0001
0000
0010
0100
0001
0100
1000
0100
,
0010
0001
0010
0100
0000
1000
0010
0100
,
0001
0000
0100
0000
0010
1000
0100
0010
,
0001
0000
0010
0000
0100
0010
0001
0010
,
1000
0010
0001
0010
1000
0010
0001
0010
,
1000
0000
0010
0000
0001
0100
1000
0100
,
0001
0000
0100
0000
0001
0010
1000
0010
,
0001
0000
0010
0000
0001
0010
0100
1000
,
0100
0001
0100
1000
0010
0001
0010
0100
,
0010
0000
1000
0000
0010
1000
0100
1000
,
0100
0001
0100
0001
0100
0010
0100
0010
,
0100
1000
0100
1000
0100
1000
0010
1000
,
0010
0100
0010
0100
0010
0001
0010
0001
,
0010
0100
0010
0100
0010
0100
1000
0100
,
1000
0100
0001
0100
0001
0100
0010
0100
,
0010
0001
0010
0001
0010
1000
0010
1000
,
0010
1000
0100
1000
0100
0010
0001
0010
,
0001
0010
0100
1000
0001
0100
0010
1000
,
1001
0000
MMMM
0000
0000
0001
0100
0010
,
0110
0000
MMMM
0000
0000
0010
1000
0100
,
0010
0001
0010
0100
1000
0001
0100
0010
,
1000
0001
0100
0010
1000
0100
0010
0001
,
0011
0000
MMMM
0000
0000
0010
0100
1000
,
1001
0000
MMMM
0000
0000
0001
0100
0010
,
1000
0000
0001
1000
0001
0000
1000
0000
0010
0000
0100
0000
0001
0000
0010
0000
,
0100
0200
10MM
0000
M0M1
0000
M31M
0000
,
M11M
0000
0100
1000
0010
0100
0001
0100
,
0010
0100
0000
0010
1000
0100
0010
0001
,
0010
0000
0001
0010
0100
0000
0010
0100
,
1000
0010
0000
1000
0010
0100
0001
0000
,
0101
0000
0110
0000
0110
0000
0010
1000
,
0000
0001
1000
0100
0010
0000
0011
0000
,
0110
0000
0100
1000
0001
0010
0100
1000
,
0001
0101
1001
1010
,
1001
0000
1000
0100
0010
0001
0010
0100
,
1000
0001
0000
0000
0000
0000
1000
0100
,
0010
0000
0001
0010
0100
0000
1000
0010
,
0100
0001
0000
0000
0100
0010
1000
0000
,
1001
0000
0110
0000
,
0010
1000
0001
0100
0010
0000
1000
0000
,
0001
0100
0001
0000
1000
0100
1000
0000
,
0001
0010
0100
1000
0001
0100
0010
1000
,
1001
0000
MMMM
0000
0000
0001
0100
0010
,
0110
0000
MMMM
0000
0000
0010
1000
0100
,
0010
0001
0010
0100
1000
0001
0100
0010
,
1000
0100
0010
0100
1000
0001
0010
0100
,
0110
0000
MMMM
0000
0000
0100
1000
0010
,
1010
0000
MMMM
0000
0000
0010
1000
0001
,
0100
0000
0001
1000
0001
0000
0100
0000
0010
0000
1000
0000
0100
0000
0010
0000
,
0001
0000
1000
0001
1000
0000
0001
0000
0100
0000
0010
0000
1000
0000
0001
0000
,
1000
MMMM
MMMM
0110
0220
0000
0330
0000
;

//---------------dance-single - Renard----------------
#NOTES:
     dance-single:
     Renard:
     Medium:
     6:
     0.437,0.697,0.110,0.000,0.000:
0000
0000
0000
0000
,
1000
0000
1000
1000
,
0001
0000
0000
0100
,
0010
1000
0100
0010
,
0001
0000
1000
0001
,
0100
0000
0001
0000
1000
0000
0000
0001
,
0000
1000
0000
0000
0000
0000
0001
0000
,
0100
0000
0010
0000
1000
0000
0000
0001
,
0000
1000
0100
1000
,
0001
0000
0010
0100
,
1000
0000
0000
0001
,
0100
0001
1000
0010
,
0100
0000
0001
1000
,
0100
0000
0100
0000
,
0010
0010
0001
0001
,
1001
0000
1001
0000
,
0110
0000
0000
0000
,
0010
0010
0010
0010
,
0010
0010
0010
0010
,
0100
0100
0100
0100
,
0100
0100
0100
0100
,
0001
0001
1000
1000
,
0001
0001
1000
1000
,
0001
1000
0001
1000
,
0110
0000
0000
0000
,
1000
0000
1001
0000
,
0001
0100
0101
0000
,
0001
0000
1001
0000
,
1000
0010
1010
0000
,
1000
0000
1100
0000
,
0001
0010
0011
0000
,
0001
0000
1001
0000
,
0001
0100
0100
0100
,
0010
1000
0010
1000
,
0001
0000
0100
0001
0000
0000
0000
0000
,
0100
0001
0010
0100
,
1000
0000
0001
1000
0000
0000
0001
0000
,
0100
0010
1000
0001
,
1000
0000
0010
1000
0000
0000
0001
0000
,
0100
0001
1000
0100
,
0010
0001
0010
0001
,
0010
0000
0000
0100
,
1000
0000
0000
0010
,
1000
0001
0100
0001
,
0010
0000
0000
0000
0000
0000
0100
1000
,
0100
0000
0000
0000
0000
0000
1000
0001
,
1000
0000
0000
0000
0000
0000
0010
0100
,
0010
0000
1000
0001
1000
0000
0001
0100
,
0001
0000
0000
0000
0000
0001
1000
0001
,
1000
0001
1000
0001
1000
0001
1000
0001
,
1000
0001
1000
0001
1000
0001
1000
0001
,
1000
0001
1000
0001
1000
0001
1000
0001
,
1000
0001
1000
0001
1000
0001
1000
0001
,
1000
0001
1000
0001
1000
0001
1000
0001
,
1000
0001
1000
0001
1000
0001
1000
0001
,
1000
0001
1000
0001
1000
0001
1000
0001
,
1000
0001
1000
0001
1000
0001
1000
0001
,
1000
0000
0000
0001
,
0100
0000
0000
0001
,
0001
1000
1000
0001
,
0001
0100
0010
1000
,
1001
0000
0000
0001
,
1000
0000
0000
0001
,
0010
0100
1000
0100
,
0010
0001
1000
1000
,
0001
0000
0100
0001
,
1000
0000
0001
0010
,
0100
1000
0001
0100
,
0010
0000
0010
1000
,
0001
0100
0001
1000
,
0100
0000
0100
1000
,
0001
0000
0010
0000
0001
0000
0000
1000
,
0000
0001
0100
0010
,
1000
0000
0100
1000
,
0010
0000
0100
0001
,
1000
0001
0100
0010
,
1000
0000
0001
0100
,
0001
0000
0001
0000
,
1000
0000
1000
0001
,
0100
0010
1000
0001
,
0100
0000
0000
0010
,
0100
0000
0000
0100
,
0001
0000
0000
1000
,
0100
0010
0001
0010
,
0100
0000
1000
0000
0001
0000
1000
0001
,
1000
0000
0000
0000
0000
0000
0001
1000
,
0001
0000
0000
1000
,
0001
0100
0010
1000
,
0100
0010
0001
1000
,
0001
0000
0000
1000
0001
0000
0000
0000
;

//---------------dance-single - Renard----------------
#NOTES:
     dance-single:
     Renard:
     Easy:
     3:
     0.305,0.369,0.009,0.000,0.000: // measure 1
0000
0000
0000
0000
,  // measure 2
1000
0000
1000
0001
,  // measure 3
0100
0000
0000
0001
,  // measure 4
0010
0000
0100
0000
,  // measure 5
1000
0000
0001
0100
,  // measure 6
0001
0000
1000
0000
,  // measure 7
0001
0000
0000
0000
,  // measure 8
1000
0000
0001
0000
,  // measure 9
1000
0000
0001
0100
,  // measure 10
0010
0000
1000
0000
,  // measure 11
0001
0000
0000
1000
,  // measure 12
0100
0000
0010
0000
,  // measure 13
0001
0000
1000
0000
,  // measure 14
0001
0000
0010
0000
,  // measure 15
0100
0000
1000
0000
,  // measure 16
0001
0100
0001
1000
,  // measure 17
0001
0000
1000
0000
,  // measure 18
0001
0000
0001
0000
,  // measure 19
0001
0000
0001
0000
,  // measure 20
1000
0000
1000
0000
,  // measure 21
1000
0000
1000
0000
,  // measure 22
0001
0000
0001
0001
,  // measure 23
1000
0000
1000
1000
,  // measure 24
0001
1000
0001
1000
,  // measure 25
0001
1000
0001
1000
,  // measure 26
0010
0000
0010
0000
,  // measure 27
0010
0000
0010
0000
,  // measure 28
0100
0000
0100
0000
,  // measure 29
0100
0000
0100
0000
,  // measure 30
0001
0000
0001
0000
,  // measure 31
0001
0000
0001
0000
,  // measure 32
1000
0000
0001
0000
,  // measure 33
1000
0001
1000
0001
,  // measure 34
0100
0000
0100
0001
,  // measure 35
0100
0000
0100
0000
,  // measure 36
0010
0000
0010
0000
,  // measure 37
1000
0000
1000
0000
,  // measure 38
0100
0000
0100
1000
,  // measure 39
0100
0000
0100
0000
,  // measure 40
1000
0000
1000
0000
,  // measure 41
0001
0000
0001
0000
,  // measure 42
0010
0000
0000
0001
,  // measure 43
1000
0000
0000
0001
,  // measure 44
0100
0010
1000
0001
,  // measure 45
0100
0000
0000
0001
,  // measure 46
1000
0000
0000
0100
,  // measure 47
1000
0000
0000
0001
,  // measure 48
0010
0001
0010
0001
,  // measure 49
0010
0000
0000
0001
,  // measure 50
1000
0001
1000
0001
,  // measure 51
1000
0001
1000
0001
,  // measure 52
1000
0001
1000
0001
,  // measure 53
1000
0001
1000
0001
,  // measure 54
1000
0001
1000
0001
,  // measure 55
1000
0001
1000
0001
,  // measure 56
1000
0001
1000
0001
,  // measure 57
1000
0001
1000
0001
,  // measure 58
1000
0000
0000
0001
,  // measure 59
0100
0000
0000
0001
,  // measure 60
0010
0100
1000
0100
,  // measure 61
0010
0001
0010
0100
,  // measure 62
1000
0000
0000
0001
,  // measure 63
0100
0000
0000
0001
,  // measure 64
1000
0010
1000
0001
,  // measure 65
0100
0001
1000
1000
,  // measure 66
0001
0000
0001
0000
,  // measure 67
1000
0000
0000
1000
,  // measure 68
0100
0000
0100
0000
,  // measure 69
1000
0000
0001
0010
,  // measure 70
0001
0000
0001
0000
,  // measure 71
1000
0000
0000
0000
,  // measure 72
0010
0000
0010
0000
,  // measure 73
0100
0001
1000
0001
,  // measure 74
0100
0000
0100
0000
,  // measure 75
0001
0000
0000
1000
,  // measure 76
0001
0000
1000
0000
,  // measure 77
0010
0000
0100
0001
,  // measure 78
0100
0000
0001
0000
,  // measure 79
1000
0000
0010
1000
,  // measure 80
0001
0100
0001
1000
,  // measure 81
0001
0000
0000
1000
,  // measure 82
0001
0000
0000
0100
,  // measure 83
0010
0000
0000
0010
,  // measure 84
0100
0000
0001
0000
,  // measure 85
1000
0100
0010
0001
,  // measure 86
1000
0000
0000
0001
,  // measure 87
1000
0000
0000
0001
,  // measure 88
0100
0001
1000
0001
,  // measure 89
0010
0001
1000
0001
,  // measure 90
0100
0000
0110
0000
;
