#TITLE:Valentine;
#SUBTITLE:;
#ARTIST:Emoticon;
#TITLETRANSLIT:;
#SUBTITLETRANSLIT:;
#ARTISTTRANSLIT:;
#CREDIT:;
#BANNER:valentine.png;
#BACKGROUND:valentine-bg.png;
#LYRICSPATH:;
#CDTITLE:;
#MUSIC:valentine.ogg;
#OFFSET:0.000;
#SAMPLESTART:20.391;
#SAMPLELENGTH:12.000;
#SELECTABLE:YES;
#BPMS:0.000=200.091;
#STOPS:;
#BGCHANGES:;

//---------------dance-single - Renard----------------
#NOTES:
     dance-single:
     Renard:
     Hard:
     9:
     0.815,0.991,0.556,0.021,0.093:
0000
0000
0000
0000
,
0000
0000
0000
0000
,
0000
0000
0000
0000
,
0000
0000
0000
0000
,
1000
0001
0100
0000
0101
0000
0001
1000
,
0100
0010
0001
0000
1001
0000
0001
0010
,
0001
1000
0100
0000
1100
0000
1000
0001
,
0010
0000
0001
0000
1000
0000
0000
0000
1001
0000
0000
0000
1000
0100
1000
0000
,
0001
0100
0010
0000
0110
0000
0010
1000
,
0100
1000
0001
1000
0001
1000
0001
1000
,
0001
0100
0001
0000
0101
0000
0001
0010
,
0100
1000
0001
1000
0001
1000
0001
0000
,
1001
1000
0010
0000
1010
0000
1000
0100
,
0010
0001
0010
0000
0011
0000
0001
0010
,
0100
1000
0001
1000
0100
1000
0010
1000
,
0001
0000
0100
0000
0001
0000
0010
0000
0001
0000
1000
0000
0001
0100
0001
0000
,
1001
1100
0110
0011
,
0001
0010
0100
1000
0010
0001
0010
0100
,
1000
0100
0001
0010
0100
1000
0100
0001
,
0100
0010
0001
0010
1000
0010
0001
0010
,
0100
1000
0010
0100
0001
0100
1000
0100
,
1000
0100
0010
0100
0010
0100
0010
0001
,
0010
0001
0010
1000
0010
1000
0010
1000
,
0100
1000
0100
1000
0100
0010
0001
0010
,
0000
0010
0100
1000
0001
0100
0010
0000
,
0010
1000
0100
0010
0001
0010
1000
0010
,
0001
0010
0001
0010
1000
0010
0100
0010
,
0001
0010
0001
0100
1000
0100
0010
0100
,
0001
0100
0001
0100
1000
0100
0010
0100
,
0010
1000
0010
0001
0010
0100
1000
0100
,
0001
0010
0100
0010
1000
0010
0100
0010
,
0001
0010
0100
1000
0100
0001
0100
0010
,
0001
0010
1000
0010
0001
1000
0010
1000
,
0010
1000
0100
0010
0001
0010
0000
0000
,
0011
0110
1100
1001
,
1000
0010
0100
0001
0010
0100
0000
0000
,
0110
1100
0101
0110
,
0110
0010
0100
1000
0010
0100
0000
0000
,
0101
0110
1001
0000
,
1100
1000
0100
0010
0001
0010
0000
0000
,
0011
0110
1100
1001
,
0001
0100
0010
1000
0100
1000
0001
0010
,
0100
0110
1100
1001
,
1001
0000
0001
0100
1000
0100
0001
0100
,
0001
1001
1100
0110
,
0011
0000
0010
0001
0010
1000
0010
0000
,
1010
0011
0101
1100
,
1000
0100
0001
0000
0001
0100
1000
0000
,
1000
0100
0001
0010
1000
0010
0001
0000
,
1001
0000
0001
0100
0110
0000
0010
1000
,
0100
1000
0001
0000
1001
0000
0001
1000
,
1100
0000
0100
0010
0110
0000
0010
0001
,
0010
0100
1000
0000
1001
0000
1000
0001
,
0100
0000
0001
0100
0101
0000
0001
0100
,
0010
1000
0010
0000
1010
0000
0001
0000
,
2002
0000
0000
0000
,
0000
0000
0000
0000
,
0000
0000
0000
0000
0000
0000
0000
3003
,
0001
0100
1000
0001
0010
1000
1001
0000
,
0001
1000
0100
0010
0001
0010
1000
0010
,
0001
0010
0100
1000
0100
0001
0100
1000
,
0010
0001
0010
0100
1000
0100
0001
0100
,
0010
1000
0100
1000
0001
0010
0001
0100
,
0001
1000
0100
0010
0001
0010
1000
0010
,
0100
0001
0100
1000
0100
1000
0001
1000
,
0001
1000
0010
1000
0010
1000
0100
1000
,
0100
0010
0011
0000
0001
0010
0110
0000
,
0100
1000
0001
0100
1000
0100
0010
0001
,
0010
0100
1000
0100
0001
0010
0100
0010
,
0001
0010
1000
0010
0100
0001
0100
1000
,
0001
1000
0010
1000
0010
0100
0010
0001
,
0010
1000
0001
0100
1000
0100
0010
0100
,
0001
1000
0100
0001
1000
0010
0001
0010
,
0100
0010
0100
1000
0100
0001
0100
0010
,
0001
0010
1000
0010
0001
1000
0001
0100
,
0001
0100
0001
0100
0001
0100
0001
0100
0001
0100
0001
0100
0001
0100
0001
0100
,
0001
0100
0001
0100
0001
0100
0001
0100
0001
0100
0001
0100
0001
0100
0001
0100
,
0001
0000
0000
0000
;

//---------------dance-single - Renard----------------
#NOTES:
     dance-single:
     Renard:
     Medium:
     7:
     0.438,0.515,0.010,0.000,0.000:
0000
0000
0000
0000
,
0000
0000
0000
0000
,
0000
0000
0000
0000
,
0000
0000
0000
0000
,
1000
0000
0001
0000
,
0000
0100
0000
0000
0010
0000
0000
0000
,
1000
0000
0010
0000
,
0000
0100
0000
0000
0001
0000
0000
0000
,
1000
0100
1000
0100
,
1000
0000
0001
0000
1000
0001
1000
0000
,
0001
0100
0001
1000
,
0001
0000
1000
0000
0100
1000
0100
0000
,
1000
0001
0010
0001
,
1000
0000
0010
0000
1000
0001
1000
0000
,
0001
0100
0010
1000
,
0001
0010
0100
1000
,
1001
0000
0000
0000
,
1000
0100
0010
0001
,
1000
0000
0001
0100
0001
0000
1000
0100
,
1000
0000
0000
0000
0001
0000
0010
0001
,
0000
1000
0000
0010
0100
0000
0001
0100
,
0001
0001
0010
0010
,
0100
0100
1000
1000
,
0001
1000
0001
1000
0000
0001
0000
0100
,
0000
0010
0000
1000
0000
0001
1000
0000
,
0100
0000
0000
0010
0000
0000
0001
0000
,
0010
0000
0100
0000
,
1000
0000
0000
0010
0000
0000
1000
0000
,
0001
0100
0010
1000
,
0100
0000
1000
0000
,
0001
0000
0010
0000
,
0001
0000
1000
0010
0000
0100
0000
0001
,
0000
1000
0000
0100
0000
0010
0001
0000
,
0010
0000
0100
0000
1000
0000
0001
0010
,
0001
1000
0010
0100
,
0001
0100
0010
1000
,
0001
0001
0010
0010
,
0100
0000
1000
0000
0100
1000
0100
0000
,
1000
0100
0010
0001
,
1000
0010
0100
0001
,
1000
0001
1000
0010
,
1000
0000
0100
0000
0010
0001
0010
0000
,
0100
1000
1000
0001
,
0100
0000
0100
0000
0010
0000
1000
0010
,
1000
0001
0100
0010
,
1000
0000
1000
0000
0100
1000
0100
0000
,
1000
0100
0010
0001
,
1000
0000
0001
0000
0100
0000
0010
1000
,
0010
1000
0001
0010
,
0100
0010
0100
0010
,
0001
0010
0001
0010
,
0100
0010
0100
0010
,
0100
1000
0100
1000
,
0010
1000
0010
1000
,
0001
0100
0001
0100
,
0001
0000
0000
0000
,
0000
0000
0000
0000
,
0000
0000
0000
0000
,
0001
1000
0001
1000
0001
1000
0001
0000
,
1000
0000
0001
0000
0100
0000
0010
1000
,
0010
1000
0010
0100
,
0001
0000
0010
0000
0100
0000
1000
0001
,
1000
0001
0010
0100
,
1000
0000
0001
0000
0100
0000
0010
0100
,
0010
1000
0010
0100
,
0001
0000
1000
0000
0100
0000
1000
0001
,
1000
0001
0100
0010
,
1000
1000
0010
0100
,
0001
0100
0001
0010
,
0100
1000
0001
0010
,
0001
0010
0001
0000
0010
0000
0001
0000
,
1000
0000
0100
1000
0100
0000
1000
0000
,
0010
0100
0010
1000
,
0001
0100
0010
0100
0000
0010
0000
1000
,
0000
0010
0000
0100
0000
0001
1000
0000
,
0100
1000
0100
1000
0100
1000
0100
1000
,
0100
1000
0100
1000
0100
1000
0100
1000
,
0100
0000
0000
0000
;

//---------------dance-single - Renard----------------
#NOTES:
     dance-single:
     Renard:
     Easy:
     4:
     0.366,0.515,0.062,0.021,0.000: // measure 1
0000
0000
0000
0000
,  // measure 2
0000
0000
0000
0000
,  // measure 3
0000
0000
0000
0000
,  // measure 4
0000
0000
0000
0000
,  // measure 5
0000
0000
0000
0000
,  // measure 6
0000
0000
0000
0000
,  // measure 7
0000
0000
0000
0000
,  // measure 8
0000
0000
0000
0000
,  // measure 9
1000
1000
0001
0001
,  // measure 10
0100
0100
0010
0010
,  // measure 11
1000
1000
0100
0100
,  // measure 12
0010
0010
0001
0001
,  // measure 13
1000
0001
1000
0001
,  // measure 14
0100
0010
0100
0010
,  // measure 15
1000
0010
1000
0010
,  // measure 16
0100
0001
0100
0001
,  // measure 17
0011
0000
0000
0000
,  // measure 18
0010
0000
0000
0100
0000
0000
1000
0000
,  // measure 19
0010
0100
0001
0010
,  // measure 20
0001
0000
0000
0000
1000
0000
0000
0001
,  // measure 21
0000
0100
0000
0000
0001
0000
1000
0000
,  // measure 22
0100
0100
0010
0010
,  // measure 23
0001
0001
1000
0000
,  // measure 24
0010
0000
0000
1000
0000
0000
0000
0001
,  // measure 25
0000
0000
0000
0100
0000
0000
0001
0000
,  // measure 26
1000
0000
0000
0100
0000
0000
0010
0000
,  // measure 27
0001
0000
0010
0000
,  // measure 28
0100
0000
0000
0000
1000
0000
0000
0001
,  // measure 29
0000
0100
0000
0000
0001
0000
1000
0000
,  // measure 30
0100
0000
0010
0000
,  // measure 31
0001
0000
1000
0000
,  // measure 32
0010
0000
0000
0100
0000
0000
0000
0001
,  // measure 33
0000
0000
0000
1000
0000
0000
0100
0000
,  // measure 34
1000
0100
1000
0100
,  // measure 35
0010
0010
0001
0001
,  // measure 36
1000
0010
1000
0010
,  // measure 37
0100
0100
0001
0001
,  // measure 38
1000
0001
0010
0100
,  // measure 39
1000
0100
1000
0100
,  // measure 40
0010
0001
0010
0001
,  // measure 41
1000
1000
0010
0000
,  // measure 42
0100
0010
0100
0010
,  // measure 43
1000
1000
0001
0001
,  // measure 44
0100
0001
0010
0100
,  // measure 45
1000
1000
0001
0001
,  // measure 46
0010
0001
1000
0010
,  // measure 47
0100
0001
0100
0000
,  // measure 48
0001
1000
0100
0010
,  // measure 49
0001
1000
0001
0100
,  // measure 50
0010
0000
0010
0000
,  // measure 51
1000
0100
1100
0000
,  // measure 52
0100
0000
0010
0000
,  // measure 53
0001
0100
0101
0000
,  // measure 54
0001
0000
0100
0000
,  // measure 55
0010
1000
1010
0000
,  // measure 56
2002
0000
0000
0000
,  // measure 57
0000
0000
0000
0000
,  // measure 58
0000
0000
0000
3003
,  // measure 59
1000
1000
1000
1001
,  // measure 60
0001
0100
0010
1000
,  // measure 61
0100
0010
0001
0010
,  // measure 62
0100
1000
0010
0100
,  // measure 63
0001
0010
0100
1000
,  // measure 64
0100
0010
0001
0100
,  // measure 65
0010
1000
0100
0010
,  // measure 66
0100
1000
0001
0010
,  // measure 67
0100
0010
0001
1000
,  // measure 68
0001
0100
0001
0100
,  // measure 69
0010
0100
0010
0100
,  // measure 70
0010
1000
0010
1000
,  // measure 71
0100
1000
0100
1000
,  // measure 72
0001
0010
0001
1000
,  // measure 73
0001
0100
0010
0100
,  // measure 74
0010
1000
0010
0100
,  // measure 75
0001
0010
0001
1000
,  // measure 76
0001
1000
0001
1000
0001
1000
0001
1000
,  // measure 77
0001
1000
0001
1000
0001
1000
0001
1000
,  // measure 78
0001
0000
0000
0000
;
