#TITLE:VGCats Theme;
#SUBTITLE:;
#ARTIST:Kitsune² and Emoticon;
#TITLETRANSLIT:;
#SUBTITLETRANSLIT:;
#ARTISTTRANSLIT:;
#CREDIT:;
#BANNER:vgcats.png;
#BACKGROUND:vgcats-bg.png;
#LYRICSPATH:;
#CDTITLE:;
#MUSIC:vgcats.ogg;
#OFFSET:0.000;
#SAMPLESTART:59.529;
#SAMPLELENGTH:12.000;
#SELECTABLE:YES;
#BPMS:0.000=165.045;
#STOPS:;
#BGCHANGES:;

//---------------dance-single - Renard----------------
#NOTES:
     dance-single:
     Renard:
     Challenge:
     10:
     0.861,0.856,0.338,0.047,0.717:
0000
0000
0000
0000
,
0000
0000
0000
0000
,
0000
0000
0000
0000
,
0000
0000
0000
0000
,
1001
0000
0100
0000
0001
1000
0000
1100
0000
1010
0000
1001
0000
0101
0000
0000
,
0001
0000
1000
0000
0100
1000
0000
1010
0000
1001
0000
1100
0000
1001
0000
0000
,
0001
0000
0100
0000
0010
1000
0000
1001
0000
0101
0000
1001
0000
1010
0000
0000
,
1000
0001
0100
0010
1000
0000
0001
1000
0100
0000
0010
0001
1000
0000
0001
0000
,
0001
1000
0100
0010
0001
0010
0100
1000
0001
0000
0100
0000
0010
0000
1000
0000
,
0100
1000
0001
0010
0100
1000
0001
0100
0010
0000
1000
0000
0100
0000
0010
0000
,
0100
1000
0010
0100
0001
0010
0100
1000
0001
0000
0100
0000
0010
0000
1000
0000
,
0100
1000
0001
0010
0001
0000
0000
0000
1000
0001
0100
0010
1000
0000
0000
0000
,
0100
0010
0001
0010
0100
1000
0001
0100
0010
0000
1000
0000
0100
0000
0010
0000
,
0100
1000
0001
0010
0100
1000
0001
0100
0010
0000
1000
0000
0100
0000
1000
0000
,
0001
1000
0010
1000
0001
1000
0100
0010
0001
0000
0010
0000
0100
0000
1000
0000
,
0001
0100
0010
0000
1000
0000
0000
0000
0001
1000
0100
0000
1001
0000
0000
0000
,
0001
1000
0100
0010
0001
0000
0000
0000
0010
0000
0100
0000
1000
0000
0010
0000
,
0100
0000
0001
0000
0100
0000
0010
1000
0000
0010
1000
0000
0010
0000
1000
0000
,
0100
0010
0001
0010
0100
1000
0001
0010
,
0100
0000
1000
0000
0001
0000
0010
0001
0000
1000
0001
0000
0100
0000
0001
0000
,
0100
0010
1000
0100
0010
0000
0001
0000
0010
0000
0100
0000
1000
0000
0001
0000
,
0100
0000
0010
0000
1000
0000
0001
1000
0000
0100
1000
0000
0001
0000
0010
0000
,
0100
0000
1000
0000
0001
0000
0010
0001
0000
1000
0010
0000
0100
0000
0001
0000
,
1000
0001
1000
0001
1000
0000
0001
1000
0001
0000
1000
0000
0001
0000
1000
0000
,
0001
0010
0100
1000
0001
0000
0000
0000
0010
0000
0100
0000
1000
0000
0010
1000
,
0010
0000
1000
0000
0010
0000
0100
0000
0001
0000
0010
0000
0001
0000
1000
0001
,
1000
0000
0001
0000
0100
0000
0010
0000
1000
0000
0001
0000
0010
0000
0100
1000
,
0000
0001
1000
0000
0001
0000
0100
0001
0000
1000
0010
0000
1000
0000
0001
0000
,
1000
0100
0010
0001
0010
0000
0100
0000
1000
0000
0001
0000
0100
0000
0010
0000
,
1000
0000
0010
0000
0100
0000
0001
1000
0000
0100
0010
0000
0001
0000
0010
0100
,
1000
0000
0001
0000
1000
0000
0010
1000
0000
0001
1000
0000
0100
0000
1000
0001
,
1000
0100
0010
0001
0010
0000
0001
0010
0100
0000
1000
0000
0001
0000
1000
0000
,
0001
0000
0100
1000
0000
0010
0000
0001
,
0100
1000
0200
0002
0000
0303
0111
0000
,
0001
0000
0000
0001
0100
0000
0010
0000
1000
0000
0000
0100
1000
0000
0001
0000
,
0010
0100
1000
0000
0001
0000
0010
0000
0001
0000
1001
0000
1001
0000
0000
0000
,
0001
0000
0000
0001
0100
0000
0010
0000
1000
0000
0100
0000
0010
0000
0001
0000
,
1000
0001
1000
0000
0001
1000
0001
0000
0000
0000
0001
0000
0101
0000
0000
0000
,
0001
0000
0000
0001
1000
0000
0100
0000
1000
0000
0001
0000
0010
0000
0001
0000
,
1000
0001
0100
0000
0001
0000
0010
0000
0000
0000
1001
0000
1100
0000
0000
0000
,
1001
0000
0000
0000
0001
0100
0010
1000
0100
0000
0010
0000
0001
0000
0010
0000
,
0100
0000
1000
0000
0001
0100
0010
1000
0100
0000
0010
0000
0001
0000
0010
0000
,
0100
0000
1000
0000
0001
0010
0100
1000
0001
0000
0100
0000
0010
0000
1000
0000
,
0100
1000
0100
1000
0100
0000
0000
0000
1000
0001
1000
0001
1000
0000
0000
0000
,
0001
0000
0100
0000
0001
0000
0010
0000
0100
1000
0001
0010
0100
0000
1000
0000
,
0001
0000
0100
0000
0010
0000
1000
0000
0100
0010
0001
0010
0100
0000
1000
0000
,
0001
0100
0010
1000
0001
0000
1000
0000
0100
0000
0010
0000
0001
0000
0010
0000
,
0011
0000
0110
0000
1100
0000
0100
1000
0000
0001
0000
0100
0001
1000
0001
0000
,
0101
0000
0000
0001
0100
0000
0010
0000
1000
0000
0100
0000
1000
0000
0001
0000
,
1000
0001
1000
0000
0001
0000
0100
0000
0001
0000
1000
0000
1100
0000
0000
0000
,
0100
0000
0000
0100
1000
0000
0010
0000
1000
0000
0001
0000
1000
0000
0100
0000
,
1000
0100
1000
0000
0001
0000
0010
0000
0001
0000
1001
0000
1001
0000
0000
0000
,
0001
0000
0000
0001
0100
0000
0010
0000
1000
0000
0100
0000
0010
0000
0001
0000
,
0010
0100
1000
0001
0010
0000
0100
0000
0000
0000
1000
0000
0100
0000
0000
0000
,
1000
0000
0000
1000
0010
0000
0100
0000
0001
0000
1000
0000
0001
0000
1000
0000
,
0100
0010
0001
0010
0100
0000
1000
0000
0001
0010
0100
1000
0001
0000
1000
0000
,
2002
0000
3003
0000
;

//---------------dance-single - Renard----------------
#NOTES:
     dance-single:
     Renard:
     Hard:
     8:
     0.574,0.560,0.245,0.023,0.117:
0000
0000
0000
0000
,
0000
0000
0000
0000
,
0000
0000
0000
0000
,
0000
0000
0000
0000
,
1000
0000
0100
0000
0010
0000
0000
0001
0000
0010
0000
0100
0000
1000
0000
0000
,
0001
0000
0010
0000
0100
0000
0000
1000
0000
0100
0000
0010
0000
0001
0000
0000
,
1000
0000
0100
0000
0010
0000
0000
0001
0000
0010
0000
0100
0000
1000
0000
0000
,
0100
0000
0010
0000
0001
0000
0000
1000
0000
0100
0000
0010
0000
0001
0000
0000
,
1000
0010
0100
0001
0100
0010
1000
0000
,
0010
1000
0100
0010
0001
0000
0011
0000
,
0001
0010
0100
1000
0001
0100
0010
0000
,
1000
0010
0100
0001
1000
0000
1001
0000
,
1000
0100
0010
0100
1000
0000
1100
0000
,
0001
0010
0100
0010
0001
0000
0011
0000
,
1000
0010
0100
0010
1000
0000
1010
0000
,
0001
0100
0010
0100
0001
0000
0101
0000
,
0001
1000
0100
0000
0000
1000
0001
0100
,
0000
0110
0000
1001
0000
1000
0100
0010
,
0001
0000
0010
0000
0100
1000
0001
0100
,
0000
0010
1000
0000
0000
0000
0000
0000
,
0001
0100
0001
0100
0001
0000
0000
0000
0000
0000
0100
0000
0010
0000
1000
0000
,
0000
1100
0000
0011
0000
0010
0100
1000
,
0000
0001
0100
0000
0010
1000
0010
0000
,
0100
0001
0100
0000
0001
1000
0010
0000
,
1000
0000
1000
0100
0010
0001
0010
0000
,
0100
0000
0100
1000
0010
0100
0001
0000
,
0010
0000
0010
0001
0010
0100
1000
0000
,
0001
0000
0001
0100
0010
1000
0010
0000
,
0100
0001
0100
0001
0100
0000
0000
0000
0100
0000
0010
0000
1000
0000
0100
0000
,
0000
0100
0000
1000
0000
0001
0010
0100
,
0000
1100
0000
0000
1000
0100
0010
0001
,
0000
0001
1000
0000
0001
0100
0010
0000
,
1000
0000
0010
0100
0000
0001
0000
0100
,
0010
1000
0001
1000
0000
0000
1001
0000
,
1000
0100
0010
0001
0000
0001
0000
0010
,
0100
1000
0001
0100
0000
0010
0010
0000
,
1000
0010
0100
0001
0000
0100
0000
0010
,
1000
0001
0100
0010
0000
0000
1010
0000
,
1000
0100
0010
0001
0000
0001
0000
0010
,
0100
1000
0001
0100
0000
0010
1000
0000
,
0010
1000
0001
0100
0010
1000
0100
0010
,
0001
0100
0010
1000
0100
0010
0011
0000
,
0001
0010
0100
1000
0001
0100
0010
1000
,
0100
0010
0100
1000
0001
1000
1100
0000
,
1000
0001
0010
0100
1000
0001
0100
0010
,
1000
0100
0010
0001
1000
0010
1010
0000
,
1000
0010
0100
0001
0010
0100
1000
0100
,
0010
0001
1000
0010
0100
0001
0101
0000
,
0100
0000
0001
0100
0000
0010
0000
1000
,
0100
0010
0001
0010
0001
0000
0011
0000
,
0010
0000
0100
1000
0000
0001
0000
0100
,
0010
1000
0100
0010
0100
0000
0110
0000
,
0100
1000
0010
0100
0000
0001
0000
1000
,
0100
0010
0001
1000
0001
0000
1001
0000
,
0001
0000
0100
0010
0000
1000
0100
0010
,
0001
0010
0100
1000
0010
0100
0001
0000
,
2002
0000
3003
0000
;

//---------------dance-single - Renard----------------
#NOTES:
     dance-single:
     Renard:
     Medium:
     5:
     0.331,0.424,0.012,0.000,0.000:
0000
0000
0000
0000
,
0000
0000
0000
0000
,
0000
0000
0000
0000
,
0000
0000
0000
0000
,
1000
0000
0100
0000
1000
0100
1000
0000
,
0001
0000
0010
0000
0001
0010
0001
0000
,
1000
0000
0010
0000
1000
0010
1000
0000
,
0001
0100
0001
0100
0001
0100
0001
0000
,
0100
0010
1000
0001
,
0100
0000
0001
0000
1000
0001
1000
0001
,
1000
0100
1000
0001
,
0010
0000
0001
0000
1000
0001
1000
0001
,
1000
0001
0100
0010
,
1000
0000
0001
0000
0010
0100
0010
0100
,
0010
0100
1000
0010
,
0100
0000
0001
0000
0010
0100
0010
0100
,
0010
0100
1000
0010
,
0100
0001
0100
0010
,
1000
1000
0000
0010
,
0100
0100
0000
0000
,
0001
0010
0100
1000
,
0100
0010
0001
1000
,
0001
0001
0000
0100
,
0010
0010
0000
0000
,
1000
0010
0100
0001
,
0010
0100
1000
0001
,
0010
0010
0001
0010
,
0100
0100
1000
0010
,
0100
0001
0000
0100
,
0010
1000
0100
0010
,
0100
0100
1000
0010
,
0100
0100
0010
0000
,
1000
0000
0000
0010
0000
1000
0000
0000
,
0001
0000
0100
0001
0000
0000
0000
0000
,
1000
0000
0000
0100
0000
0010
0000
0000
,
0001
0000
0010
0100
0000
0000
1000
0000
,
0001
0000
0000
0010
0000
0001
0000
0000
,
1000
0000
0010
1000
0000
0000
0000
0000
,
0001
0000
0000
0100
0000
0010
0000
0000
,
1000
0000
0100
1000
0000
0001
0010
0000
,
0001
0001
1000
1000
,
0010
0100
0010
0000
,
0100
0100
0001
0000
,
1000
0000
0100
0000
,
0010
0000
0001
0000
,
1000
0010
0100
0001
,
1000
1000
0001
0000
,
0010
0000
0100
0000
,
1000
0000
0000
0100
0000
1000
0000
0000
,
0001
0000
0010
0001
0000
0000
0000
0000
,
1000
0000
0000
0010
0000
0100
0000
0000
,
0001
0000
0100
0010
0000
1000
0010
0000
,
1000
0000
0000
0100
0000
0010
0000
0000
,
0001
0000
0010
0001
0000
0000
0000
0000
,
0010
0000
0000
0100
0000
1000
0000
0000
,
0010
0100
0001
0100
0000
0010
1000
0000
,
1001
0000
0000
0000
;

//---------------dance-single - Renard----------------
#NOTES:
     dance-single:
     Renard:
     Easy:
     3:
     0.331,0.424,0.221,0.000,0.000: // measure 1
0000
0000
0000
0000
,  // measure 2
0000
0000
0000
0000
,  // measure 3
0000
0000
0000
0000
,  // measure 4
0000
0000
0000
0000
,  // measure 5
0001
0010
0001
0011
,  // measure 6
1000
0100
1000
1100
,  // measure 7
0001
0100
0001
0101
,  // measure 8
1000
1010
1010
1010
,  // measure 9
0010
0100
0001
1000
,  // measure 10
0010
1000
0001
1001
,  // measure 11
1001
0010
0001
1000
,  // measure 12
0100
1000
0001
1001
,  // measure 13
1001
1000
0010
0100
,  // measure 14
0001
1000
0100
0110
,  // measure 15
0110
0010
0001
0100
,  // measure 16
0010
1000
0100
0110
,  // measure 17
0110
0010
0001
0100
,  // measure 18
0010
1000
0010
0100
,  // measure 19
0001
0001
0000
0100
,  // measure 20
0010
0010
0000
0000
,  // measure 21
1000
0100
0010
0001
,  // measure 22
0010
0100
1000
0001
,  // measure 23
1000
1000
0000
0010
,  // measure 24
0100
0100
0000
0000
,  // measure 25
0001
0100
0010
1000
,  // measure 26
0100
0010
0001
1000
,  // measure 27
0100
0100
1000
0100
,  // measure 28
0010
0010
0001
0100
,  // measure 29
0010
1000
0000
0010
,  // measure 30
0100
0001
0010
0100
,  // measure 31
0010
0010
0001
0100
,  // measure 32
0010
0010
0100
0000
,  // measure 33
0001
0000
0100
0001
,  // measure 34
1000
0010
1000
0000
,  // measure 35
0001
0000
0010
0100
,  // measure 36
1000
0100
0010
0001
,  // measure 37
1000
0000
0100
1000
,  // measure 38
0001
0100
0001
0000
,  // measure 39
1000
0000
0010
0100
,  // measure 40
0001
0010
0001
1100
,  // measure 41
1000
1000
0001
0001
,  // measure 42
0100
0010
0100
0000
,  // measure 43
0010
0010
1000
0000
,  // measure 44
0001
0000
0010
0000
,  // measure 45
0100
0000
1000
0000
,  // measure 46
0001
0100
0010
1000
,  // measure 47
0001
0001
1000
0000
,  // measure 48
0100
0000
0010
0000
,  // measure 49
0001
0000
0010
0001
,  // measure 50
1000
0100
1000
0000
,  // measure 51
0001
0000
0100
0010
,  // measure 52
1000
0010
0100
0101
,  // measure 53
0001
0000
0010
0100
,  // measure 54
1000
0100
1000
0000
,  // measure 55
0100
0000
0010
0001
,  // measure 56
0100
1010
0010
0101
,  // measure 57
1001
0000
0000
0000
;
