#TITLE:Ultrawerk;
#SUBTITLE:;
#ARTIST:Kettu;
#TITLETRANSLIT:;
#SUBTITLETRANSLIT:;
#ARTISTTRANSLIT:;
#CREDIT:;
#BANNER:ultra.png;
#BACKGROUND:ultra-bg.png;
#LYRICSPATH:;
#CDTITLE:;
#MUSIC:ultra.ogg;
#OFFSET:0.000;
#SAMPLESTART:12.374;
#SAMPLELENGTH:12.000;
#SELECTABLE:YES;
#BPMS:0.000=155.000;
#STOPS:223.750=1.548
;
#BGCHANGES:;

//---------------dance-single - Renard----------------
#NOTES:
     dance-single:
     Renard:
     Challenge:
     10:
     0.799,0.739,0.178,0.025,1.000:
0000
0000
0000
0000
,
0000
0000
0000
0000
,
0000
0000
0000
0000
,
0000
0000
0000
0000
,
1000
0000
0001
0000
0100
0010
0000
1000
0010
0000
0100
0000
0001
0010
0000
0100
,
1000
0000
0001
0000
0100
0010
0000
1000
0000
0000
1000
0000
0001
0100
0000
0001
,
1000
0000
0100
0000
0010
0001
0000
0010
0100
0000
1000
0000
0001
0100
0000
0000
,
0010
0000
1000
0000
0001
0000
0100
0010
1000
0000
0001
0000
1001
0000
0000
0000
,
1000
0001
0000
1000
0000
0010
0100
0000
0001
0100
0000
0001
1000
0000
0100
1000
,
0001
0010
0000
0001
0000
0100
0001
0000
1000
0010
0000
1000
0001
0000
0100
0001
,
1000
0010
0000
0100
0000
0001
1000
0000
0001
0100
0000
0010
1000
0000
0001
0100
,
0001
1000
0000
0100
1000
0000
0001
0010
0100
1000
0000
0001
0010
0000
0001
1000
,
0001
1000
0000
0001
0000
0100
0010
0000
1000
0010
0000
1000
0001
0000
0010
0001
,
1000
0100
0000
1000
0000
0010
1000
0000
0001
0100
0000
0001
1000
0000
0010
1000
,
0001
0100
0000
0010
0000
1000
0001
0000
1000
0010
0000
0100
0001
0000
1000
0010
,
1000
0001
0000
0010
0001
0000
1000
0100
0010
0001
0000
1000
0100
0000
1000
0001
,
1000
0000
0100
0000
1100
0000
0000
0100
0010
0000
0001
0000
1000
0000
0001
0000
,
0100
0000
0010
0000
0110
0000
0000
0010
0100
0000
0001
0000
0010
0000
0001
0000
,
1000
0001
0101
0000
0001
0100
0010
0000
,
1000
0000
0100
0000
0010
0000
0001
0000
0010
0000
0001
1000
0001
0000
1000
0000
,
0001
0100
0000
0010
0000
1000
0010
0000
0100
0000
0001
0000
0010
0000
0100
0000
,
1000
0001
0000
1001
0000
0001
1000
0000
0010
0000
0100
0000
0001
0000
0010
0000
,
0100
0010
0000
0110
0000
0100
1000
0000
0001
0100
0000
0010
1000
0000
0001
0000
,
1000
0000
0001
0000
1001
0000
0000
0001
0100
0000
0010
0000
1001
0000
0000
0000
,
0001
0000
0000
0100
0010
0000
0000
1000
0010
0000
0000
1000
0100
0000
0010
0000
,
0001
0000
0010
0001
0100
0000
0001
0000
0100
0000
0000
0100
0010
0000
0000
0000
,
1000
0000
0000
0100
0010
0000
0000
0010
0001
0000
0000
1000
0001
0000
1000
0000
,
0001
0000
0100
0001
0100
0000
0001
0000
0100
0000
0000
0100
0010
0000
0000
0000
,
1000
0000
0000
1000
0100
0000
0000
0100
0010
0000
0000
0010
0001
0000
0000
0100
,
0001
0000
0100
0001
0100
0000
0010
0000
1000
0000
0000
1000
0010
0000
0000
0010
,
1000
0000
0000
1000
0100
0000
0000
0100
0010
0000
0000
0010
0001
0000
0000
0000
,
1000
0000
0001
0100
0001
0000
0100
0000
0010
0000
0000
0010
1000
0000
0000
0000
,
0001
0000
0000
0000
0000
0000
0100
0000
0001
0000
0100
0000
0001
0000
0000
0000
0000
0000
0000
0000
0000
0001
0000
0000
0100
0000
0000
0000
0000
0000
0000
0000
0000
0100
0000
0000
1000
0000
0000
0000
0000
0000
0000
0000
0000
1000
0000
0000
,
0010
0000
0000
0010
0001
0000
0000
0001
0100
0000
0001
0100
0001
0000
0100
0000
,
0010
0000
0000
0010
1000
0000
0000
1000
0100
0000
0000
0100
0001
0000
0000
0001
,
0010
0000
0000
0010
1000
0000
0000
1000
0100
0000
0100
1000
0100
0000
1000
0000
,
0010
0000
0000
0010
0100
0000
0000
0100
0001
0000
0000
0001
0010
0000
0000
0010
,
1000
0000
0000
1000
0100
0000
0000
0100
1000
0000
0000
1000
0010
0000
0000
0010
,
0100
0000
0000
0100
0001
0000
0000
0001
0100
0000
0000
0100
0010
0000
0000
0010
,
1000
0000
0001
0100
0001
0000
0100
0000
0010
0000
1000
0000
1001
0000
0000
0000
,
1000
0100
0010
0001
0010
0100
1000
0001
,
0100
0010
0000
1000
0010
0000
0100
0000
0001
0100
0000
0010
0000
1000
0001
0000
,
0100
0010
1000
0100
0010
0001
0010
0100
,
1000
0001
0000
0010
0100
0000
1000
0000
0001
0100
0000
0010
0000
1000
0001
0000
,
0001
0010
0100
1000
0100
0010
0001
1000
,
0010
0100
0000
0001
0100
0000
0010
0000
1000
0010
0000
0100
0000
0001
1000
0000
,
0010
0100
0001
0010
0100
1000
0100
0010
,
0001
1000
0000
0100
0010
0000
0001
0000
1000
0010
0000
0100
0000
0001
0100
0000
,
0001
0100
0010
0000
0110
0000
0000
0000
1000
0000
0000
0000
0110
0000
0000
0000
,
1000
0010
0100
0000
0110
0000
0000
0000
0001
0000
0000
0000
0110
0000
0000
0000
,
1000
0100
0010
0000
0110
0000
0000
0000
0001
0000
0000
0000
0110
0000
0000
0000
,
0001
0010
0100
0000
0110
0000
0000
0000
1000
0000
0000
0000
0110
0000
0000
0000
,
1000
0001
0000
1000
0000
0001
0100
0000
0001
0000
1000
0000
1001
0000
0000
0000
,
1000
0100
0000
1000
0000
0001
0100
0000
0001
0000
1000
0000
1001
0000
0000
0000
,
1000
0100
0000
0010
0000
0001
1000
0000
0001
0000
1000
0000
1001
0000
0000
0000
,
0001
0000
0000
0000
0010
0000
0000
0000
1100
0000
0000
0000
0010
0000
0000
0000
0001
0000
0100
0000
0010
0000
0000
0000
1000
0000
0001
0000
1000
0000
0002
0003
,
0001
1000
0000
0001
0000
0100
0010
0000
1000
0010
0000
1000
0001
0000
0010
0001
,
1000
0100
0000
1000
0000
0010
1000
0000
0001
0100
0000
0001
1000
0000
0010
1000
,
0001
0100
0000
0010
0000
1000
0001
0000
1000
0010
0000
0100
0001
0000
1000
0010
,
1000
0001
0000
0010
0001
0000
1000
0100
0010
0001
0000
1000
0100
0000
1000
0001
,
1000
0001
0000
1000
0000
0010
0100
0000
0001
0100
0000
0001
1000
0000
0100
1000
,
0001
0010
0000
0001
0000
0100
0001
0000
1000
0010
0000
1000
0001
0000
0100
0001
,
1000
0010
0000
0100
0000
0001
1000
0000
0001
0100
0000
0010
1000
0000
0001
0100
,
0001
1000
0000
0100
1000
0000
0001
0010
0100
1000
0000
0001
0010
0000
0001
0000
,
1000
0001
0000
1000
0000
0010
0100
0000
0001
0100
0000
0001
1000
0000
0100
1000
,
0001
0010
0000
0001
0000
0100
0001
0000
1000
0010
0000
1000
0001
0000
0100
0001
,
1000
0010
0000
0100
0000
0001
1000
0000
0001
0100
0000
0010
1000
0000
0001
0100
,
0001
1000
0000
0100
1000
0000
0001
0010
0100
1000
0000
0001
0010
0000
0001
1000
,
0001
1000
0000
0001
0000
0100
0010
0000
1000
0010
0000
1000
0001
0000
0010
0001
,
1000
0100
0000
1000
0000
0010
1000
0000
0001
0100
0000
0001
1000
0000
0010
1000
,
0001
0100
0000
0010
0000
1000
0001
0000
1000
0010
0000
0100
0001
0000
1000
0010
,
1000
0001
0000
0010
0001
0000
1000
0100
0010
0001
0000
1000
0100
0000
2000
0002
,
0000
0000
3003
0000
;

//---------------dance-single - Renard----------------
#NOTES:
     dance-single:
     Renard:
     Hard:
     7:
     0.515,0.519,0.059,0.000,0.000:
0000
0000
0000
0000
,
0000
0000
0000
0000
,
0000
0000
0000
0000
,
0000
0000
0000
0000
,
1000
0100
0100
0000
0010
0001
0001
0000
,
1000
0010
0010
0000
0100
0001
0010
0100
,
1000
0001
0001
0000
0100
0010
0010
0000
,
1000
0100
0100
0010
0001
1000
0010
0000
,
0100
0000
0001
0100
0010
0000
0010
1000
,
0100
0000
1000
0001
0010
0000
0100
1000
,
0010
0100
0010
0100
0001
1000
0001
1000
,
0100
0010
0100
0010
0001
1000
0001
1000
,
0010
0000
0100
0010
1000
0000
0001
0100
,
0010
0000
1000
0100
1000
0001
0010
0100
,
1000
0000
0001
1000
0001
0000
0100
0010
,
0100
0000
0010
1000
0010
0100
0001
1000
,
0100
0000
0100
1000
0001
0000
0001
0010
,
0100
0000
0100
1000
0010
0000
0010
0100
,
0001
0000
0001
0010
0001
0000
0001
1000
,
0010
0000
0010
0100
0010
0000
0010
1000
,
0100
0000
0010
0001
0010
0100
1000
0000
,
1001
0000
1000
0010
0100
0001
0010
0000
,
1001
0000
0001
0010
0100
1000
0001
0000
,
1001
0000
0001
0100
0010
1000
0100
0000
,
0010
0010
0001
0100
0100
0010
1000
1000
,
0100
0010
0010
0001
0010
0100
1000
0000
,
0001
0001
0100
0010
1000
1000
0100
0010
,
0001
0001
0010
0100
1000
0010
0100
0000
,
0001
0001
0100
0010
0010
1000
0100
0100
,
0010
0001
0001
0010
0100
1000
0001
0000
,
0100
0010
0010
1000
0010
0010
1000
0100
,
0100
0010
0001
0010
0100
0000
1000
0000
,
0001
0000
0000
0000
1000
0100
0010
0000
,
0001
0010
0100
1000
0001
0000
0101
0000
,
0001
1000
0100
1000
0001
0010
0001
0000
,
1000
0010
0100
0001
1000
0000
1001
0000
,
1000
0100
1000
0001
0010
0001
1000
0010
,
0100
0001
0100
0010
1000
0000
1001
0000
,
1000
0100
1000
0001
0010
0001
1000
0010
,
0100
0100
0010
0010
1000
0000
1001
0000
,
1000
0001
1000
0001
,
0100
0010
0100
0010
0100
0010
0100
0010
,
1000
0001
1000
0001
,
0100
0010
0100
0010
0100
0010
0100
0010
,
1000
0010
1000
0010
,
0100
0001
0100
0001
0100
0001
0100
0001
,
0010
0001
0010
0001
,
1000
0100
1000
0100
1000
0100
1000
0100
,
1000
0010
0100
0001
,
1000
0100
0010
0001
,
0010
0100
1000
0100
,
1000
0000
0010
0000
0100
0000
0001
0100
,
0001
1000
0100
0010
,
0001
0000
0010
0000
0100
0000
1000
0001
,
1000
0001
0100
0010
,
1000
0000
0001
0000
0100
0001
1000
0000
,
0100
0000
1000
0000
0010
0100
0010
0100
,
0010
0000
0100
0000
0001
0010
0001
0010
,
0100
0000
1000
0000
0010
0100
0010
0100
,
0001
0000
0010
0001
1000
0000
0100
1000
,
0001
0000
0010
0001
1000
0001
0100
0000
,
0001
0000
1000
0100
1000
0010
1000
0000
,
0001
0000
1000
0100
1000
0001
1000
0000
,
0001
0010
0001
0000
1000
0001
1000
0000
,
0100
0000
1000
0100
0010
0001
1000
0000
,
0001
0000
0100
0010
1000
0001
1000
0000
,
0001
0010
0001
0000
1000
0001
0100
0000
,
0010
1000
0100
1000
0001
1000
0001
0000
,
0010
0000
0001
0000
1000
0100
1000
0000
,
0001
0000
0010
0000
0001
1000
0010
0000
,
0100
0000
0001
0000
1000
0100
1000
0000
,
0001
0010
0001
1000
0010
1000
0001
0100
;

//---------------dance-single - Renard----------------
#NOTES:
     dance-single:
     Renard:
     Medium:
     5:
     0.369,0.336,0.000,0.000,0.000:
0000
0000
0000
0000
,
0000
0000
0000
0000
,
0000
0000
0000
0000
,
0000
0000
0000
0000
,
1000
0000
0001
0000
0100
0010
0100
0000
,
0001
0000
1000
0000
0100
0010
0100
0000
,
0010
0001
1000
0010
,
0100
0000
0001
0000
1000
0100
1000
0000
,
0001
0001
0010
0010
,
0100
0000
0100
0000
1000
0010
1000
0000
,
0010
0010
0100
0100
,
0001
0010
0100
1000
,
0001
0001
0010
0010
,
0001
0000
1000
0000
0010
1000
0010
0000
,
1000
0001
0100
0001
,
1000
0000
1000
0000
0100
1000
0100
0000
,
1000
0001
0010
0001
,
1000
0010
1000
0001
,
0100
0000
0010
0000
1000
0001
1000
0000
,
0100
0100
1000
1000
,
0001
0000
0010
0000
0001
1000
0001
0000
,
0100
0010
1000
0001
,
1000
0000
0100
0000
1000
0001
1000
0000
,
0001
0010
0100
1000
,
0001
0001
0100
0100
,
0010
0000
1000
0010
1000
0000
0000
0000
,
0010
0010
0100
0100
,
0001
0010
0001
0010
0001
0000
0000
0000
,
1000
1000
0100
0100
,
1000
0000
0001
0100
0001
0000
0000
0000
,
0100
0100
0010
0010
,
1000
0010
1000
0001
1000
0000
0100
0000
,
1000
1000
0001
0010
,
0001
1000
0001
0010
,
0001
0001
1000
1000
,
0010
0100
0001
0001
,
0100
0010
0100
0010
,
1000
0010
0100
0001
,
1000
1000
0100
0100
,
1000
0001
0010
0001
1000
0000
0001
0000
,
0100
0100
0010
0010
,
1000
0010
1000
0000
0010
1000
0010
0000
,
0100
0100
0001
0001
,
0010
0001
0010
0000
0001
0010
0001
0000
,
0010
0010
0100
0100
,
1000
0001
1000
0000
0001
1000
0001
0000
,
0100
0100
0010
0010
,
1000
0010
1000
0000
0001
0100
0001
0000
,
1000
0100
0010
0001
,
0010
0100
1000
1000
,
1000
0100
0010
0001
,
0001
0010
0100
1000
,
1000
0100
0010
0001
,
0010
0100
1000
1000
,
1000
0100
0010
0001
,
0001
0010
0100
1000
,
0001
1000
0001
0100
,
0010
1000
0010
0000
0100
0000
0001
0000
,
0010
0100
1000
0001
,
0100
0001
0100
0000
0001
0010
0001
0000
,
1000
0100
1000
0000
0000
0000
0010
0000
,
0100
0001
0100
0000
0000
0000
0001
0000
,
0010
0100
0010
0000
0100
0000
1000
0000
,
0010
0100
0001
0010
,
0100
0000
1000
0000
0001
0010
0001
0000
,
1000
0010
0100
0001
,
1000
0000
0100
0000
0010
0000
0001
1000
,
0001
1000
0010
0100
,
0001
0100
0010
1000
,
0001
0000
0100
0000
0010
1000
0010
0000
,
1000
0100
0010
0001
,
1000
0001
1000
0000
0010
0100
0010
1000
;

//---------------dance-single - Renard----------------
#NOTES:
     dance-single:
     Renard:
     Easy:
     2:
     0.226,0.244,0.000,0.000,0.000: // measure 1
0000
0000
0000
0000
,  // measure 2
0000
0000
0000
0000
,  // measure 3
0000
0000
0000
0000
,  // measure 4
0000
0000
0000
0000
,  // measure 5
1000
0001
0000
0001
,  // measure 6
0100
0010
0000
0010
,  // measure 7
1000
0100
0000
0100
,  // measure 8
0010
0001
0001
0001
,  // measure 9
1000
0001
0000
0100
,  // measure 10
0010
1000
0000
0001
,  // measure 11
1000
0100
0000
0010
,  // measure 12
0001
1000
0001
0000
,  // measure 13
0100
0010
0000
1000
,  // measure 14
0010
0100
0000
0001
,  // measure 15
0010
0001
0000
1000
,  // measure 16
0100
1000
0001
0100
,  // measure 17
0001
1000
0000
0001
,  // measure 18
1000
0100
0000
1000
,  // measure 19
0001
0010
0000
0001
,  // measure 20
1000
0010
1000
0001
,  // measure 21
1000
0001
0000
0100
,  // measure 22
0001
1000
0000
0100
,  // measure 23
1000
0001
0000
0100
,  // measure 24
0001
1000
0010
0000
,  // measure 25
1000
0000
1000
0000
,  // measure 26
0001
0100
0001
0000
,  // measure 27
1000
0000
1000
0000
,  // measure 28
0001
0010
0001
0000
,  // measure 29
1000
0000
1000
0000
,  // measure 30
0010
0100
0010
0000
,  // measure 31
1000
0000
1000
0000
,  // measure 32
0100
1000
0001
0000
,  // measure 33
0010
0000
0001
1000
,  // measure 34
0100
0000
1000
0001
,  // measure 35
0100
0000
0001
0000
,  // measure 36
1000
0100
1000
0000
,  // measure 37
0001
0000
0010
0000
,  // measure 38
0001
1000
0001
0000
,  // measure 39
1000
0000
0010
0000
,  // measure 40
0100
0000
0010
0000
,  // measure 41
1000
0000
0010
0000
,  // measure 42
0100
0001
0100
0001
,  // measure 43
1000
0000
0100
0000
,  // measure 44
0010
0001
0010
0000
,  // measure 45
0001
0000
1000
0000
,  // measure 46
0100
1000
0100
0000
,  // measure 47
1000
0000
0010
0000
,  // measure 48
0100
0001
0100
0000
,  // measure 49
0001
0000
1000
0000
,  // measure 50
0100
1000
0100
0000
,  // measure 51
1000
0000
0001
0000
,  // measure 52
0010
0001
0010
0000
,  // measure 53
0001
0000
1000
0000
,  // measure 54
0010
0100
0010
0000
,  // measure 55
0100
0000
0001
0000
,  // measure 56
1000
0100
1000
0000
,  // measure 57
0001
0000
1000
0000
,  // measure 58
0001
1000
0001
1000
,  // measure 59
0001
0000
0100
0000
,  // measure 60
0010
0000
1000
0010
,  // measure 61
1000
0000
0100
0000
,  // measure 62
0010
0001
1000
0000
,  // measure 63
0001
0000
0100
0000
,  // measure 64
0010
1000
0010
0000
,  // measure 65
0100
0000
0001
0000
,  // measure 66
0010
0001
1000
0000
,  // measure 67
0001
0000
0100
0000
,  // measure 68
0010
0000
1000
0010
,  // measure 69
1000
0000
0001
0000
,  // measure 70
0100
0000
0001
0000
,  // measure 71
0010
0000
0100
1000
,  // measure 72
0100
1000
0001
0100
;
