#TITLE:Ultrasonic Sound;
#SUBTITLE:;
#ARTIST:Hive;
#TITLETRANSLIT:;
#SUBTITLETRANSLIT:;
#ARTISTTRANSLIT:;
#CREDIT:;
#BANNER:sound.png;
#BACKGROUND:sound-bg.png;
#LYRICSPATH:;
#CDTITLE:;
#MUSIC:sound.ogg;
#OFFSET:0.000;
#SAMPLESTART:46.226;
#SAMPLELENGTH:12.000;
#SELECTABLE:YES;
#BPMS:0.000=171.350;
#STOPS:;
#BGCHANGES:;

//---------------dance-single - Ryvard----------------
#NOTES:
     dance-single:
     Ryvard:
     Challenge:
     9:
     0.711,0.781,0.616,0.283,0.205:
0000
0000
0000
0000
,
0000
0000
0000
0000
,
0000
0000
0000
0000
,
0000
0000
0000
0000
,
0000
0000
0000
0000
,
0000
0100
1000
0010
,
0100
0001
0010
1000
,
0100
0001
0010
0100
,
0010
0001
1100
0000
,
0001
0100
1000
0001
0010
1000
0001
0101
,
0000
0000
0111
0000
,
0001
0100
1000
0100
0010
1000
0100
0011
,
0000
0000
1110
0000
,
0001
0001
0001
0100
1000
1000
1100
0010
,
0000
0000
0111
0000
,
1000
0001
1000
0010
0100
0001
0101
0101
,
0000
0000
0000
0000
0000
0000
0000
0000
0100
1000
0100
0000
0010
0001
0010
0000
,
2000
0100
0000
0010
0000
0100
0000
0001
,
0002
0000
0000
0000
0110
3003
0000
0000
,
2200
0000
3300
0022
0000
0033
0000
0000
,
0001
2000
0200
0000
0011
3300
0000
0000
,
0001
0100
1000
0001
0000
0010
0000
0110
,
0220
0000
0000
0000
,
1001
0330
0000
0000
0001
0100
0000
0010
,
1000
0010
0000
0001
0000
0010
1000
0000
,
0001
0000
0000
0101
0000
0000
0110
0000
,
1001
0000
0001
1001
0000
0001
0011
0010
,
0110
0000
1000
1100
0000
0010
1000
0000
,
0010
1000
0110
0000
0001
0100
1010
0000
,
0010
0000
1000
0100
1000
0000
0010
0000
0000
0000
0100
0001
0100
0000
0010
0000
,
0001
0000
0010
0000
1000
0000
0100
1000
0100
0000
0010
0001
0010
0000
0000
0000
,
1000
0100
1000
0100
1000
0000
0000
0000
0100
0000
0100
0000
0110
0000
0010
0000
,
0022
0000
0000
0000
0000
0000
0000
0033
,
1100
0100
0110
0010
0011
0001
0101
0100
,
0000
0000
1000
0100
1000
0000
0100
0010
0100
0000
0001
0010
0001
0000
0000
0000
,
0101
0010
1000
0100
0011
0100
1000
0000
,
0100
0010
0100
0010
0100
0000
1000
0000
0010
0100
0010
0100
0010
0000
0000
0000
,
0001
0010
0100
0000
1000
0000
0100
0000
0010
0001
0010
0000
0100
0000
1000
0000
,
0001
0001
1000
1000
0100
0000
0110
0000
,
0001
0100
1000
0000
0001
0010
0100
1000
,
0001
0000
0202
0000
0010
1000
0303
0000
,
1000
0000
0100
0000
0010
0000
0001
0100
0010
0000
0100
0000
0001
0000
0010
0000
,
0100
1000
0100
0000
0001
0000
0100
0000
1000
0010
0100
0000
0001
0000
0000
0000
,
1001
0000
0001
0000
0101
0000
0000
0000
0010
1000
0010
0000
1010
0000
0000
0000
,
1000
0000
0001
0100
0001
0000
1000
0000
1000
0000
0001
0100
0001
0000
0000
0000
,
0010
0100
0010
0100
0010
0000
0001
0000
1000
0100
1000
0100
1000
0000
0100
0000
,
0010
1000
0010
1000
0010
0000
0100
0000
0001
0100
0001
0100
0001
0000
0000
0000
,
1000
0000
0100
0010
0001
0000
0001
0000
0010
0100
0001
0000
0100
0000
0000
0000
,
0202
0000
0303
2020
0000
3030
0202
0303
,
1000
0010
0100
0001
0001
0010
1000
1000
,
0000
0000
0010
0100
0000
0001
1000
0000
,
0010
0100
0001
0000
1000
0010
0100
0010
,
1000
0000
0001
0000
0000
0000
0100
0000
0010
0000
1000
0001
1000
0000
0010
0000
,
1000
0000
0001
0000
0000
0000
0001
0000
0100
0000
0010
1000
0100
0000
1000
0000
,
0001
0101
0011
0000
0010
0100
0010
0000
,
0001
0000
1000
0000
0000
0000
0010
0000
0100
0000
0001
1000
0100
0000
1000
0000
,
0001
0000
0100
0000
0010
0000
1000
0100
0010
0000
0000
0000
0110
0000
0000
0000
,
1000
0200
0000
2000
0011
3300
0000
0000
,
0100
0002
0000
2000
0110
0000
3003
0000
,
1020
0130
0002
0100
0103
0000
0000
0000
,
0210
0301
2000
3100
0010
0000
0000
0000
,
0001
1000
0010
1000
0010
0000
0001
0100
,
0010
0100
0010
0100
0110
0001
0000
0000
,
0101
1000
0010
0100
0110
0000
0001
0100
,
0010
0001
0010
0100
0110
1000
0000
0000
,
0001
0010
0100
2000
0100
0000
0100
0000
,
0101
0010
0101
0010
0101
3000
0000
0000
,
0010
0100
0010
0000
1000
0000
0100
0000
0010
0000
0001
0000
1000
0000
0100
0000
,
1000
0100
1000
0100
1000
0000
0001
0000
0100
0010
0100
0010
0100
0000
0000
0000
,
0011
1100
1010
0101
,
0010
0010
0110
0010
0110
0000
0000
0000
,
0010
0100
0001
0000
1000
0001
1000
0001
,
1001
0000
0010
0000
0110
0010
0000
0000
;

//---------------dance-single - Renard----------------
#NOTES:
     dance-single:
     Renard:
     Hard:
     8:
     0.568,0.603,0.137,0.029,0.005:
0000
0000
0000
0000
,
0000
0000
0000
0000
,
0000
0000
0000
0000
,
0000
0000
0000
0000
,
0000
0000
0000
0000
,
0000
0000
0000
0000
,
0000
0000
0000
0000
,
0000
0000
0000
0000
,
0000
0000
0000
0000
,
0001
0010
0100
1000
0100
0010
0001
0010
,
0100
0000
0110
0000
,
0010
0100
1000
0010
0100
0001
0010
0100
,
1000
0000
1001
0000
,
1000
0010
0100
0001
0100
0010
1000
0001
,
1000
0000
1001
0000
,
1000
0100
0001
0100
1000
0010
0001
0010
,
1000
0000
0000
0000
,
1000
0010
0100
0001
0000
0100
0000
0010
,
2000
0000
0000
0000
,
3010
1000
0100
0010
0001
1000
0010
0100
,
0001
0001
0001
0000
0011
0000
0000
0000
,
0010
0000
0100
1000
0000
0001
0100
0010
,
2000
0000
0000
0000
,
3010
1000
0100
0000
1100
0000
1000
0100
,
0010
0100
0010
0100
0010
0100
0010
0100
,
0010
0000
0010
0001
0000
0001
1000
0010
,
0100
0001
1000
0001
1000
0000
1001
0000
,
1000
0000
1000
0100
0000
0100
0010
0001
,
1000
0010
0100
0000
0101
0000
0110
0000
,
0010
0000
0010
1000
0000
1000
0100
1000
,
0001
0010
0001
0000
1000
0001
0100
0000
,
0010
0000
1000
0010
0000
0100
0001
0100
,
0020
0000
0000
0000
,
1030
0010
0100
0001
0100
0010
1000
0100
,
0010
0001
0010
0001
0010
0000
0011
0000
,
0010
0100
1000
0100
0010
0001
1000
0010
,
0100
0010
1000
0001
0100
0000
0100
0000
,
0010
1000
0001
0100
0010
1000
0100
0010
,
0001
1000
0100
1000
0001
0000
1001
0000
,
1000
0001
0010
0001
1000
0010
1000
0001
,
0100
0000
0100
0000
0010
1000
0000
0000
,
0010
0000
1000
0000
0010
0000
1000
0001
,
0000
0100
0000
0001
1000
0000
0100
0010
,
0001
0000
1000
0000
0001
0000
0010
0100
,
0000
1000
0000
0001
0010
0000
0001
1000
,
0010
0000
0100
0001
0100
0000
0010
1000
,
0000
0001
0000
0100
0001
0000
1000
0100
,
1000
0000
0001
0010
0100
0000
1000
0100
,
0000
1000
0000
0001
0100
0000
0010
0000
,
1000
0010
1000
0001
0100
0001
0010
0001
,
0000
1000
0100
1000
0001
0010
0001
1000
,
0010
0100
0001
0100
0010
1000
0100
0010
,
0000
0010
0001
0010
0100
1000
0001
0010
,
0001
1000
0010
1000
0001
0100
0001
1000
,
0100
0000
0100
1000
0001
0010
0001
1000
,
0010
0100
0001
0100
0010
1000
0100
1000
,
0001
0010
0001
0010
0001
1000
0001
0100
,
0001
0100
0010
1000
0100
0010
0001
0010
,
0100
1000
0010
0100
0001
0010
0001
0010
,
0100
1000
0001
0100
0010
1000
0100
0010
,
0100
1000
0001
0010
0001
0010
0001
0010
,
0100
1000
0001
0100
0010
0000
0010
1000
,
0100
0010
0001
1000
0010
0000
0010
1000
,
0100
0010
0001
0100
0010
0000
0010
1000
,
0001
0010
0100
1000
0010
0000
0010
1000
,
0100
0010
0001
0100
0010
0000
0010
1000
,
0100
0010
0001
0010
0001
0000
0011
0000
,
0010
0001
0010
0100
1000
0001
0100
0010
,
1000
0000
0010
0000
0100
0000
0001
0000
1000
0000
0000
1000
0000
0000
1000
0000
,
0100
0010
0001
0010
0100
1000
0010
0100
,
0001
0010
0001
0010
0001
0000
0011
0000
,
0010
0100
1000
0000
0001
0100
0010
1000
,
0100
0000
0010
0000
0011
0011
0000
0000
;

//---------------dance-single - Renard----------------
#NOTES:
     dance-single:
     Renard:
     Medium:
     5:
     0.383,0.461,0.108,0.020,0.000:
0000
0000
0000
0000
,
0000
0000
0000
0000
,
0000
0000
0000
0000
,
0000
0000
0000
0000
,
0000
0000
0000
0000
,
0000
0000
0000
0000
,
0000
0000
0000
0000
,
0000
0000
0000
0000
,
0000
0000
0000
0000
,
1000
0000
0100
0000
1000
0000
0001
0100
,
0001
0000
1100
0000
,
1000
0000
0001
0000
0010
0000
0100
1000
,
0100
0000
0101
0000
,
0001
0000
0010
0000
0100
0000
1000
0010
,
1000
0000
0011
0000
,
0001
0000
0100
0000
0010
0000
1000
0001
,
0010
0000
0000
0000
,
0010
0000
0100
1000
0000
0010
0000
0000
,
2002
0000
0000
3003
,
1000
0000
0001
0100
0000
0010
0000
0000
,
1000
0010
0100
0000
1001
0000
0000
0000
,
1000
0000
0100
0010
0000
0001
0000
0000
,
0110
0000
0000
0000
,
0010
0000
0001
0000
,
1000
0010
1000
0010
1000
0010
1000
0010
,
1000
0000
0010
0100
0000
0001
0000
0000
,
1000
0000
0100
0010
0000
0001
0000
0000
,
0010
0000
0100
1000
0000
0010
0000
0100
,
0001
0100
0010
1000
,
0010
0000
1000
0001
0000
0100
0000
0001
,
1000
0000
0100
0010
0000
0001
0000
0010
,
0100
1000
0001
0100
,
0110
0000
0000
0000
,
0010
1000
0001
0100
,
0001
1000
0001
1000
0001
0000
0000
0000
,
1000
0100
0010
0001
,
0010
0100
1000
1000
,
0010
0100
0001
0010
,
0100
0010
0100
0010
0100
0000
0010
0000
,
0100
0000
1000
0000
0010
0000
0100
0001
,
1000
0000
0001
0000
0100
0010
0000
0000
,
1000
0000
1000
0000
0010
0000
0100
0001
,
0000
0100
0000
0001
0100
0000
0000
0000
,
0001
0000
1000
0000
0100
0000
0100
1000
,
0000
0100
0000
1000
0100
0000
0000
0000
,
1000
0000
0010
0000
0100
0000
0100
0001
,
0000
0010
0000
0001
1000
0000
0000
0000
,
0001
0000
0001
0000
0100
0000
0010
1000
,
0010
1000
0010
1000
,
0010
0010
0100
0100
,
0001
1000
1100
0000
,
1000
0001
0011
0001
,
0010
0000
0100
1000
0100
0000
0000
0000
,
1000
0010
0100
0001
,
0100
0000
0010
1000
0010
0000
0000
0000
,
1000
0100
0010
0001
,
0010
0001
1000
0001
,
0100
0100
0010
1000
,
0010
0100
0001
0001
,
0010
0100
1000
1000
,
0100
0010
0001
0001
,
0010
0000
0100
1000
0100
0000
1000
0000
,
0100
0000
0010
0001
0010
0000
0100
0000
,
1000
0000
0001
0100
0001
0000
0100
0000
,
0010
0000
1000
0010
1000
0000
0001
0100
,
0001
0100
0010
1000
,
0100
1000
0100
1000
0100
0000
1100
0000
,
1000
0100
0010
0001
,
1000
0001
0100
0100
,
0001
0010
0100
1000
,
0001
0100
0001
0100
0001
0000
0101
0000
,
0001
0000
1000
0000
0100
0000
0010
0001
,
0010
0000
0001
0000
1000
0001
0000
0000
;

//---------------dance-single - Renard----------------
#NOTES:
     dance-single:
     Renard:
     Easy:
     2:
     0.230,0.283,0.039,0.020,0.000: // measure 1
0000
0000
0000
0000
,  // measure 2
0000
0000
0000
0000
,  // measure 3
0000
0000
0000
0000
,  // measure 4
0000
0000
0000
0000
,  // measure 5
0000
0000
0000
0000
,  // measure 6
0000
0000
0000
0000
,  // measure 7
0000
0000
0000
0000
,  // measure 8
0000
0000
0000
0000
,  // measure 9
0000
0000
0000
0000
,  // measure 10
1000
0000
1000
0000
,  // measure 11
0001
0100
0001
0000
,  // measure 12
0001
0000
0001
0000
,  // measure 13
1000
0100
1000
0000
,  // measure 14
0001
0000
0001
0000
,  // measure 15
0010
0001
0001
0000
,  // measure 16
1000
0000
0010
0000
,  // measure 17
2000
0000
0000
0000
,  // measure 18
3010
0000
0010
0000
,  // measure 19
0101
0000
0000
0000
,  // measure 20
0001
1000
0100
1000
,  // measure 21
0001
0001
0001
0000
,  // measure 22
0010
0000
0100
0000
,  // measure 23
1001
0000
0000
0000
,  // measure 24
0100
0010
1000
0010
,  // measure 25
0100
0001
0100
0010
,  // measure 26
1000
0000
0010
0000
,  // measure 27
0100
0001
0100
0000
,  // measure 28
0001
0000
1000
0000
,  // measure 29
0100
1000
0100
0000
,  // measure 30
1000
0000
0010
0000
,  // measure 31
0100
0001
0100
0000
,  // measure 32
0010
0000
1000
0000
,  // measure 33
0010
0000
0000
0000
,  // measure 34
1000
0000
0010
0000
,  // measure 35
0100
0100
0100
0000
,  // measure 36
0001
0000
0010
0000
,  // measure 37
0100
1000
0100
0000
,  // measure 38
1000
0000
0001
0000
,  // measure 39
0010
0010
0010
0000
,  // measure 40
0001
0000
1000
0010
,  // measure 41
0100
0010
1001
0000
,  // measure 42
1000
0000
0100
0000
,  // measure 43
0010
0001
0010
0000
,  // measure 44
0100
0000
1000
0000
,  // measure 45
0001
0010
0001
0000
,  // measure 46
1000
0000
0100
0000
,  // measure 47
0010
0001
0010
0000
,  // measure 48
0100
0000
1000
0000
,  // measure 49
0001
0010
0001
0000
,  // measure 50
1000
0000
0010
0000
,  // measure 51
0100
0001
0100
0000
,  // measure 52
0010
0000
1000
0000
,  // measure 53
0001
0100
0001
0000
,  // measure 54
1000
0000
0010
0000
,  // measure 55
0100
0001
0100
0000
,  // measure 56
0010
0000
1000
0000
,  // measure 57
0002
0000
0000
0000
,  // measure 58
0103
0000
0001
0000
,  // measure 59
1000
0000
0100
0000
,  // measure 60
1000
0000
0001
0000
,  // measure 61
0010
0000
0001
0000
,  // measure 62
1000
1000
1000
0000
,  // measure 63
0010
0010
0010
0000
,  // measure 64
0100
0100
0100
0000
,  // measure 65
0001
0001
0001
0000
,  // measure 66
0010
0000
0100
0000
,  // measure 67
1000
1000
1000
0000
,  // measure 68
0001
0000
0100
0010
,  // measure 69
1000
0010
0100
0000
,  // measure 70
0100
0000
0001
0000
,  // measure 71
0010
0010
0010
0000
,  // measure 72
0001
0001
0010
0100
,  // measure 73
1000
1000
1001
0000
;
