#TITLE:U R Everything (CubeHard Remix);
#SUBTITLE:;
#ARTIST:Helix;
#TITLETRANSLIT:;
#SUBTITLETRANSLIT:;
#ARTISTTRANSLIT:;
#CREDIT:;
#BANNER:u.png;
#BACKGROUND:u-bg.png;
#LYRICSPATH:;
#CDTITLE:;
#MUSIC:u.ogg;
#OFFSET:0.000;
#SAMPLESTART:49.402;
#SAMPLELENGTH:12.000;
#SELECTABLE:YES;
#BPMS:0.000=174.680;
#STOPS:;
#BGCHANGES:;

//---------------dance-single - Renard----------------
#NOTES:
     dance-single:
     Renard:
     Hard:
     9:
     0.660,0.675,0.338,0.275,0.182:
0000
0000
0000
0000
,
0000
0000
0000
0000
,
0000
0000
0000
0000
,
0000
0000
0000
0000
,
1000
0000
0000
1000
0001
0000
0100
0000
0M00
0100
0010
0000
1000
0000
0100
0000
,
0010
0000
0000
0010
0001
0000
0010
0000
00M0
0010
0100
0000
1000
0000
0010
0000
,
0100
0000
0000
0100
0001
0000
0010
0000
00M0
0010
0100
0000
1000
0000
0010
0000
,
0100
0000
0000
0100
0001
0000
0100
0000
0M00
0100
0010
0000
1000
0000
0100
0000
,
1000
0000
0000
1000
0001
0000
0010
0000
00M0
0010
0100
0000
1000
0000
0010
0000
,
0100
0000
0000
0100
0001
0000
0100
0000
0M00
0100
0010
0000
1000
0000
0100
0000
,
0010
0000
0000
0010
0001
0000
0010
0000
0100
0000
1000
0001
1000
0000
0010
0000
,
0100
0000
0010
0100
0010
0000
0100
0000
1001
0000
0000
0000
1001
0000
0000
0000
,
1000
0000
1000
0002
0100
0000
0203
0320
,
2000
0030
3100
M020
0000
0000
0000
0000
,
0031
002M
0000
0230
0000
1300
0M00
0020
,
0000
2030
00M0
0002
3000
0200
0000
0303
,
M21M
00M0
0000
0300
2010
00M0
0000
0000
,
0100
3M00
002M
0002
0000
0000
0000
0003
,
013M
2MM0
0000
0010
30M0
0200
M000
0002
,
00M0
0000
0000
0303
,
1001
0000
0110
0000
0010
1000
0100
0010
,
0000
0000
0011
0000
0000
0010
0000
0100
0000
0000
1000
0000
0010
0000
0010
0000
,
0100
0000
0101
0000
0100
0010
1000
0100
,
0000
1000
0000
0001
0100
0000
0010
1000
,
0100
0000
1100
0000
1000
0100
0010
0001
,
0000
0000
0011
0000
0000
0010
0000
0100
0000
0000
1000
0000
0010
0000
0100
0000
,
0001
0000
0101
0000
0100
0010
1000
0100
,
0000
1000
0001
0000
0110
0000
0110
0000
,
0010
0000
0000
0010
1000
0000
0100
0000
0000
0100
0010
0000
0001
0000
0010
0000
,
0100
0000
0000
0100
1000
0000
0010
0000
0000
0010
0100
0000
0001
0000
0010
0000
,
0100
0000
0000
0100
1000
0000
0010
0000
0000
0100
0001
0000
0100
0000
0010
0000
,
1000
0000
0100
0000
0010
0000
0001
0000
1000
0000
0001
1000
0001
1000
0001
0000
,
0100
0000
0000
0100
0001
0000
0010
0000
0000
0010
0100
0000
1000
0000
0100
0000
,
0010
0000
0000
0010
0001
0000
0100
0000
0000
0100
0010
0000
1000
0000
0100
0000
,
0010
0000
0000
0010
0001
0000
0100
0000
0000
0010
1000
0000
0010
0000
0100
0000
,
0001
0010
0100
1000
0001
1000
0110
0000
,
1020
0000
1030
0200
0010
0300
00M1
0M10
,
0001
0000
0001
002M
0000
0030
0110
0M00
,
0100
2000
0000
3010
M000
2001
0000
3001
,
M000
0001
0100
0010
00M0
0010
1000
0100
,
0010
0000
0210
00M0
0310
0001
1000
0001
,
0200
0000
0301
020M
0000
0301
0101
0000
,
0120
0000
0M30
2000
0000
3100
M000
1002
,
0000
0003
100M
0100
0M00
0100
0010
00M0
,
MM11
0000
0M10
01M0
100M
0000
M001
01M0
,
0M10
0000
100M
01M0
0000
100M
M001
0000
,
0M10
0000
M001
100M
0000
1M1M
0000
1MM1
,
0000
M001
01M0
0M10
0000
M11M
0000
0M10
,
100M
0000
01M0
0000
100M
0000
M001
0M10
,
01M0
0000
01M0
100M
0000
1MM1
0000
M001
,
01M0
0M10
0000
1M1M
0000
1MM1
0000
100M
,
01M0
0M10
M001
0M10
01M0
100M
M001
0000
,
1000
0100
0001
0100
0010
0001
000M
0001
,
0010
0100
1000
0010
0001
0010
00M0
0010
,
0100
1000
0100
0001
0010
0100
0M00
0100
,
0001
0100
1000
0010
0001
0010
00M0
0010
,
1000
0010
0100
1000
0100
0001
000M
0001
,
0010
1000
0010
0100
0001
0100
0M00
0100
,
1000
0010
0001
0010
0100
1000
M000
1000
,
0100
0010
1000
0100
0010
0001
0010
MMMM
,
1001
0000
1001
0000
1000
0001
1000
0001
,
1000
0000
0001
0000
0100
0000
0010
1000
0000
0000
1000
0000
0010
0000
1000
0000
,
0100
0000
0010
0000
0001
0000
0010
0100
0000
0000
1000
0000
0010
0000
0100
0000
,
0001
0000
0100
0000
0010
0000
1000
0100
0000
0000
0010
0000
0001
0000
0010
0000
,
0100
0000
1000
0000
0001
0000
0100
0010
0000
0000
1000
0000
0100
0000
0010
0000
,
0001
0000
0010
0000
0100
0000
1000
0001
0000
0000
0100
0000
0010
0000
1000
0000
,
0100
0000
0010
0000
0001
0000
0010
0100
0000
0000
1000
0000
0010
0000
0100
0000
,
0001
0000
1000
0000
1001
0000
0001
0100
0000
0010
1000
0000
1001
0000
0000
0000
,
0001
0000
0001
1000
0000
0100
0010
0001
,
1000
0000
1000
0010
0000
0010
0100
0001
,
0010
0000
0010
0100
1000
0010
0100
0001
,
0000
0101
0000
1100
0000
0100
1000
0100
,
0010
0000
0110
0000
0010
1000
0100
0010
,
0000
0011
0000
0110
0000
0010
0100
1000
,
0010
0100
0001
1000
0100
0010
0001
0010
,
0100
0000
0100
1000
0000
1000
0010
0000
,
2002
0000
0000
0000
,
0000
0000
0000
0000
,
0000
0000
0000
0000
,
0000
0000
0000
0000
,
3003
0000
0000
0000
;

//---------------dance-single - Renard----------------
#NOTES:
     dance-single:
     Renard:
     Medium:
     5:
     0.332,0.371,0.044,0.009,0.000:
0000
0000
0000
0000
,
0000
0000
0000
0000
,
0000
0000
0000
0000
,
0000
0000
0000
0000
,
1000
0000
0000
0000
0001
0100
0000
0001
,
0000
1000
0000
0000
0100
0000
0000
0000
,
1000
0000
0000
0000
0001
0010
0000
0001
,
0000
1000
0000
0000
0010
0000
0000
0000
,
1000
0000
0000
0000
0001
0100
0000
0001
,
0000
1000
0000
0000
0100
0000
1000
0000
,
0001
0000
0010
0001
,
1000
0000
0010
1000
0010
0000
1010
0000
,
1000
0000
0001
0000
,
0100
0000
0001
1000
0000
0000
0000
0000
,
0100
0010
0000
0001
0000
1000
0000
0001
,
0000
0100
0000
0010
0000
0010
0000
0000
,
1000
0000
0100
0000
,
1000
0000
0001
0010
0000
0000
0000
0000
,
0001
1000
0000
0010
0000
0100
0000
0002
,
0000
0000
0000
0000
,
0013
0000
0010
0000
0001
0000
1000
0100
,
0000
1000
0000
0001
0000
0000
0100
0000
,
0010
0000
1000
0000
0001
0000
0000
0010
,
0000
0001
0000
1000
0010
0000
0010
0000
,
1000
0000
0001
0000
0100
0000
0001
1000
,
0000
0100
0000
1000
0000
0000
0000
0000
,
1000
0000
0001
0000
0100
0000
0000
0001
,
0000
0000
0000
0000
,
1000
0000
0100
0000
1000
0100
1000
0000
,
0001
0000
0010
0000
0001
0010
0001
0000
,
1000
0000
0010
0000
1000
0010
1000
0000
,
0001
0100
0010
0010
,
1000
0000
0100
0000
1000
0100
1000
0000
,
0001
0000
0010
0000
0001
0010
0001
0000
,
1000
0010
0100
0001
,
0010
0010
0110
0100
,
0100
0100
1000
1000
,
0001
0000
0100
0010
0000
0000
0000
0000
,
1000
0010
0000
1000
0000
0001
0000
0100
,
0000
0001
0000
0010
0000
0010
0000
0000
,
0100
0000
1000
0000
,
0001
0000
0010
0001
0000
0000
0000
0000
,
1000
0000
0010
1000
0000
0001
0000
0100
,
0000
0010
0000
1000
0000
0000
1010
0000
,
1000
0000
0010
0000
,
0100
0000
0001
0010
0000
0000
0000
0000
,
0100
1000
0001
0100
,
0010
1000
0010
0100
,
0001
1000
0100
0010
,
0001
0000
0010
0100
0000
0000
0000
0000
,
1000
0001
0000
0100
0000
0010
0000
1000
,
0000
0010
0100
0001
,
0100
0000
0100
0000
0010
0000
0000
1000
,
0000
0010
0100
0001
,
0100
0000
0010
0000
1000
0000
0000
0100
,
0000
0010
0000
0001
0000
0000
0010
0000
,
0100
1000
0010
0100
,
0001
0100
0010
1000
,
0010
0100
0001
0000
,
0100
0010
1000
0010
,
0100
0000
0100
0000
0001
0000
0000
1000
,
0000
0100
0000
0010
0000
0000
0001
0000
,
0010
0000
0100
0000
1000
0000
0000
0001
,
0000
0100
0000
0000
0010
0000
1000
0000
,
0010
0000
1000
0000
0001
0000
0000
0100
,
0000
0010
0000
0000
0000
0000
0000
0000
,
1000
0000
0010
0000
1000
0000
0000
0010
,
0000
0000
0100
0000
0001
1000
0100
0000
,
1100
0000
0000
0000
1000
0001
0000
0100
,
0000
0010
0000
0000
0000
0000
1000
0000
,
0001
0000
0010
0000
0100
1000
0000
0001
,
0000
0100
0000
0000
0000
0000
0010
0000
,
1000
0000
0001
0000
0010
0001
0000
1000
,
0000
0010
0000
0000
0100
0000
0001
0000
,
1000
0100
1000
0001
,
0010
0001
1000
0110
,
0010
0000
0000
0000
;

//---------------dance-single - Renard----------------
#NOTES:
     dance-single:
     Renard:
     Easy:
     3:
     0.315,0.304,0.000,0.009,0.000: // measure 1
0000
0000
0000
0000
,  // measure 2
0000
0000
0000
0000
,  // measure 3
0000
0000
0000
0000
,  // measure 4
0000
0000
0000
0000
,  // measure 5
0001
0000
1000
0010
,  // measure 6
1000
0001
0010
0000
,  // measure 7
0001
0000
1000
0100
,  // measure 8
1000
0001
0100
0000
,  // measure 9
0001
0000
1000
0010
,  // measure 10
1000
0001
0010
0001
,  // measure 11
1000
0000
0100
1000
,  // measure 12
0001
0100
0001
0001
,  // measure 13
0001
0000
1000
0000
,  // measure 14
0010
1000
0001
0000
,  // measure 15
0010
0100
1000
0001
,  // measure 16
1000
0010
0100
0100
,  // measure 17
0001
0000
0010
0000
,  // measure 18
0001
1000
0100
0000
,  // measure 19
1000
0001
0100
0010
,  // measure 20
2000
0000
0000
0000
,  // measure 21
3000
0100
1000
0001
,  // measure 22
0010
0001
1000
0010
,  // measure 23
0100
0001
1000
0000
,  // measure 24
0100
1000
0001
0100
,  // measure 25
0001
1000
0010
1000
,  // measure 26
0001
0010
0001
0000
,  // measure 27
0001
1000
0010
0000
,  // measure 28
1000
0000
0000
0000
,  // measure 29
0001
0010
0001
0001
,  // measure 30
1000
0100
1000
0100
,  // measure 31
0001
0100
0001
0001
,  // measure 32
1000
0010
0100
0100
,  // measure 33
0001
0010
0001
0001
,  // measure 34
1000
0100
1000
0100
,  // measure 35
0001
0100
0010
1000
,  // measure 36
0100
0100
0010
0010
,  // measure 37
0010
0010
0001
0001
,  // measure 38
1000
0010
0100
0000
,  // measure 39
0001
0100
0001
1000
,  // measure 40
0010
1000
0100
0100
,  // measure 41
0010
0000
0001
0000
,  // measure 42
1000
0100
1000
0000
,  // measure 43
0001
0100
0001
1000
,  // measure 44
0010
0100
0001
0001
,  // measure 45
0001
0000
0100
0000
,  // measure 46
0010
1000
0100
0000
,  // measure 47
0010
0001
1000
0010
,  // measure 48
0100
0001
0100
0010
,  // measure 49
1000
0001
0010
0100
,  // measure 50
1000
0100
0010
0000
,  // measure 51
0001
1000
0010
0100
,  // measure 52
0001
0100
0010
1000
,  // measure 53
0010
0010
0100
0000
,  // measure 54
0001
0100
0010
1000
,  // measure 55
0010
0100
0001
0000
,  // measure 56
0010
0100
1000
0100
,  // measure 57
0010
0001
0100
0010
,  // measure 58
1000
0010
0100
0001
,  // measure 59
0100
0010
1000
0000
,  // measure 60
0010
0100
0001
0100
,  // measure 61
0010
0010
1000
0000
,  // measure 62
0001
0010
0100
1000
,  // measure 63
0100
0010
0001
0000
,  // measure 64
1000
0010
0100
0001
,  // measure 65
0100
0001
1000
0000
,  // measure 66
0010
0100
0000
0000
,  // measure 67
0001
0100
0001
0000
,  // measure 68
0100
0010
1000
0001
,  // measure 69
0001
0000
0001
1000
,  // measure 70
0010
0100
0000
0001
,  // measure 71
1000
0100
0010
0001
,  // measure 72
1000
0010
0000
0100
,  // measure 73
0001
1000
0100
1000
,  // measure 74
0001
0100
0010
1000
,  // measure 75
0001
0010
0001
1000
,  // measure 76
0100
1000
0001
0010
,  // measure 77
0100
0000
0000
0000
;
