#TITLE:Turtle Eggs and Mumblety Pegs;
#SUBTITLE:;
#ARTIST:Totally Radd!!;
#TITLETRANSLIT:;
#SUBTITLETRANSLIT:;
#ARTISTTRANSLIT:;
#CREDIT:;
#BANNER:eggs.png;
#BACKGROUND:eggs-bg.png;
#LYRICSPATH:;
#CDTITLE:;
#MUSIC:eggs.ogg;
#OFFSET:0.000;
#SAMPLESTART:13.813;
#SAMPLELENGTH:12.000;
#SELECTABLE:YES;
#BPMS:0.000=139.000;
#STOPS:;
#BGCHANGES:;

//---------------dance-single - Renard----------------
#NOTES:
     dance-single:
     Renard:
     Hard:
     9:
     0.604,0.550,0.383,0.039,0.113:
0000
0000
0000
0000
,
0000
0000
0000
0000
,
0000
0000
0000
0000
,
0000
0000
0000
0000
,
1000
0100
1000
0010
0100
0001
0000
1001
,
0000
0100
0010
0100
0001
0100
0010
1000
,
0100
0010
0001
0010
0100
1000
0000
1001
,
0000
0000
0001
0000
0100
0000
0010
0000
1000
0001
1000
0000
0001
1000
0001
1000
,
0001
0100
0010
1000
0100
1000
0010
0100
,
0001
1000
0100
0010
0100
1000
0001
0010
,
0001
0100
0010
1000
0100
0010
0100
1000
,
0000
0000
1001
0000
1010
0000
0000
0000
1001
0000
0101
0000
0000
0000
1000
0001
,
0100
0010
1000
0100
0010
0100
0010
0001
,
1000
0001
0100
0010
1000
0001
0100
0001
,
1000
0100
0010
0001
1000
0001
1000
0010
,
1000
0000
0010
0000
0100
0000
0001
0000
1000
0000
0001
0000
1000
0100
0010
0001
,
1000
0100
1000
0010
1000
0001
0100
0010
,
1000
0100
0010
0001
0010
0001
0010
0001
,
0100
0001
1000
0010
0100
0001
1000
1100
,
0000
1100
1010
0000
0101
0011
0000
1001
,
0100
0001
0100
0010
0100
1000
0100
0001
,
0100
0010
1000
0100
0010
0001
0010
0100
,
1000
0100
1000
0001
0010
0001
0100
0010
,
1000
0001
0100
0010
1000
0010
0100
0001
,
1001
0000
0110
0000
1000
0010
0000
0101
,
0000
0100
0010
1000
0100
0010
0100
1000
,
0100
0000
1100
0000
0010
0100
0001
0000
,
1100
0000
0001
0101
0000
1000
0001
0100
,
0010
1000
0001
0100
0010
1000
0000
1100
,
0000
0100
1000
0010
0100
0001
1000
0000
,
1001
0000
1010
0000
0001
0100
0010
0000
,
1010
0000
0000
0000
1000
0000
1100
0000
0000
0000
0010
0000
0001
0010
0001
0000
,
1001
0000
0110
0000
0001
0100
0000
1010
,
0000
0010
0100
0001
0010
0100
0010
0001
,
0010
0000
0011
0000
0100
0010
1000
0000
,
0011
0000
1000
1010
0000
0001
1000
0010
,
0100
0001
1000
0010
0100
0001
0000
0011
,
0000
0010
0001
0100
0010
1000
0000
0101
,
0000
1001
0000
1010
0000
1100
0000
0011
,
0000
1001
0000
1010
0000
1001
0000
0000
,
1000
0100
1000
0000
0100
0000
1000
0000
0010
0000
0100
0000
0001
0000
0100
0000
,
0000
0000
0100
0001
0100
0000
0010
0000
1000
0000
0100
0000
0010
0000
0001
0000
,
0010
0001
0010
0000
0001
0000
0010
0000
0100
0000
1000
0000
0002
0000
2000
0000
,
0000
3003
0001
1000
0001
0000
1000
0000
0010
0000
0100
0000
0001
0000
1000
0000
,
0001
0010
0001
0000
0010
0000
0001
0000
0100
0000
0010
0000
1000
0000
0010
0000
,
0000
0000
0010
1000
0010
0000
0100
0000
0001
0000
0010
0000
0100
0000
1000
0000
,
0100
1000
0100
0000
1000
0000
0100
0000
0010
0000
0001
0000
2000
0000
0002
0000
,
0000
3003
1000
0001
1000
0000
0001
0000
0100
0000
0010
0000
1000
0000
0001
0000
,
1000
0100
1000
0100
1000
0000
0100
0000
0010
0000
0001
0000
0010
0000
0100
0000
,
1000
0010
0100
0001
0100
0001
1000
0100
,
0010
0001
0010
0001
0010
0000
0100
0000
1000
0000
0001
0000
1000
0000
0100
0000
,
1000
0001
0010
0001
0100
0010
1000
0001
,
1000
0010
1000
0010
1000
0000
0010
0000
0100
0000
0001
0000
0100
0000
0010
0000
,
1000
0100
0010
0100
1000
0001
0010
0001
,
1000
0001
1000
0001
1000
0000
0001
0000
0010
0000
0001
0000
0100
0000
0010
0000
,
0100
0001
1000
0100
0010
0001
0010
0100
,
1001
0000
0000
0000
;

//---------------dance-single - Renard----------------
#NOTES:
     dance-single:
     Renard:
     Medium:
     5:
     0.306,0.385,0.000,0.000,0.000:
0000
0000
0000
0000
,
0000
0000
0000
0000
,
0000
0000
0000
0000
,
0000
0000
0000
0000
,
1000
0000
0100
1000
0100
0000
0000
1000
,
0000
0000
0001
0000
0010
0001
1000
0000
,
0001
0000
0100
0000
0010
1000
0000
0010
,
0000
0000
1000
0000
0100
1000
0100
0000
,
1000
0001
0100
0010
,
1000
0001
1000
0000
0001
0100
0001
0000
,
1000
0100
1000
0001
0010
0001
1000
0001
,
0000
0100
0100
0000
0100
0100
0000
0100
,
0010
0000
0000
1000
0000
0010
0000
0000
,
0100
0000
0001
0000
1000
0100
1000
0000
,
0001
0000
0000
0010
0000
0001
0000
1000
,
0000
0010
0100
0001
,
1000
0100
1000
0000
0001
0000
0010
0000
,
0001
1000
0001
0000
0100
0000
0010
0000
,
1000
0000
0000
0100
0000
0010
0000
0001
,
0000
1000
1000
0000
1000
1000
0000
1000
,
0001
0000
0000
0100
0000
0010
0000
0000
,
1000
0000
0010
0000
0100
0000
0001
1000
,
0001
0000
0000
1000
0000
0100
0000
0010
,
0000
0000
0000
0000
0001
0010
0001
0010
,
0001
0000
0000
0000
1000
0010
0000
1000
,
0000
0000
0000
0000
0001
0100
0000
0001
,
0000
1000
0100
0010
,
0001
0000
1000
0001
0000
0100
0000
0000
,
0001
0000
0000
0000
1000
0000
0100
1000
,
0000
0000
0000
0000
0001
0010
0000
0001
,
0000
0000
1000
0000
0010
0100
0010
0000
,
0100
0000
0001
1000
0000
0001
0000
0000
,
1000
0000
0000
0000
0100
0010
0000
0001
,
0000
0000
0000
0000
0010
0100
0000
1000
,
0000
0010
0100
0001
,
0100
0000
0010
1000
0000
0010
0000
0000
,
0100
0000
0000
0000
0001
1000
0000
0100
,
0000
0000
0000
0000
0010
0001
0000
1000
,
0000
1000
0000
1000
0000
1000
0000
1000
,
0000
1000
0000
1000
0000
1000
0000
0000
,
0001
0000
0000
0100
0010
0100
0010
1000
,
0000
0010
0100
0001
,
1000
0000
0100
0000
0010
0001
0010
0001
,
0000
1000
0100
1000
,
0010
0000
0100
0000
0001
1000
0000
0001
,
0000
1000
0100
0010
,
0001
0000
0010
0000
0100
1000
0100
1000
,
0000
0001
0100
0001
,
1000
0000
1000
0000
0001
0000
0000
0100
,
0000
0010
1000
0100
,
0010
0000
0001
0000
0010
0100
1000
0001
,
0000
0100
0010
1000
,
0001
0000
0010
0000
0001
1000
0001
0100
,
0000
0010
1000
0100
,
0010
0000
0001
0000
1000
0010
1000
0001
,
0000
0100
0001
1000
,
0100
0000
0000
0000
;

//---------------dance-single - Renard----------------
#NOTES:
     dance-single:
     Renard:
     Easy:
     3:
     0.292,0.330,0.236,0.000,0.000: // measure 1
0000
0000
0000
0000
,  // measure 2
0000
0000
0000
0000
,  // measure 3
0000
0000
0000
0000
,  // measure 4
0000
0000
0000
0000
,  // measure 5
1000
0100
1100
0000
,  // measure 6
1000
0001
0010
1001
,  // measure 7
1000
0010
0100
0001
,  // measure 8
0100
0001
0010
0011
,  // measure 9
0001
1000
0010
0100
,  // measure 10
0001
1001
1000
1010
,  // measure 11
0001
0011
1100
1001
,  // measure 12
1000
0010
0010
0000
,  // measure 13
0110
0000
0001
0100
,  // measure 14
0010
1000
0001
0011
,  // measure 15
1000
0000
0100
1000
,  // measure 16
0001
0100
0010
1000
,  // measure 17
0001
0011
1000
0100
,  // measure 18
1000
1001
0010
0100
,  // measure 19
0001
0000
0010
0100
,  // measure 20
1000
0001
0001
0000
,  // measure 21
1001
0000
0010
0100
,  // measure 22
0001
0100
0010
1000
,  // measure 23
1001
0000
0001
0010
,  // measure 24
0100
0000
1000
1100
,  // measure 25
1100
0000
0001
0100
,  // measure 26
0001
0000
1000
0010
,  // measure 27
1000
0001
0010
0100
,  // measure 28
1000
0001
1000
0010
,  // measure 29
1000
0000
0001
0010
,  // measure 30
0001
0000
1000
0100
,  // measure 31
1000
0001
0100
0110
,  // measure 32
0010
1000
0001
1000
,  // measure 33
0001
0000
0010
0100
,  // measure 34
1000
0000
0100
0010
,  // measure 35
0001
0100
0010
1000
,  // measure 36
0010
0100
0001
0100
,  // measure 37
0010
0000
1000
0001
,  // measure 38
0010
0000
0100
1000
,  // measure 39
0001
0000
0000
0000
,  // measure 40
0001
0000
0000
0000
,  // measure 41
1000
0000
0110
0110
,  // measure 42
0001
0100
0010
1000
,  // measure 43
0001
0010
0100
1100
,  // measure 44
1000
0001
0010
0001
,  // measure 45
0100
0010
1000
0001
,  // measure 46
1000
0001
0010
0100
,  // measure 47
1000
0100
0010
0011
,  // measure 48
0001
1000
0010
1000
,  // measure 49
0001
0001
1000
0000
,  // measure 50
0010
0100
0001
0010
,  // measure 51
0100
1000
0100
0011
,  // measure 52
1000
0010
0100
0001
,  // measure 53
1000
0100
1000
1001
,  // measure 54
0010
0100
0001
0010
,  // measure 55
0100
1000
0001
0101
,  // measure 56
1000
0010
1000
0001
,  // measure 57
0010
0000
0000
0000
;
