#TITLE:Tranzport;
#SUBTITLE:;
#ARTIST:Arkitech;
#TITLETRANSLIT:;
#SUBTITLETRANSLIT:;
#ARTISTTRANSLIT:;
#CREDIT:;
#BANNER:tranz.png;
#BACKGROUND:tranz-bg.png;
#LYRICSPATH:;
#CDTITLE:;
#MUSIC:tranz.ogg;
#OFFSET:0.000;
#SAMPLESTART:45.060;
#SAMPLELENGTH:12.000;
#SELECTABLE:YES;
#BPMS:0.000=175.560,160.000=91.000,164.000=95.000,168.000=98.000,170.000=99.000,172.000=102.000,174.000=104.000,176.000=107.000,178.000=109.000,180.000=112.000,182.000=114.000,184.000=118.000,186.000=121.000,188.000=126.000,190.000=128.000,191.000=132.000,192.000=135.000,194.000=137.000,196.000=140.000,198.000=143.620,200.000=153.000,202.000=155.000,204.000=169.000,208.000=171.000,212.000=175.560;
#STOPS:;
#BGCHANGES:;
#GENRE:Freeform Hardcore;

//---------------dance-single - Renard----------------
#NOTES:
     dance-single:
     Renard:
     Challenge:
     14:
     1.000,1.000,0.150,0.159,1.000: // measure 1
0000
0000
0000
0000
,  // measure 2
0000
0000
0000
0000
,  // measure 3
0000
0000
0000
0000
,  // measure 4
1100
0110
0101
0110
,  // measure 5
1000
0000
0100
1000
0001
0000
0010
0001
0100
0010
1000
0000
0000
0001
0000
0001
,  // measure 6
0100
0000
0010
1000
0001
0000
0100
0001
1000
0100
0010
0000
0000
0001
0000
0001
,  // measure 7
1000
0000
0000
0000
0000
0000
0000
0000
0000
0000
0000
0000
0100
0000
0000
0010
0000
0000
0001
0000
0000
0000
0000
0000
1000
0000
0000
0000
0000
0000
0000
0000
1000
0000
0000
0000
0000
0000
0000
0000
1000
0000
0000
0000
0000
0000
0000
0000
,  // measure 8
0001
0100
0010
1000
0010
0100
0000
0000
,  // measure 9
0001
0000
1000
0010
1000
0010
0100
0000
0000
0000
0100
0001
0010
0000
0001
0100
,  // measure 10
0001
0010
0001
0000
1000
0000
0001
0100
1000
0000
0100
0001
0010
0000
0100
0000
,  // measure 11
1000
0000
0010
1000
0010
0100
0001
0000
1000
0001
0100
0000
0001
1000
0001
0100
,  // measure 12
0010
1000
0010
0000
0100
0000
0001
0000
1000
0001
1000
0000
1001
0000
0000
0000
,  // measure 13
1000
0000
0001
0100
0001
0100
0010
0000
0000
0000
0010
1000
0100
0000
1000
0010
,  // measure 14
1000
0100
1000
0000
0001
0000
1000
0010
0001
0000
0010
1000
1010
0000
0000
0000
,  // measure 15
0110
0000
0101
0000
1001
0000
0000
0000
1100
0000
0110
0000
0011
0001
0010
0100
,  // measure 16
1000
0001
0010
0001
1001
0000
0001
0100
0101
0000
0001
1000
1001
0000
0110
0000
,  // measure 17
0001
0100
0010
0000
1000
0010
0100
0000
0001
0100
0010
0000
1000
0100
0010
0001
,  // measure 18
0010
0100
1000
0000
0001
0010
0100
0000
1000
0001
0100
0000
0010
1000
0001
0100
,  // measure 19
0010
1000
0001
0000
1000
0010
1000
0000
0001
0100
0001
0000
1000
0100
0010
0001
,  // measure 20
0010
0100
1000
0000
0001
0010
0100
0000
1000
0001
0100
0000
0010
1000
0001
0100
,  // measure 21
0010
1000
0001
0000
0100
0010
1000
0000
0010
1000
0010
0000
0100
0001
0100
0001
,  // measure 22
0010
0001
0010
0000
0100
0010
0100
0000
1000
0100
1000
0000
0001
1000
0010
0100
,  // measure 23
0001
0100
0010
1000
0100
0010
0001
0010
0100
1000
0010
0100
0001
0010
0100
1000
,  // measure 24
0010
0100
0001
1000
0100
1000
0001
0010
0100
1000
0010
0100
0001
0100
0010
1000
,  // measure 25
0010
0100
0010
0000
1000
0010
1000
0000
0010
0100
0010
0000
1000
0010
1000
0000
,  // measure 26
0010
0100
0010
0000
1000
0010
1000
0000
0010
0100
0010
0000
1000
0010
1000
0000
,  // measure 27
0001
0100
0001
0000
0100
0010
0100
0000
0001
0100
0001
0000
0100
0010
0100
0000
,  // measure 28
0001
0100
0001
0000
0100
0010
0100
0000
0001
0100
0001
0000
0100
0010
0100
0000
,  // measure 29
0010
1000
0010
0000
1000
0001
1000
0000
0010
1000
0010
0000
1000
0001
1000
0000
,  // measure 30
0010
1000
0010
0000
1000
0001
1000
0000
0010
1000
0010
0000
1000
0001
1000
0000
,  // measure 31
0001
0010
0001
0000
1000
0001
1000
0000
0001
0010
0001
0000
1000
0001
1000
0000
,  // measure 32
0001
0010
0001
0000
1000
0001
1000
0000
0001
0010
0001
0000
1000
0001
1000
0000
,  // measure 33
0001
0100
0001
0000
0100
0001
0100
0000
0001
0100
0001
0000
0100
0001
0100
0000
,  // measure 34
0001
0100
0001
0000
0100
0001
0100
0000
0001
0100
0001
0000
0100
0000
0000
0000
,  // measure 35
0100
0010
0100
0000
0010
0100
0010
0000
0100
0010
0100
0000
0010
0100
0010
0000
,  // measure 36
0100
0010
0100
0000
0010
0100
0010
0000
0100
0010
0100
0000
0010
0000
0000
0000
,  // measure 37
1000
0010
1000
0000
0010
1000
0010
0000
1000
0010
1000
0000
0010
1000
0010
0000
,  // measure 38
1000
0010
1000
0000
0010
1000
0010
0000
1000
0010
1000
0000
0010
0000
0000
0000
,  // measure 39
0100
0010
0100
0000
0010
0100
0010
0000
0100
0010
0100
0000
0010
0100
0010
0000
,  // measure 40
0100
0010
1000
0010
0100
0001
0000
0000
,  // measure 41
1000
0010
1000
0001
0100
0001
0010
0001
0010
0100
1000
0100
1000
0001
1000
0000
,  // measure 42
0001
0001
0200
0000
0310
0010
2000
0000
3100
0100
0020
0000
0031
0001
0200
0000
,  // measure 43
0310
1000
0010
0100
0001
0100
0001
0010
0001
1000
0100
1000
0001
0100
0010
0000
,  // measure 44
1000
1000
0020
0000
0130
0100
0002
0000
0013
0010
0200
0000
1300
0001
2000
0000
,  // measure 45
3001
0100
0001
1000
0100
1000
0001
0010
0001
1000
0100
1000
0010
0100
0001
0000
,  // measure 46
1000
1000
0020
0000
0130
0100
0002
0000
0013
0010
0200
0000
1300
1000
0020
0000
,  // measure 47
0130
0001
0100
0010
1000
0010
0100
0001
0100
0001
0010
0001
1000
0100
1000
0000
,  // measure 48
0001
0001
0200
0000
0310
0010
2000
0000
3010
0010
0200
0000
0301
0001
2000
0000
,  // measure 49
3001
0100
0010
1000
0000
1000
0010
0100
0001
1000
0000
1000
0001
0010
0100
0000
,  // measure 50
1000
0001
0010
0001
0000
0001
1000
0010
0100
0001
0000
1000
0001
0100
0010
0000
,  // measure 51
1000
0010
0100
0001
0000
0001
1000
0100
1000
0001
0000
0001
0010
0001
0100
0000
,  // measure 52
0010
1000
0100
1000
0000
1000
0001
0010
0001
0100
0000
0100
0010
1000
0010
0000
,  // measure 53
0100
0001
0100
0010
0000
0010
1000
0001
0100
0010
1000
0100
0000
0100
0010
0001
,  // measure 54
1000
0100
1000
0001
0000
0001
0010
0100
1000
0010
0100
0001
0000
0001
0100
0010
,  // measure 55
1000
0010
0100
0001
0010
0100
1000
0010
0100
0001
0010
0100
1000
0001
0100
0001
,  // measure 56
1000
0100
1000
0001
0010
0100
1000
0010
0100
0001
1000
0100
0010
0100
1000
0001
,  // measure 57
1000
0100
0010
0001
0000
0001
0010
0000
0100
1000
0010
0100
0000
0001
0100
0000
,  // measure 58
0010
1000
0100
0010
0000
0010
0100
0000
1000
0010
0100
0001
0000
0100
0010
1000
,  // measure 59
0010
1000
0001
0100
0000
0100
0010
0000
1000
0100
1000
0001
0000
0001
0010
0000
,  // measure 60
0001
0100
0010
1000
0000
1000
0010
0000
0100
0001
0010
0100
1000
0001
0010
0001
,  // measure 61
0100
0010
1000
0001
0000
0001
1000
0000
0100
0010
0001
1000
0000
0010
1000
0000
,  // measure 62
0010
0100
0001
0100
0000
0100
0010
0000
1000
0010
1000
0001
0000
0100
0010
0000
,  // measure 63
1000
0010
0100
0001
0000
0001
0100
0000
0001
0010
0100
1000
0001
0010
0100
0000
,  // measure 64
1000
0010
0100
0000
0001
0100
0010
0000
1000
0100
0010
0001
0010
0100
1000
0000
,  // measure 65
0001
0010
0001
1000
0000
1000
0100
0010
0001
0100
0010
1000
0000
1000
0010
0100
,  // measure 66
0001
0100
0010
1000
0100
0010
0001
0100
0010
1000
0100
0010
0001
1000
0010
1000
,  // measure 67
0001
0010
0001
1000
0100
0010
0001
0100
0010
1000
0001
0010
0100
0010
0001
1000
,  // measure 68
0001
0010
0100
1000
0000
1000
0100
0000
0010
0001
0100
0010
0000
1000
0010
0000
,  // measure 69
0100
0001
0010
0100
0000
0100
0010
0000
0001
0100
0010
1000
0000
0010
0100
0001
,  // measure 70
0100
0001
1000
0010
0000
0010
0100
0000
0001
0010
0001
1000
0000
1000
0100
0000
,  // measure 71
1000
0010
0100
0001
0000
0001
0100
0000
0010
1000
0100
0010
0001
1000
0100
1000
,  // measure 72
0010
0100
0001
1000
0000
1000
0001
0000
0010
0100
1000
0001
0000
0100
0001
0000
,  // measure 73
2002
0000
0000
0000
,  // measure 74
3003
0000
0000
0000
;
