#TITLE:Trance Sucks;
#SUBTITLE:;
#ARTIST:Punisher feat. Azrael;
#TITLETRANSLIT:;
#SUBTITLETRANSLIT:;
#ARTISTTRANSLIT:;
#CREDIT:;
#BANNER:trance.png;
#BACKGROUND:trance-bg.png;
#LYRICSPATH:;
#CDTITLE:;
#MUSIC:trance.ogg;
#OFFSET:0.000;
#SAMPLESTART:31.914;
#SAMPLELENGTH:12.000;
#SELECTABLE:YES;
#BPMS:0.000=180.147;
#STOPS:;
#BGCHANGES:;

//---------------dance-single - Renard----------------
#NOTES:
     dance-single:
     Renard:
     Challenge:
     12:
     0.635,0.884,0.073,0.104,0.583:
0000
0000
0000
0000
,
0000
0000
0000
0000
,
0000
0000
0000
0000
,
0000
0000
0000
0000
,
1001
1000
1000
1000
,
1000
1000
1000
1000
,
2002
0000
0000
0000
,
0000
0000
3013
0000
,
1000
0000
0000
0100
0000
0000
0010
0000
0001
0000
0000
0000
0000
0000
0000
0000
,
1000
0000
0000
0010
0000
0000
1000
0000
0001
0000
0000
0000
0000
0000
0000
0000
,
0010
0000
0000
0001
0000
0000
1000
0000
0001
0000
0000
0000
0000
0000
0000
0000
,
1000
0000
1000
0100
0000
0100
1000
0000
0010
0000
0000
0000
0000
0000
0000
0000
,
1000
0000
0000
0100
0000
0000
0010
0000
0001
0000
0000
0000
0000
0000
0000
0000
,
1000
0000
1000
0010
0000
0010
0100
0000
0001
0000
0000
0000
0000
0000
0000
0000
,
1000
0000
0000
0001
0000
0000
0010
0000
0100
0000
0000
0000
0000
0000
0000
0000
,
1000
0000
0000
0010
0000
0000
0100
0000
0001
0000
0000
0000
0000
0000
0000
0000
,
1000
0000
0000
0000
0000
0000
0001
0000
0100
0000
0010
0100
0000
0000
0010
0000
,
0000
0000
0000
0000
1000
0000
0000
0000
0100
0000
0010
0100
0000
0000
0010
0000
,
0000
0000
0000
0000
0000
0000
0100
0000
1000
0000
0001
1000
0000
0000
0001
0000
,
0000
0000
0000
0000
0000
0000
0100
0000
0010
0000
1000
0001
0000
0000
0000
0000
,
0000
0000
0000
0000
0000
0000
0100
0000
0010
0000
1000
0010
0000
0000
1000
0000
,
0000
0000
0000
0000
0000
0000
0010
0000
0100
0000
0001
0100
0000
0000
0001
0000
,
0000
0000
0000
0000
0000
0000
0010
0000
0100
0000
1000
0100
0000
0000
1000
0000
,
0000
0000
0000
0000
0000
0000
0010
0000
1000
0000
0001
0100
0001
0000
0000
0000
,
0000
0000
0000
0000
0000
0000
0010
0000
0001
0000
0100
0010
0000
0000
0100
0000
,
0000
0000
0000
0000
0000
0000
0010
0000
1000
0000
1000
0001
0000
0000
1000
0000
,
0000
0000
0000
0000
0000
0000
0001
0000
0010
0000
1000
0010
0000
0000
1000
0000
,
0000
0000
0000
0000
0000
0000
0010
0000
0100
0000
0010
0001
0000
0000
0000
0000
,
0000
0000
0000
0000
0000
0000
0010
0000
0100
0000
1000
0001
0000
0000
0001
0000
,
0000
0000
0000
0000
0000
0000
1000
0000
0100
0000
0010
0001
0000
0000
0010
0000
,
0000
0000
0000
0000
0000
0000
0100
0000
1000
0000
0001
0100
0000
0000
0010
0000
,
0000
1000
0010
0100
0001
0100
0110
0000
,
0010
1000
0001
0100
,
0010
0000
0000
0000
0000
0000
0000
1000
1000
0000
0010
0000
0100
0000
0000
0000
,
0001
0000
0100
0000
0001
1000
0001
0000
,
0010
0000
0000
0000
0000
0000
0000
0100
0100
0000
1000
0000
0001
0000
0000
0000
,
0100
0010
1000
0001
,
0100
0000
0000
0000
0000
0000
0000
0010
0010
0000
1000
0000
1000
0000
0000
0000
,
1001
0000
0100
0020
2000
0000
0001
3030
,
0020
0200
1000
0331
,
0010
1000
0010
0000
0100
0000
0001
0000
1000
0000
0100
0010
0001
1000
0000
0001
,
0100
0001
1000
0000
0001
0000
0100
0001
1000
0000
0001
0100
0000
0001
0000
1000
,
0100
0001
0100
0000
0010
0000
1000
0000
0001
0000
0100
0010
0001
1000
0000
0010
,
0100
0001
1000
0000
1000
0000
0010
1000
0001
0000
1000
0010
0000
1000
0000
0001
,
0100
0001
0100
0000
0010
0000
1000
0000
0001
0000
0010
0100
1000
0001
0000
1000
,
0010
1000
0001
0000
1000
0000
0010
1000
0001
0000
1000
0010
0000
1000
0000
0001
,
0010
1000
0010
0000
0100
0000
0001
0000
1000
0000
0010
0100
1000
0001
0000
0100
,
0010
1000
0001
0000
0001
0000
0100
0001
1000
0000
0001
0100
0000
0001
0000
1000
,
0201
0000
0000
0000
0000
0000
1000
0010
,
0000
0001
0000
0010
1000
0000
0010
0000
,
0001
0000
0000
0000
,
0001
0000
1000
0010
0000
0001
0010
0000
,
0010
0000
0000
0000
1000
0000
0010
0010
,
0010
0010
0010
0010
0010
0000
0001
0000
,
1000
0000
0010
0000
0001
0000
0010
1000
,
0010
0010
0002
1313
,
0100
0001
0100
0000
0010
0000
1000
0000
0001
0000
0010
0100
1000
0001
0000
1000
,
0010
1000
0001
0000
1000
0000
0010
1000
0001
0000
1000
0010
0000
1000
0000
0001
,
0010
1000
0010
0000
0100
0000
0001
0000
1000
0000
0010
0100
1000
0001
0000
0100
,
0010
1000
0001
0000
0001
0000
0100
0001
1000
0000
0001
0100
0000
0001
0000
1000
,
0010
1000
0010
0000
0100
0000
0001
0000
1000
0000
0100
0010
0001
1000
0000
0001
,
0100
0001
1000
0000
0001
0000
0100
0001
1000
0000
0001
0100
0000
0001
0000
1000
,
0100
0001
0100
0000
0010
0000
1000
0000
0001
0000
0100
0010
0001
1000
0000
0010
,
0100
0001
1000
0000
1000
0000
0010
1000
0001
0000
1000
0010
0000
1000
0000
0001
,
1000
0000
0000
0000
0000
0000
0001
0010
0100
1000
0100
0000
0000
0000
0010
0000
,
0000
0000
0000
0000
0000
0000
0001
0010
0100
1000
0001
0000
0000
0000
0010
0000
,
0000
0000
0000
0000
0000
0000
0100
1000
0010
0100
0001
0000
0000
0000
0100
0000
,
0000
0000
0000
0000
0000
0000
0010
0100
0001
0010
0100
0000
0000
0000
0010
0000
,
0000
0000
0000
0000
0000
0000
0100
1000
0001
0100
0010
0000
0000
0000
0100
0000
,
0000
0000
0000
0000
0000
0000
0010
1000
0100
0010
0001
0000
0000
0000
0010
0000
,
2002
0000
0000
3013
;

//---------------dance-single - Renard----------------
#NOTES:
     dance-single:
     Renard:
     Hard:
     8:
     0.607,0.663,0.135,0.021,0.000:
0000
0000
0000
0000
,
0000
0000
0000
0000
,
0000
0000
0000
0000
,
0000
0000
0000
0000
,
1000
0000
0001
0000
,
0000
0100
0100
0000
,
0010
0000
0000
0000
,
0000
0000
0000
0000
,
0010
1000
0001
1000
0100
1000
0010
1000
,
0001
1000
0100
1000
0010
0010
0010
0000
,
1000
0001
0100
0001
0010
0001
1000
0001
,
0100
0001
0010
0001
1000
1000
1000
0000
,
0001
1000
0010
1000
0100
1000
0001
1000
,
0010
1000
0100
1000
0001
0001
0001
0000
,
0010
0001
0100
0001
1000
0001
0010
0001
,
0100
0001
1000
0001
0010
0000
0000
0000
,
0001
0000
0000
1000
0010
0100
0001
0010
,
0000
0000
0000
0001
0010
0100
1000
0010
,
0000
0000
0000
0100
0001
0010
0100
1000
,
0000
0000
0000
0001
0100
0010
1000
0000
,
0000
0000
0000
0010
1000
0100
0010
0001
,
0000
0000
0000
0010
0100
1000
0010
0100
,
0000
0000
0000
0001
0010
0100
1000
0001
,
0000
0100
0010
1000
0100
0010
0001
0000
,
0010
0100
1000
0001
0100
0010
1000
0010
,
1000
0100
0010
0001
0100
0010
0100
0010
,
1000
0100
0010
0001
0100
0010
0100
0010
,
1000
0100
0010
0001
0000
0001
0010
0100
,
1000
0001
0100
0010
1000
0010
1000
0010
,
1000
0100
0010
0001
0100
0010
0100
0010
,
1000
0100
0010
0001
0100
0010
0100
0010
,
1000
0100
0010
0001
0000
0001
0010
0100
,
1000
0001
0000
0100
0000
0010
0000
1000
,
0000
0100
0000
0010
0000
0000
0000
0000
,
0010
0001
0010
0100
0010
1000
0010
0100
,
0010
0001
0010
0100
0010
0001
0010
0100
,
1000
0010
0000
0100
0000
0001
0000
0010
,
0000
0001
0000
1000
0000
0000
0000
0000
,
0010
0000
1000
0100
0010
0000
0011
0000
,
0110
1100
1001
1001
,
0001
1000
0100
1000
0001
1000
0010
1000
,
0000
0000
0000
0001
1000
0000
0001
0000
,
0100
0000
0001
0010
0001
1000
0010
1000
,
0000
0000
0000
0001
0100
0000
1010
0000
,
1000
0000
0010
0100
0001
0000
0010
0001
,
0000
0000
0000
1000
0100
0000
0010
0000
,
0001
0000
0010
0100
1000
0000
0001
0100
,
0000
0000
0001
1000
,
0100
1000
0001
0010
0000
0000
0001
1000
,
0000
0110
0000
0001
1000
0000
0110
0000
,
0010
1000
0001
0100
0010
1000
0010
0100
,
0101
0000
0100
0110
0000
0010
1010
0000
,
1010
0000
1000
0100
0010
0001
0010
0001
,
0010
0100
1000
0100
0010
0001
0100
0010
,
1000
0100
1000
0001
0010
0001
1000
0010
,
0100
0001
0010
0100
1000
0000
1001
0000
,
1000
0100
1000
0001
1000
0010
1000
0001
,
0000
1000
0100
0010
0001
0010
0000
0100
,
0000
1000
0100
0010
0001
0010
0000
0100
,
0000
1000
0010
0100
0001
0010
0001
1000
,
0001
0010
0001
0100
0001
1000
0000
0001
,
0000
0100
0010
1000
0001
0100
0000
0010
,
0000
1000
0010
0100
0001
0100
0000
0010
,
0000
1000
0100
1000
0010
1000
0001
1000
,
0100
0010
0001
0010
0001
1000
0001
0100
,
0000
0001
1000
0100
1000
0010
1000
0001
,
0000
0001
1000
0001
0010
0001
0100
0001
,
0000
1000
0100
1000
0010
1000
0001
0000
,
1000
0100
0010
0001
1000
0001
0100
0001
,
0000
1000
0100
1000
0010
1000
0001
2000
,
0002
0000
0000
3013
;

//---------------dance-single - Renard----------------
#NOTES:
     dance-single:
     Renard:
     Medium:
     6:
     0.435,0.479,0.104,0.010,0.000:
0000
0000
0000
0000
,
0000
0000
0000
0000
,
0000
0000
0000
0000
,
0000
0000
0000
0000
,
1001
0000
0110
0000
,
0000
0110
1001
0000
,
2000
0000
0000
0000
,
0000
0000
0000
0000
0100
3000
0000
0000
,
1000
1000
1000
1000
,
0100
0000
0100
0000
0010
0001
0010
0000
,
0100
0100
1000
1000
,
0010
0000
0010
0000
0100
0001
0100
0001
,
0100
0100
0001
0001
,
0010
0000
0010
0000
0100
1000
0100
1000
,
0010
0010
0100
0100
,
0001
0100
1010
0000
,
1000
0000
0100
0010
0001
0010
0100
0000
,
1000
0000
0100
0010
0001
0010
0100
0000
,
1000
0000
0100
0010
0001
0010
0100
0000
,
1000
0000
0100
0010
0001
0010
0100
0000
,
1000
0000
0100
0010
0001
0010
0100
0000
,
1000
0000
0100
0010
0001
0010
0100
0000
,
1000
0000
0100
0010
0001
0010
0100
0000
,
1000
0000
0001
0000
1000
0010
1000
0000
,
0001
0000
0100
0000
0010
0000
0010
1000
,
0100
0100
0010
0000
,
0001
0010
0100
0100
,
0100
1000
0100
0000
,
1000
0000
1000
0000
0010
0000
0010
0100
,
0001
0100
0010
1000
,
0010
0010
1000
1000
,
0100
0000
0010
0000
0001
0010
0001
0000
,
0010
0100
1000
0001
,
0100
0000
0010
0000
1000
0010
1000
0000
,
0010
0100
0001
0010
,
0100
0000
1000
0000
0001
1000
0001
0000
,
0100
0010
1000
0100
,
1000
0000
0001
0000
0010
0001
0010
0000
,
0001
0001
0010
0010
,
0100
0100
1000
1000
,
0001
0000
0100
0000
0001
0000
1000
0001
,
0000
0000
0000
0000
1000
0000
0001
1000
,
0001
0000
0100
0000
0001
0000
1000
0001
,
0000
0000
0100
1001
,
1000
0000
0100
0000
1000
0000
0001
1000
,
0000
0000
0000
0000
0001
0000
0100
0001
,
1000
0000
0001
0000
0100
0000
0001
1000
,
0000
0000
1001
0110
,
0010
0000
1000
0010
0000
0000
0000
0100
,
0000
0001
0000
0010
0000
0100
0000
1000
,
0001
0000
0100
0010
0000
0000
0000
1000
,
0000
0010
0000
0100
0000
0001
0010
0000
,
0100
0000
1000
0001
0000
0000
0100
0010
,
0000
1000
0000
0010
0000
0100
0000
0001
,
1000
0000
0100
0010
0001
0000
0000
0010
,
0000
0100
0000
1000
0010
0000
1010
0000
,
1000
0000
0010
1000
0001
1000
0000
0001
,
0000
0000
0000
0100
0001
1000
0000
0001
,
0000
0000
0000
1000
0100
1000
0000
0100
,
0000
0000
0000
0010
0001
0010
0000
0001
,
0000
0000
0000
1000
0001
1000
0000
0001
,
0000
0000
0000
0100
0001
0100
0000
0001
,
0000
0000
0000
1000
0100
1000
0000
0001
,
0000
0000
0000
0010
0001
1000
0000
0010
,
0000
0000
0000
1000
0001
1000
0000
0001
,
0000
0000
0000
0100
0010
0100
0000
0010
,
0000
0000
0000
1000
0010
1000
0000
1000
,
0000
0000
0000
0001
0010
0001
0000
0001
,
0000
0000
0000
0100
0010
0100
0000
0010
,
0000
0000
0000
1000
0010
1000
0000
0001
,
1000
0000
0000
1001
;

//---------------dance-single - Renard----------------
#NOTES:
     dance-single:
     Renard:
     Easy:
     2:
     0.272,0.332,0.000,0.021,0.000: // measure 1
0000
0000
0000
0000
,  // measure 2
0000
0000
0000
0000
,  // measure 3
0000
0000
0000
0000
,  // measure 4
0000
0000
0000
0000
,  // measure 5
1000
0000
0100
0000
,  // measure 6
0000
0010
0001
0000
,  // measure 7
2000
0000
0000
0000
,  // measure 8
0000
0000
3001
0000
,  // measure 9
1000
0000
1000
0000
,  // measure 10
0001
0100
0001
0000
,  // measure 11
0010
0000
0010
0000
,  // measure 12
0001
1000
0001
0000
,  // measure 13
1000
0000
1000
0000
,  // measure 14
0010
1000
0100
0000
,  // measure 15
1000
0000
1000
0000
,  // measure 16
0001
0010
0001
0000
,  // measure 17
1000
0000
0100
0000
,  // measure 18
1000
0000
0001
0000
,  // measure 19
1000
0000
0010
0000
,  // measure 20
1000
0001
1000
0001
,  // measure 21
0100
0000
0001
0000
,  // measure 22
0010
0000
0001
0000
,  // measure 23
1000
0000
0001
0000
,  // measure 24
0100
0010
1000
0001
,  // measure 25
0100
0000
0001
1000
,  // measure 26
0001
0000
1000
0100
,  // measure 27
1000
0000
0001
0010
,  // measure 28
0001
0000
0001
0000
,  // measure 29
0010
0000
0001
1000
,  // measure 30
0001
0000
1000
0100
,  // measure 31
1000
0000
0001
0010
,  // measure 32
0001
1000
0010
0100
,  // measure 33
0001
0000
0001
0000
,  // measure 34
0100
0000
0100
0000
,  // measure 35
0010
0000
0010
0000
,  // measure 36
1000
0000
0100
1000
,  // measure 37
0001
0000
0010
0000
,  // measure 38
0001
0000
1000
0000
,  // measure 39
0010
0010
0010
0010
,  // measure 40
0010
0010
0010
0010
,  // measure 41
0100
0000
0100
0010
,  // measure 42
0100
0000
0010
0100
,  // measure 43
0010
0000
0100
0010
,  // measure 44
0100
0000
0010
0000
,  // measure 45
1000
0000
0001
1000
,  // measure 46
0001
0000
1000
0001
,  // measure 47
1000
0000
0001
1000
,  // measure 48
0001
0000
1000
0001
,  // measure 49
1000
0000
1000
0000
,  // measure 50
0100
0100
0100
0000
,  // measure 51
0010
0000
0010
0000
,  // measure 52
0001
0001
0001
0001
,  // measure 53
0100
0000
0100
0000
,  // measure 54
0010
1000
0010
1000
,  // measure 55
0010
0100
0010
1000
,  // measure 56
0010
0100
0010
0000
,  // measure 57
1000
0000
1000
0100
,  // measure 58
0010
0000
0010
0001
,  // measure 59
0010
0000
0010
0100
,  // measure 60
1000
0000
0001
0100
,  // measure 61
0001
0000
1000
0001
,  // measure 62
0010
0000
0001
1000
,  // measure 63
0010
0000
1000
0001
,  // measure 64
0010
0000
0001
0000
,  // measure 65
1000
0000
0010
0100
,  // measure 66
0001
0000
0100
0010
,  // measure 67
1000
0000
0100
0010
,  // measure 68
0001
0000
0010
0100
,  // measure 69
1000
0000
0001
0100
,  // measure 70
0010
0000
1000
0100
,  // measure 71
2000
0000
0000
3100
;
