#TITLE:Tragedy of the Kung Fu Fighter;
#SUBTITLE:;
#ARTIST:Detergent;
#TITLETRANSLIT:;
#SUBTITLETRANSLIT:;
#ARTISTTRANSLIT:;
#CREDIT:;
#BANNER:fu.png;
#BACKGROUND:fu-bg.png;
#LYRICSPATH:;
#CDTITLE:;
#MUSIC:fu.ogg;
#OFFSET:0.000;
#SAMPLESTART:35.284;
#SAMPLELENGTH:12.000;
#SELECTABLE:YES;
#BPMS:0.000=135.111;
#STOPS:;
#BGCHANGES:;

//---------------dance-single - Renard----------------
#NOTES:
     dance-single:
     Renard:
     Hard:
     8:
     0.498,0.459,0.436,0.016,0.060:
0000
0000
0000
0000
,
0000
0000
0000
0000
,
0000
0000
0000
0000
,
0000
0000
0000
0000
0000
0000
0000
0000
0000
0000
1000
0001
1000
0000
0001
0000
,
0100
0000
0010
1000
0000
0100
1000
0000
,
0001
0000
0011
0000
0010
0100
0110
0000
,
1100
0000
1000
1010
0000
0010
0110
0000
,
0101
0000
0001
0100
0010
1000
0100
0000
,
1001
0000
0001
0100
0000
0010
1000
0000
,
1001
1100
1001
1010
,
1100
0000
0100
0110
0000
0010
0011
0000
,
1001
0000
0001
0100
0010
1000
0010
1000
,
0100
0010
0001
0010
0000
0010
0100
0000
,
1000
0010
0100
0001
0000
0001
0100
0000
,
0010
1000
0100
1000
0001
0010
0001
0100
,
0010
0010
1000
0100
0000
0100
1000
0000
,
1000
0010
0100
0001
0000
1000
0000
0001
,
0100
0010
1000
0100
0010
0001
0010
0100
,
1000
0001
0100
0010
1000
0000
0010
1000
,
0100
0010
0000
0001
0010
0100
1000
0001
,
1000
0100
0010
0001
0000
0000
0001
1000
,
0100
0010
0100
1000
0001
0010
0000
0010
,
0001
1000
0100
0010
0001
0000
0000
0001
,
0010
0100
1000
0100
0010
0001
0011
0000
,
0001
0010
0100
1000
0001
0000
0001
1000
,
0100
0010
0001
0010
0100
0000
0000
0100
,
0010
0001
1000
0100
0100
0000
1100
0000
,
0100
1000
0001
0010
0010
0000
0011
0000
,
1000
0000
1001
0000
0001
0100
0101
0000
,
1000
0000
1001
0000
1000
0100
1100
0000
,
0001
0100
0010
1000
0100
0010
0001
0010
,
0100
1000
0001
0100
0010
1000
0100
1000
,
0001
1000
0001
1000
0001
0000
1001
0000
,
1000
0001
1000
0001
1000
0000
1001
0000
,
0010
1000
0010
1000
0001
0100
0001
0100
,
0001
0010
0100
1000
0100
0010
0001
0000
,
0001
0100
0010
1000
0010
1000
0001
0100
,
0001
0100
0010
1000
0010
1000
0010
1000
,
0001
0100
0001
1000
0010
1000
0001
1000
,
0010
1000
0001
0100
0001
1000
0010
1000
,
0001
0100
0001
1000
0010
0000
1010
0000
,
0010
1000
0001
0100
0001
0000
0101
0000
,
0100
0001
1000
0010
0000
0010
0100
0001
,
0100
0010
1000
0001
0100
0000
0101
0000
,
1011
0000
0000
0000
,
2000
0000
0000
0000
,
3002
0000
0000
0000
,
0103
0000
0000
0000
,
1011
0000
0000
1011
0000
0000
1011
0000
,
1011
0000
0000
0000
,
1101
0000
0000
1101
0000
0000
1101
0000
,
1101
0000
0000
0000
,
1000
0000
0000
1000
0001
0000
0100
0000
0000
0000
0100
0010
1000
0000
0100
0000
,
0010
0011
0110
1100
,
0001
0000
0000
0001
1000
0000
0010
0000
0000
0000
0010
0100
0001
0000
0100
0000
,
0010
1010
1001
1100
,
1000
0000
0000
1000
0010
0000
0100
0000
0000
0000
0001
0100
0001
0000
0100
0000
,
0010
1010
1000
1100
,
0100
0000
0000
0100
1000
0000
0010
0000
0000
0000
0100
0001
0100
0000
0001
0000
,
0100
0101
1000
1100
,
1000
0000
0000
1000
0001
0000
0100
0000
0000
0000
0010
0000
1000
0000
0010
0000
,
1000
0000
0100
1000
0100
0000
1000
0000
0001
0000
0010
0000
0001
0000
0000
0000
,
1001
0000
0000
0000
0001
0000
0100
0000
0000
0000
0010
1000
0010
0000
1000
0000
,
0100
1100
1001
1010
,
1010
0000
0000
0000
0010
0000
1000
0010
1000
0000
0001
0000
0100
0000
0000
0000
,
0001
0000
0100
0010
1000
0000
0100
1000
,
0001
0000
0000
0001
0010
0000
0100
0000
0000
0000
0100
1000
0010
0000
1000
0000
,
0010
1010
1001
1100
,
1001
0000
0000
0000
;

//---------------dance-single - ----------------
#NOTES:
     dance-single:
     Renard:
     Challenge:
     9:
     0.605,0.620,0.278,0.071,0.301:
0000
0000
0000
0000
,
0000
0000
0000
0000
,
0000
0000
0000
0000
,
0000
0000
0000
0000
0000
0000
0000
0000
0000
0000
0001
1000
0001
0000
0000
0000
,
0001
0000
0000
0001
0100
0000
0010
0000
0000
0000
0010
1000
0100
0000
0000
0000
,
1100
0000
0000
0000
1010
0000
0000
0000
1001
0000
0001
1000
0001
0000
0100
0000
,
0101
0000
0000
0001
0100
0000
0010
0000
0000
0000
0010
1000
0100
0000
1000
0000
,
1001
0000
0000
0000
1100
0000
0000
0100
1000
0000
0010
0000
1001
0000
0100
0000
,
1001
0000
0001
0101
0000
0001
0101
0000
,
0001
0000
1000
0001
1000
0000
0001
0100
0001
0000
1000
0001
1000
0000
0001
0000
,
1000
0000
0000
1000
0010
0000
1000
0000
0000
1000
0010
0000
0100
0000
0001
0000
,
0010
0000
0000
0000
0100
0000
1000
0010
1000
0000
0010
0000
0100
0000
0001
0000
,
0100
0010
1000
0100
0010
0001
1000
0001
,
0100
0001
0100
0001
0100
0000
0001
0000
0100
0000
0010
0000
1000
0000
0100
0000
,
1000
0001
0010
0100
1000
0001
0100
0010
,
1000
0100
1000
0100
1000
0000
0100
0000
1000
0100
1000
0100
1000
0000
0100
0000
,
1000
0010
0100
0001
1000
0001
0100
0001
,
0010
0100
1000
0001
0010
0001
0100
0001
,
1000
0001
1000
0001
1000
0000
0001
0000
0100
0001
0100
0001
0100
0000
0001
0000
,
0010
0001
0010
0001
0010
0000
0001
0000
1000
0000
0001
0000
1000
0000
0001
0000
,
0001
0100
0010
1000
0100
0010
0001
0010
,
0100
1000
0001
0100
0010
1000
0100
1000
,
0001
1000
0001
1000
0001
0000
1000
0010
1000
0010
1000
0000
0001
1000
0001
1000
,
0001
0100
0001
1000
0100
0010
0110
0000
,
0100
1000
0010
0100
0001
0010
0001
0100
,
0010
1000
0100
0010
0001
0010
0100
1000
,
0001
1000
0001
1000
0001
0000
1000
0010
1000
0010
1000
0000
0100
1000
0100
1000
,
0100
1000
0010
0100
0001
0010
0100
1000
,
0001
0000
0000
0001
0100
0000
0010
0000
1000
0000
0000
1000
0100
0000
0010
0000
,
0001
0000
0000
0001
0010
0000
0100
0000
1000
0000
0100
1000
0100
0000
1000
0000
,
0010
0000
0000
0010
0100
0000
0001
0000
0100
0000
0000
0100
0010
0000
1000
0000
,
0100
0000
0000
0100
1000
0000
0010
0000
0100
0000
0001
0100
0001
0000
0100
0000
,
0001
1000
0001
1000
0001
1000
0001
1000
,
0010
1000
0010
1000
0010
1000
0010
1000
,
0100
1000
0100
1000
0100
1000
0100
1000
,
0001
1000
0001
0000
1000
0000
0001
0100
0001
0000
1000
0010
1000
0010
1000
0010
,
1000
0010
0100
0001
0010
0100
1000
0100
,
0010
0001
0100
0010
1000
0100
1000
0001
,
0010
0001
1000
0001
0100
0001
1000
0010
,
1000
0001
1000
0001
1000
0000
0010
1000
0010
1000
0010
1000
0100
0000
1000
0000
,
0100
1000
0001
0010
0100
1000
0001
0100
,
0010
1000
0100
0010
0100
1000
0001
0010
,
0100
0010
0001
1000
0010
0100
0001
1000
,
0001
1000
0001
1000
0001
0000
0100
0001
0100
0001
0100
0001
0010
0000
0000
0000
,
0002
0000
0020
0003
0200
0030
2000
0300
,
0020
0000
0000
0000
0030
0001
0100
0000
,
0020
0000
0030
3020
2000
0030
0200
3300
,
M11M
0000
0000
0000
,
111M
0000
0000
M111
0000
0000
111M
0000
,
M111
0000
0000
0000
,
1M11
0000
0000
11M1
0000
0000
1M11
0000
,
11M1
0000
0000
0000
,
1000
0000
0001
0000
0101
0000
0000
0000
0000
0000
0001
0000
1000
0100
0000
0000
,
1000
0000
0001
0000
1001
0000
0000
0000
0000
0000
0001
0100
0001
0000
0100
0000
,
0010
0000
1000
0000
1010
0000
0000
0000
0000
0000
1000
0000
0100
1000
0000
0000
,
0010
0000
0100
0000
0101
0000
0000
0000
0000
0000
0001
1000
0001
0000
0100
0000
,
0001
0000
1000
0000
1001
0000
0000
0000
0000
0000
1000
0000
0100
1000
0000
0000
,
1000
0000
0010
0000
1010
0000
0000
0000
0000
0000
0010
1000
0001
0000
0100
0000
,
0001
0000
1000
0000
1001
0000
0000
0000
0000
0000
0001
0000
0100
0001
0000
0000
,
0100
0000
0010
0000
0110
0000
0000
0000
0000
0000
1000
0010
1000
0000
0010
0000
,
1000
0000
0000
0000
1010
0000
0000
0000
0000
0000
1000
0000
0100
0010
0000
0000
,
0001
0000
0010
0000
0011
0000
0000
0000
0000
0000
0010
0100
0010
0000
0100
0000
,
1000
0000
0000
0000
1010
0000
0000
0000
0000
0000
0100
0000
0001
0100
0000
0000
,
0001
0000
1000
0000
1001
0000
0000
0000
0000
0000
1000
0100
0010
0000
0100
0000
,
0010
0000
0100
0000
1100
0000
0000
0000
0000
0000
1000
0000
0010
1000
0000
0000
,
0010
0000
0100
0000
0001
0000
0000
0000
0000
0000
0100
0001
1000
0000
0001
0000
,
0100
0000
0001
0000
1001
0000
0000
0000
0000
0000
0001
0000
1000
0100
0000
0000
,
1000
0000
0001
0000
0010
0000
0000
0000
0000
0000
0001
1000
0001
0000
0100
0000
,
0110
0000
0000
0000
;

//---------------dance-single - Renard----------------
#NOTES:
     dance-single:
     Renard:
     Medium:
     5:
     0.299,0.351,0.135,0.048,0.000:
0000
0000
0000
0000
,
0000
0000
0000
0000
,
0000
0000
0000
0000
,
0000
0000
0000
0000
,
1000
0000
0000
0001
0000
0000
0100
0000
,
0010
1000
0010
0000
1000
0000
0000
0000
,
0001
0000
0000
0100
0000
0000
0001
0000
,
0010
0001
0010
0000
0001
0000
0000
0000
,
1000
0000
0000
0010
0000
0000
0100
0000
,
0001
0100
0001
0000
1000
0000
0000
0000
,
0010
0000
0000
1000
0000
0000
0100
0000
,
1000
0001
1000
0000
0001
0000
0100
0000
,
0001
0000
1000
0001
0000
1000
0000
0000
,
0001
1000
0001
1000
0000
0000
0000
0000
,
0001
1000
0001
1000
0001
1000
0000
0001
,
1000
0001
1000
0001
0000
0000
0000
0100
,
0010
0100
0010
0100
0000
0010
0000
0100
,
0010
0100
0010
0100
0000
0000
0000
0010
,
0100
0010
0100
0010
0100
0000
0010
0100
,
0010
0100
0000
0010
0000
0000
0000
1000
,
0010
1010
0000
1010
,
0001
0101
0000
0101
,
0001
0011
0000
0011
,
1000
1100
0000
1100
,
1000
1001
0000
1001
,
0010
0110
0000
0110
,
0001
1001
0000
1001
,
0100
1001
0000
1001
,
0001
0000
0100
0000
0001
0100
0001
0000
,
1000
0000
0100
0000
1000
0100
1000
0000
,
0001
0000
0100
0000
0001
0100
0001
0000
,
1000
0000
0100
0000
1000
0100
1000
0000
,
0001
0000
0010
0000
0001
0010
0001
0000
,
1000
0000
0010
0000
1000
0010
1000
0000
,
0001
0000
0010
0000
0001
0010
0001
0000
,
1000
0010
1000
0000
0001
0010
0001
0000
,
1000
0000
0001
0000
0100
0001
0100
0000
,
0001
1000
0100
0000
,
0100
0000
1000
0000
0001
0010
0001
0000
,
1000
0010
1000
0001
,
0100
0000
0001
0000
1000
0001
1000
0000
,
0100
1000
0001
0000
,
0010
0001
0010
0000
0001
0000
1000
0000
,
0010
1000
0001
0100
,
0020
0000
0000
0000
,
2030
0000
0000
0000
,
3200
0000
0320
0000
,
0031
0000
0000
0002
,
2000
0000
0000
0010
0000
0000
0010
0000
,
0010
0000
0000
0000
,
0010
0000
0000
0010
0000
0000
0010
0000
,
0010
3003
0000
0000
0000
0000
0000
0000
,
0001
0000
0000
1000
0000
0000
0010
0000
,
0100
0001
1000
0100
,
0010
0000
0000
0001
0000
0000
1000
0000
,
0001
0100
0010
1000
,
0100
0000
0000
0010
0000
0000
0001
0000
,
1000
0010
0100
0001
,
0100
0000
0000
0010
0000
0000
1000
0000
,
0010
1000
0100
0010
,
0001
0000
0000
0010
0000
0000
0100
0000
,
1000
0010
0100
0001
,
1000
0000
0000
0001
0000
0000
0100
0000
,
0010
1000
0100
0010
,
0001
0000
0000
1000
0000
0000
0010
0000
,
0100
0001
0100
0010
,
1000
0000
0000
0100
0000
0000
1000
0000
,
0001
0100
0010
1000
,
1001
0000
0000
0000
;

//---------------dance-single - Renard----------------
#NOTES:
     dance-single:
     Renard:
     Easy:
     2:
     0.179,0.270,0.056,0.040,0.000: // measure 1
0000
0000
0000
0000
,  // measure 2
0000
0000
0000
0000
,  // measure 3
0000
0000
0000
0000
,  // measure 4
0000
0000
0000
0000
,  // measure 5
1000
1000
1000
0000
,  // measure 6
0001
0001
0001
0000
,  // measure 7
0100
0000
0010
0000
,  // measure 8
0100
0000
0010
0000
,  // measure 9
1000
1000
1000
0000
,  // measure 10
0001
0001
0001
0000
,  // measure 11
0010
0000
0100
0000
,  // measure 12
0010
0000
0100
0000
,  // measure 13
1000
0000
1000
0000
,  // measure 14
0001
0000
0001
0000
,  // measure 15
0100
0000
0100
0000
,  // measure 16
0001
0000
0001
0000
,  // measure 17
1000
0000
1000
0000
,  // measure 18
0001
0000
0001
0000
,  // measure 19
0010
0000
0010
0000
,  // measure 20
0001
0000
0001
0000
,  // measure 21
1000
1000
1000
0000
,  // measure 22
1000
1000
1000
0000
,  // measure 23
0001
0001
0001
0000
,  // measure 24
0001
0001
0001
0000
,  // measure 25
0100
0100
0100
0000
,  // measure 26
0100
0100
0100
0000
,  // measure 27
0010
0010
0010
0000
,  // measure 28
0010
0010
0010
0000
,  // measure 29
1001
0000
1000
0000
,  // measure 30
1000
0000
1000
0000
,  // measure 31
0001
0000
0100
0000
,  // measure 32
0010
0000
1000
0000
,  // measure 33
0001
0000
0001
0000
,  // measure 34
0001
0000
0001
0000
,  // measure 35
1000
0000
0010
0000
,  // measure 36
0100
0000
0001
0000
,  // measure 37
1000
0001
1000
0000
,  // measure 38
0001
1000
0001
0000
,  // measure 39
1000
0000
0001
0000
,  // measure 40
1000
0000
0001
0000
,  // measure 41
0100
0010
0100
0000
,  // measure 42
0010
0100
0010
0000
,  // measure 43
0100
0000
0010
0000
,  // measure 44
0100
0000
0010
0000
,  // measure 45
2000
0000
0000
0000
,  // measure 46
3200
0000
0000
0000
,  // measure 47
0320
0000
0000
0000
,  // measure 48
0031
0000
0000
0000
,  // measure 49
0110
0000
0000
0110
0000
0000
0110
0000
,  // measure 50
0110
0000
0000
0000
,  // measure 51
2002
0000
0000
0000
,  // measure 52
0010
3003
0000
0000
,  // measure 53
0010
0000
1000
0001
,  // measure 54
0100
0000
0001
0000
,  // measure 55
1000
0000
0100
1000
,  // measure 56
0001
0000
0100
0000
,  // measure 57
0001
0000
0001
0001
,  // measure 58
1000
0000
1000
0000
,  // measure 59
0010
0000
0010
0010
,  // measure 60
0100
0001
0100
0000
,  // measure 61
0001
0000
1000
0000
,  // measure 62
0100
0000
0000
0000
,  // measure 63
1000
0000
0001
0000
,  // measure 64
0010
0000
0001
1000
,  // measure 65
0001
0000
0100
0010
,  // measure 66
1000
0000
0010
0000
,  // measure 67
0100
0000
0001
1000
,  // measure 68
0001
0000
0100
0000
,  // measure 69
1001
0000
0000
0000
;
