#TITLE:Torn (Scott Brown Remix);
#SUBTITLE:;
#ARTIST:David Pamies & Cesar Benito;
#TITLETRANSLIT:;
#SUBTITLETRANSLIT:;
#ARTISTTRANSLIT:;
#CREDIT:;
#BANNER:torn.png;
#BACKGROUND:torn-bg.png;
#LYRICSPATH:;
#CDTITLE:;
#MUSIC:torn.ogg;
#OFFSET:0.000;
#SAMPLESTART:69.313;
#SAMPLELENGTH:12.000;
#SELECTABLE:YES;
#BPMS:0.000=180.000,64.000=45.000,84.000=180.000;
#STOPS:;
#BGCHANGES:;

//---------------dance-single - Renard----------------
#NOTES:
     dance-single:
     Renard:
     Hard:
     9:
     0.578,1.000,0.394,0.048,0.769:
0000
0000
0000
0000
,
0000
0000
0000
0000
,
0000
0000
0000
0000
,
0000
0000
0000
0000
,
1000
0001
0000
0100
0000
0001
1000
0100
0000
1000
0000
0001
,
0010
0001
0000
1000
0000
0010
1000
0001
0000
0100
0000
0001
,
1000
0100
0000
1000
0000
0001
0010
0001
0000
1000
0000
0010
,
1000
0000
0000
0001
0100
0001
2000
0000
0000
0000
0000
0000
,
3001
0000
0100
0010
0000
1000
0010
0000
,
0000
0000
0100
0010
0000
0100
0010
0000
0100
0000
0000
0000
,
0010
0000
1000
0001
0000
1000
0100
0000
,
0000
0000
1000
0100
0000
1000
0100
0000
1000
0000
0000
0000
,
0001
0000
0100
0010
0000
1000
0010
0000
,
0000
0000
1000
0010
0000
1000
0010
0000
1000
0000
0000
0000
,
0001
0000
1000
0100
0000
0010
0001
0000
,
0000
0000
0100
0001
0000
0100
0001
0000
0100
0000
0000
0000
,
1001
0000
0000
0000
0101
0000
0000
0001
0000
1000
0100
0000
1100
0000
0000
0000
1001
0000
0000
0000
0101
0000
0000
1000
0000
0100
1000
0000
1001
0000
0000
0000
,
1010
0000
0000
0000
1001
0000
0000
1000
0000
0001
0010
0000
1001
0000
0000
0000
0001
0000
0000
0000
1001
0000
0000
1000
0000
0100
1000
0000
1001
0000
0000
0000
,
0011
0000
0000
0000
1001
0000
0000
0001
0000
0100
0010
0000
0110
0000
0000
0000
1010
0000
0000
0000
1001
0000
0000
1000
0000
0100
1000
0000
1001
0000
0000
0000
,
0101
0000
0000
0000
1001
0000
0000
1100
0000
1000
0001
0000
1001
0000
0000
0000
0101
0000
0000
0000
0011
0000
0000
0010
0000
0100
1000
0000
1001
0000
0000
0000
,
1000
0000
0000
0000
1010
0000
0000
0010
0000
0100
0001
0000
0101
0000
0000
0000
0001
0000
0000
0000
1001
0000
0000
1000
0000
0100
1000
0000
1001
0000
0000
0000
,
0001
0000
0001
0100
0000
0000
0010
0000
1000
0010
0000
1000
,
0010
0000
1000
0100
0000
0000
1000
0000
0001
0010
0000
0001
,
0010
0000
0001
0010
0000
0000
0001
0000
1000
0100
0000
1000
,
0100
0000
1000
0010
0000
1000
0001
0000
0000
1001
0000
0000
,
0001
0000
0100
0001
0000
0000
1000
0000
0000
1000
0000
0100
,
1000
0000
0001
1000
0000
0000
1000
0000
0010
1000
0000
0001
,
1000
0000
0100
1000
0000
0000
0001
0000
0000
0001
0000
0010
,
0001
0000
1000
0001
0000
0100
0001
0000
0000
0101
0000
0000
,
0001
0000
1000
0100
0000
0000
1000
0000
0000
1000
0000
0001
,
0010
0000
0001
1000
0000
0000
0010
0000
1000
0001
0000
1000
,
0100
0000
1000
0001
0000
0000
0100
0000
0000
0001
0000
1000
,
0100
0000
0010
0001
0000
0010
0100
0000
0000
0110
0000
0000
,
0100
0000
1000
0010
0000
0000
1010
0000
0000
1000
0000
0001
,
0100
0000
0001
1000
0000
0000
0001
0000
1000
0100
0000
1000
,
0001
0000
0100
0001
0000
0000
1000
0000
0000
0001
0000
0100
,
0002
0000
0000
0000
0000
0000
2000
0000
0000
3003
0000
0001
,
1000
0000
0001
0100
0000
0000
0001
0000
0000
1000
0000
0100
,
1000
0000
0001
0010
0000
0000
0001
0000
1000
0001
0000
0100
,
0001
0000
1000
0100
0000
0000
1000
0000
0000
0001
0000
0010
,
0001
0000
1000
0010
0000
1000
0001
0000
0000
0100
0000
0000
,
0010
0000
1000
0001
0000
0000
1000
0000
0000
0100
0000
0010
,
0001
0000
0010
0100
0000
0000
1000
0000
0001
0100
0000
0001
,
1000
0000
0010
1000
0000
0000
0100
0000
0000
0010
0000
0001
,
0010
0000
0100
1000
0000
0001
0100
0000
0000
0110
0000
0000
,
1010
0000
0100
1000
0000
0000
0001
0000
0000
0010
0000
0001
,
1000
0000
0010
1000
0000
0000
1001
0000
0100
0010
0000
1000
,
0100
0000
0010
0001
0000
0000
0011
0000
0000
0110
0000
1000
,
0001
0000
0100
0010
0000
1000
0100
0000
0000
1100
0000
0000
,
1000
0000
0001
0010
0000
0000
0011
0000
0000
0010
0000
0100
,
1000
0000
0010
1000
0000
0000
1010
0000
0010
1000
0000
0010
,
0100
0000
0001
0100
0000
0000
1010
0000
0000
1000
0000
0100
,
0010
0000
0001
0010
0000
0100
2000
0000
0000
0000
0000
0000
,
3000
0001
0000
0100
0000
0010
0000
1000
0000
0100
0000
0010
,
0000
0001
0000
0010
0000
0100
0000
1000
0000
0010
0000
0100
,
0000
0001
0000
0100
0000
0010
0000
1000
0000
0100
0000
0010
,
0000
0001
0000
0010
0000
0100
0000
1000
0000
0010
0000
0100
,
0000
0001
0000
0100
0000
0010
0000
1000
0000
0100
0000
1000
,
0000
0001
0000
0010
0000
0001
0000
1000
0000
0010
0000
1000
,
0000
0001
0000
0100
0000
0010
0000
1000
0000
0100
0000
0010
,
0002
1000
0000
0100
0000
0010
0000
1000
0000
0103
0000
0000
;

//---------------dance-single - Renard----------------
#NOTES:
     dance-single:
     Renard:
     Medium:
     5:
     0.318,0.498,0.144,0.048,0.000:
0000
0000
0000
0000
,
0000
0000
0000
0000
,
0000
0000
0000
0000
,
0000
0000
0000
0000
,
0000
1000
0001
1000
,
0001
0001
1000
1000
,
0000
0001
1000
0001
,
1000
1000
0010
0010
,
0200
0000
0000
0000
,
0000
0000
0000
0000
,
0302
0000
0000
0000
,
0000
0000
0000
0000
,
0023
0000
0000
0000
,
0000
0000
0000
0000
,
0230
0000
0000
0000
,
0000
0000
0000
0000
,
1300
0010
0010
0100
0001
0010
0010
0100
,
1000
0010
0100
0100
0001
0010
0100
0100
,
1000
0001
0100
0100
0010
1000
0001
0001
,
0010
0010
0100
0100
1000
1000
0001
0001
,
0100
0110
0010
1001
1000
0100
0010
0001
,
0010
0010
0100
0100
,
0010
0010
0100
0100
,
0010
0010
0001
0001
,
1000
0010
1010
1010
,
1000
1000
0001
0001
,
1000
1000
0001
0001
,
1000
0001
1000
1000
,
0001
1000
0001
0101
,
0001
1000
0001
1000
,
0001
1000
0001
1000
,
0010
0100
0010
0100
,
0010
1000
1010
1010
,
1000
1000
0010
1000
,
0001
1000
0001
0100
,
0001
0010
0100
1000
,
1001
0000
1001
0000
,
1000
0100
0100
0010
,
0001
0001
0010
0100
,
0100
1000
0010
0100
,
0001
0100
0110
1001
,
1000
0100
1000
1000
,
0001
0010
0001
1000
,
0001
0100
0001
0010
,
0001
1000
1100
1001
,
1000
0100
1000
1000
,
0001
1000
0010
0100
,
0001
0010
0001
0001
,
1000
0001
0100
0101
,
0001
1000
0100
1000
,
0010
0010
1000
0001
,
1000
0001
0010
0001
,
1000
0010
0110
0000
,
1000
0010
1000
0010
,
0100
0001
0100
0001
,
0010
0001
0010
0001
,
1000
0100
1000
0100
,
1000
1000
0010
0010
,
0100
0100
0001
0001
,
0010
0010
0100
0100
,
2000
0000
0000
0000
,
3000
0000
0000
0000
;

//---------------dance-single - Renard----------------
#NOTES:
     dance-single:
     Renard:
     Easy:
     3:
     0.268,0.264,0.000,0.096,0.000: // measure 1
0000
0000
0000
0000
,  // measure 2
0000
0000
0000
0000
,  // measure 3
0000
0000
0000
0000
,  // measure 4
0000
0000
0000
0000
,  // measure 5
1000
1000
0001
0001
,  // measure 6
1000
1000
0001
0001
,  // measure 7
0100
0100
0010
0010
,  // measure 8
0200
0000
0000
0000
,  // measure 9
0310
0000
0000
0000
,  // measure 10
0000
0000
0000
0000
,  // measure 11
2000
0000
0000
0000
,  // measure 12
0000
0000
0000
0000
,  // measure 13
3002
0000
0000
0000
,  // measure 14
0000
0000
0000
0000
,  // measure 15
0203
0000
0000
0000
,  // measure 16
0000
0000
0000
0000
,  // measure 17
0310
0010
0100
0100
,  // measure 18
0001
0001
1000
1000
,  // measure 19
0100
0100
0010
0010
,  // measure 20
0001
0001
1000
1000
,  // measure 21
0010
0100
0002
0000
,  // measure 22
1003
1000
1000
1000
,  // measure 23
1000
1000
1000
1000
,  // measure 24
1000
1000
1000
1000
,  // measure 25
1000
1000
0100
0010
,  // measure 26
0001
0001
0001
0001
,  // measure 27
0001
0001
0001
0001
,  // measure 28
0001
0001
0001
0001
,  // measure 29
0001
0001
0010
0100
,  // measure 30
1000
1000
1000
1000
,  // measure 31
1000
1000
1000
1000
,  // measure 32
1000
1000
1000
1000
,  // measure 33
1000
1000
0010
0100
,  // measure 34
0001
0001
0001
0001
,  // measure 35
0001
0001
0001
0001
,  // measure 36
0001
0001
0001
0001
,  // measure 37
0200
0000
0020
0330
,  // measure 38
0010
0100
0010
0010
,  // measure 39
0100
0100
0010
0100
,  // measure 40
0010
0010
0100
0100
,  // measure 41
0010
0100
0010
0010
,  // measure 42
1000
1000
0001
1000
,  // measure 43
0001
0001
1000
0001
,  // measure 44
1000
0001
1000
0001
,  // measure 45
2000
0000
0000
0000
,  // measure 46
3001
0001
0100
0100
,  // measure 47
0010
0010
1000
0010
,  // measure 48
1000
1000
0100
0100
,  // measure 49
0010
0010
0001
0010
,  // measure 50
0001
0001
0100
0100
,  // measure 51
0010
0010
1000
0010
,  // measure 52
1000
1000
0100
0100
,  // measure 53
0020
0000
0000
0000
,  // measure 54
0031
0001
0001
0001
,  // measure 55
0001
0001
0001
0001
,  // measure 56
0001
0001
0001
0001
,  // measure 57
0001
0010
0100
0010
,  // measure 58
0100
0100
1000
1000
,  // measure 59
0100
0100
1000
1000
,  // measure 60
0010
0010
0100
0100
,  // measure 61
0002
0000
0000
0000
,  // measure 62
0003
0000
0000
0000
;
