#TITLE:Too Many Times;
#SUBTITLE:;
#ARTIST:Kai Tracid;
#TITLETRANSLIT:;
#SUBTITLETRANSLIT:;
#ARTISTTRANSLIT:;
#CREDIT:;
#BANNER:times.png;
#BACKGROUND:times-bg.png;
#LYRICSPATH:;
#CDTITLE:;
#MUSIC:times.ogg;
#OFFSET:0.000;
#SAMPLESTART:73.024;
#SAMPLELENGTH:12.000;
#SELECTABLE:YES;
#BPMS:0.000=138.000;
#STOPS:;
#BGCHANGES:;

//---------------dance-single - Renard----------------
#NOTES:
     dance-single:
     Renard:
     Challenge:
     10:
     0.806,0.905,0.454,0.019,0.884:
0000
0000
0000
0000
,
0000
0000
0000
0000
,
0000
0000
0000
0000
,
0000
0000
0000
0000
,
0000
0000
0000
0000
,
1000
0100
0010
0000
0001
0010
0100
0000
1000
0010
0100
0000
0001
0100
0010
0000
,
1000
0100
1000
0000
0001
0010
0001
0000
1000
0010
1000
0000
0001
0100
0001
0000
,
1000
0100
0010
0000
0001
0010
0100
0000
1000
0010
0100
0000
0001
0010
0100
0000
,
1000
0100
0010
0001
0010
0100
1000
0010
0100
0001
0100
0010
1000
0001
0100
0010
,
1000
0000
0010
0000
0101
0000
0000
0010
0000
1000
0100
0000
0110
0000
0000
0000
,
0100
0000
1000
0000
0110
0000
0000
0001
0000
0010
0100
0000
0110
0000
0000
0000
,
0100
0000
1000
0000
1010
0000
0000
0010
0000
0100
0001
0000
0101
0000
0000
0000
,
0001
0000
0010
0000
0110
0000
0000
0100
0000
1000
0010
0000
1010
0000
0000
0000
,
0001
0000
0100
0000
0110
0000
0000
0010
0000
1000
0100
0000
1100
0000
0000
0000
,
0100
0000
0010
0000
0011
0000
0000
0001
0000
1000
0010
0000
1010
0000
0000
0000
,
0010
0000
0100
0000
0101
0000
0000
0010
0000
1000
0100
0000
1100
0000
0000
0000
,
0100
0000
0010
0000
1001
0000
0000
0001
0000
0100
0010
0000
1001
0000
0000
0000
,
0010
0000
1000
0000
1100
0000
0000
0100
0000
0010
0001
0000
0011
0000
0000
0000
,
0001
0000
0100
0000
0110
0000
0000
0010
0000
1000
0010
0000
0110
0000
0000
0000
,
0001
0000
0010
0000
0110
0000
0000
1000
0000
0010
0100
0000
0110
0000
0000
0000
,
0010
0000
1000
0000
1100
0000
0000
0001
0000
0010
0001
0000
0101
0000
0000
0000
,
0001
0000
1000
0000
1100
0000
0000
0100
0000
0010
0001
0000
1001
0000
0000
0000
,
0001
0000
0100
0000
0110
0000
0000
0010
0000
1000
0100
0000
0110
0000
0000
0000
,
0100
0000
1000
0000
0101
0000
0000
0010
0000
1000
0100
0000
0011
0000
0000
0000
,
0100
1000
0000
0000
0010
0100
0001
0000
,
0000
0000
0000
0000
,
1000
0100
0000
0100
1000
0000
0001
0010
0000
0010
0001
0000
1000
0010
0000
0010
,
1000
0000
0001
0100
0000
0100
0001
0000
1000
0100
0000
0100
0010
0000
0010
0001
,
0000
0001
1000
0000
1000
0010
0000
0010
0100
0000
0100
0001
0000
0001
0010
0000
,
0100
1000
0000
1000
0010
0000
0100
0001
0000
0100
0010
0000
1000
0001
0100
0000
,
0001
0100
0000
0100
0010
0000
0010
1000
0000
1000
0100
0000
0010
0000
0001
0000
,
1000
0001
0000
0001
0100
0000
0100
0010
0000
1000
0010
1000
0010
0000
1000
0000
,
0001
0100
0000
0100
0010
0000
0010
1000
0000
0001
0100
0001
0100
0000
0010
0000
,
1000
0100
1000
0000
0001
0010
0001
0000
1000
0001
0100
0010
1000
0001
0100
0000
,
0110
0000
0001
0100
0010
0000
1000
0000
1100
0000
0100
0010
0001
0000
1000
0000
,
1001
0000
0001
0100
0010
0000
1000
0000
1010
0000
0010
1000
0100
0000
0010
0000
,
0110
0000
0010
0001
0100
0000
0010
0000
0110
0000
0010
1000
0100
0000
1000
0000
,
1100
0000
0100
0010
0001
0000
1000
0000
1001
0000
0001
0100
0010
0000
1000
0000
,
1010
0000
1000
0001
0100
0000
0010
0000
1100
0000
0010
0100
0010
0000
0001
0000
,
0011
0000
0010
0100
1000
0000
0010
0000
0101
0000
0010
1000
0100
0000
0010
0000
,
0011
0000
0001
0010
0100
0000
1000
0000
1010
0000
0001
0100
0010
0000
1000
0000
,
0101
0000
0010
1000
0100
0000
0010
0000
1001
0000
0010
0000
0101
0000
0010
0000
,
0100
0010
1000
0100
0010
0000
0001
0000
0010
0100
1000
0100
0010
0000
0001
0000
,
0010
0100
1000
0010
0100
0000
0001
0000
0100
0010
1000
0001
0100
0000
0001
0000
,
1000
0100
1000
0001
0010
0000
0001
0000
1000
0010
1000
0001
0100
0000
0001
0000
,
1000
0100
0010
0001
0010
0000
0100
0000
1000
0001
0010
0001
1000
0000
0010
0000
,
0100
0001
0100
0010
1000
0000
0001
0000
0100
0010
1000
0001
1000
0000
0001
0000
,
1000
0100
0010
0001
0010
0000
0100
0000
1000
0001
0010
0001
1000
0000
0010
0000
,
0100
0001
0100
0010
1000
0000
0001
0000
0100
0010
1000
0001
1000
0000
0100
0000
,
0010
0001
0010
0100
1000
0010
0100
0001
0100
0010
1000
0001
0010
0100
0010
0001
,
1000
0010
0100
0001
0100
0000
0010
0000
1000
0100
0010
0001
0010
0000
0100
0000
,
1000
0001
1000
0010
0100
0000
0001
0000
1000
0100
0010
0001
0010
0000
0100
0000
,
1000
0010
0100
0001
0100
0000
0010
0000
1000
0100
1000
0001
0010
0000
0100
0000
,
1000
0010
0100
0001
1000
0000
0010
0000
0100
0001
1000
0010
0100
0001
1000
0010
,
0100
0001
1000
0100
0010
0000
0001
0000
0010
0100
1000
0001
0010
0000
0001
0000
,
1000
0010
0100
0001
0100
0000
0010
0000
1000
0001
0010
0100
1000
0000
0001
0000
,
1000
0010
0100
0001
0010
0100
1000
0010
0100
0001
1000
0001
0100
0010
1000
0001
,
0010
0100
0010
0001
1000
0010
0100
0001
0010
0100
1000
0001
0100
0010
2000
0002
,
0000
0000
3003
0000
;

//---------------dance-single - Renard----------------
#NOTES:
     dance-single:
     Renard:
     Hard:
     9:
     0.606,0.729,0.000,0.010,0.507:
0000
0000
0000
0000
,
0000
0000
0000
0000
,
0000
0000
0000
0000
,
0000
0000
0000
0000
,
0000
0000
0000
0000
,
1000
0000
0100
0000
1000
0000
0001
0000
0010
0001
0000
1000
0001
0000
0100
0000
,
0010
0000
1000
0000
0100
0000
0010
0001
0000
1000
0010
0000
0100
0000
0001
0000
,
0100
0000
0010
0000
1000
0000
0100
0010
0000
0001
0010
0000
0100
0000
1000
0000
,
0001
0010
0001
0000
1000
0100
1000
0000
0001
0100
0001
0000
0100
0010
1000
0000
,
0010
0000
1000
0000
0010
0000
0100
0001
0000
0100
0010
0000
1000
0000
0000
0000
,
0100
0000
0010
0000
0001
0000
0010
0100
0000
1000
0100
0000
1000
0000
0000
0000
,
0001
0000
0100
0000
0010
0000
1000
0001
0000
0100
0010
0000
1000
0000
0000
0000
,
0100
0000
0010
0000
0001
0000
0010
0100
0000
1000
0001
0000
0010
0000
0000
0000
,
0001
0000
1000
0000
0010
0000
0100
0001
0000
0100
0010
0000
1000
0000
0000
0000
,
0010
0000
0100
0000
0001
0000
1000
0100
0000
0010
0001
0000
0010
0000
0000
0000
,
0100
0000
1000
0000
0001
0000
0010
0100
0000
1000
0001
0000
0010
0000
0000
0000
,
0001
0000
1000
0000
0010
0000
0100
0001
0000
0100
0010
0000
1000
0000
0000
0000
,
0010
0000
1000
0000
0100
0000
1000
0001
0000
1000
0010
0000
1000
0000
0000
0000
,
0001
0000
0010
0000
0001
0000
1000
0001
0000
0100
0001
0000
1000
0000
0000
0000
,
1000
0000
0010
0000
1000
0000
0001
1000
0000
0100
1000
0000
0010
0000
0000
0000
,
0001
0000
0010
0000
0001
0000
1000
0001
0000
0100
0001
0000
1000
0000
0000
0000
,
0100
0000
0010
0000
0100
0000
1000
0100
0000
0010
0100
0000
0000
0001
0000
0000
,
0010
0000
0100
0000
0010
0000
1000
0010
0000
0100
0010
0000
0001
0000
0000
0000
,
1000
0000
0010
0000
1000
0000
0001
1000
0000
0100
1000
0000
0001
0000
0100
0000
,
0020
0000
0000
0000
,
0000
0000
0000
0000
0000
0000
0000
0000
0000
0000
0000
0000
0000
0000
0000
0030
,
1000
0001
0000
0000
0100
0000
0000
0010
0000
0000
1000
0000
0000
0100
0000
0000
,
0010
0000
0000
0001
0000
0000
0010
0000
0000
0100
0000
0000
1000
0000
0000
0010
,
0100
0000
0000
0001
0000
0000
0100
0000
0000
0010
0000
0000
1000
0000
0100
0000
,
0010
0000
0000
0001
0000
0000
0010
0000
0000
0100
0000
0000
1000
0000
0001
0100
,
0001
0000
0000
0100
0000
0000
0010
0000
0000
1000
0000
0000
0100
0000
0010
0000
,
0001
0000
0000
0010
0000
0000
0100
0000
0000
0000
1000
0000
0001
0000
0010
0001
,
1000
0000
0000
0010
0000
0000
0100
0000
0001
0000
0100
0000
0010
0000
1000
0000
,
0100
0010
0001
0010
0100
1000
0001
0010
,
0001
0000
1000
0010
0000
0100
0001
0000
0100
0000
0010
1000
0000
0001
0100
0000
,
0010
0000
1000
0001
0000
0001
0100
0000
0010
0000
1000
0100
0000
0100
0010
0000
,
0001
0000
0010
0100
0000
1000
0001
0000
0010
0000
0100
1000
0000
0001
0010
0000
,
0001
0000
0001
1000
0000
1000
0010
0000
0100
0000
0100
0001
0000
0001
0100
0000
,
0010
0000
1000
0100
1000
0000
0001
0000
0010
0000
0001
0000
1000
0000
0000
0000
,
0010
0000
0100
0001
0100
0000
0010
0000
1000
0000
0100
0000
0010
0000
0000
0000
,
0001
0000
0010
0100
0010
0000
0100
0000
1000
0000
0001
0000
0100
0000
0010
0000
,
1000
0000
1000
0010
0100
0000
0100
0001
,
0010
0000
0100
0000
1000
0000
0001
0000
0000
0000
0010
0001
0010
0000
0001
0000
,
0010
0000
0100
0000
1000
0000
0001
0000
0100
0010
0100
0010
0100
0000
0000
0000
,
0010
0000
1000
0000
0100
0000
0010
0000
0000
0000
0001
1000
0001
0000
0010
0000
,
0100
0000
1000
0000
0001
0000
0100
0000
0010
1000
0010
1000
0010
0000
0100
0000
,
0001
0000
0010
0001
0010
0000
0100
0000
0000
0000
1000
0000
0001
0000
0100
0000
,
0010
0000
1000
0001
1000
0000
0001
0000
0000
0000
0010
0000
0100
0000
1000
0000
,
0001
0100
0001
0100
0001
0000
0100
0000
0010
1000
0010
1000
0010
0000
1000
0000
,
0100
0010
0001
1000
0100
0010
0001
1000
,
0010
0000
0100
0000
0001
0000
0100
0010
0100
0000
0010
0000
1000
0000
0100
1000
,
0100
0000
1000
0000
0001
0000
0010
0001
0010
0000
0001
0000
1000
0000
0010
0000
,
0100
0000
0001
0000
0010
0000
0100
1000
0100
0000
1000
0000
0001
0000
0010
0001
,
0010
0000
0001
0000
1000
0000
0010
1000
0010
0000
1000
0000
0010
0000
0100
0000
,
0001
0000
0010
0000
0100
0000
1000
0000
0001
0000
0100
0000
0010
0000
1000
0010
,
1000
0000
0010
0000
0100
0000
0001
0000
0010
0000
0001
0000
0010
0000
0100
0010
,
0100
0000
1000
0100
1000
0000
0001
0100
0001
0000
0100
0010
0100
0000
0010
1000
,
0010
0000
0100
0001
0100
0000
0001
1000
0001
0000
1000
0100
0010
0001
0010
0100
,
1000
0000
0000
0000
;

//---------------dance-single - Renard----------------
#NOTES:
     dance-single:
     Renard:
     Medium:
     7:
     0.463,1.000,0.261,0.000,0.000:
0000
0000
0000
0000
,
0000
0000
0000
0000
,
0000
0000
0000
0000
,
0000
0000
0000
0000
0000
0000
0000
0000
,
0000
0000
0000
0000
0000
0000
0000
0000
,
1000
0000
0001
0000
0100
0010
1000
0000
,
0010
0000
0100
0000
0001
1000
0001
0000
,
1000
0100
1000
0100
1000
0100
1000
0100
,
1000
0100
1000
0100
1000
0100
1000
0100
,
0010
0000
0011
0000
0010
0100
1000
0000
,
0100
0000
1100
0000
1000
0001
0100
0000
,
0010
0000
0110
0000
0010
1000
0001
0000
,
0100
0000
0101
0000
0001
1000
0100
0000
,
1000
0000
1100
0000
0100
0010
0001
0000
,
1000
0000
1010
0000
0010
0100
0001
0000
,
1000
0000
1001
0000
1000
0100
0010
0000
,
0001
0000
0011
0000
0010
0100
1000
0000
,
0001
0000
0101
0000
0100
0010
1000
0000
,
0010
0000
0110
0000
0100
0001
0010
0000
,
0100
0000
0110
0000
0100
1000
0001
0000
,
0100
0001
1000
0100
,
1000
0001
1000
0001
0000
0000
0000
0000
,
0100
0010
0100
0010
0000
0000
0000
0000
,
1000
0010
1000
0010
0000
0000
0000
0000
,
0000
0000
0000
0000
,
0000
0000
0000
0000
,
0100
0001
0100
0001
0100
0001
0100
0001
,
0010
0001
0010
0001
0010
0001
0010
0001
,
1000
0100
1000
0100
1000
0100
1000
0100
,
1000
0010
1000
0010
0100
0001
0100
0001
,
1000
0100
1000
0100
1000
0100
1000
0100
,
0010
0001
0010
0001
0010
0001
0010
0001
,
1000
0010
1000
0010
0100
0001
0100
0001
,
1000
0100
0010
0001
0010
0100
1000
0000
,
0001
0000
0000
0100
0010
0000
0000
1000
,
0100
0000
0000
0010
0001
0000
0000
1000
,
0010
0000
0000
0100
0001
0000
0000
1000
,
0100
0000
0000
0010
0001
0000
0000
1000
,
0010
0000
0000
0100
0001
0000
0000
1000
,
0100
0000
0000
0010
0001
0000
0000
1000
,
0010
0000
0000
0100
0001
0000
0000
1000
,
0100
0000
0000
0010
0001
0000
0000
1000
,
0010
0100
0010
0100
0000
0000
1001
0000
,
0001
0010
0100
1000
0000
0000
1001
0000
,
0010
0100
0010
0100
0000
0000
0010
0000
,
0001
1000
0100
0010
,
0001
0010
0100
1000
0000
0000
1001
0000
,
1000
0010
0100
0001
0000
0000
1001
0000
,
0001
0100
0001
0100
0000
0000
0010
0000
,
1000
0000
0100
0000
0010
0000
0001
0010
,
0001
0000
0010
0100
0010
0000
0100
1000
,
0100
0000
1000
0000
0001
0000
0000
1000
,
0100
0000
0000
0010
0001
0000
0000
1000
,
0010
0000
0100
0000
0001
0000
0100
0010
,
0100
0000
0000
0010
1000
0000
0000
0001
,
0100
0000
0000
0001
0010
0000
0000
0100
,
1000
0100
0010
0001
1000
0100
0010
0001
,
1000
0100
0010
0001
0010
0100
1000
0001
,
1001
0000
0000
0000
;

//---------------dance-single - Renard----------------
#NOTES:
     dance-single:
     Renard:
     Easy:
     2:
     0.174,0.280,0.019,0.058,0.000: // measure 1
0000
0000
0000
0000
,  // measure 2
0000
0000
0000
0000
,  // measure 3
0000
0000
0000
0000
,  // measure 4
0000
0000
0000
0000
,  // measure 5
0000
0000
0000
0000
,  // measure 6
1000
0001
1000
1100
,  // measure 7
1000
0001
0100
0101
,  // measure 8
0001
1000
0001
1000
,  // measure 9
0100
0010
0001
1000
,  // measure 10
0001
0100
0000
0000
,  // measure 11
0010
1000
0000
0000
,  // measure 12
0100
0010
0000
0000
,  // measure 13
0001
0000
0010
0000
,  // measure 14
0100
1000
0000
0000
,  // measure 15
0001
0010
0000
0000
,  // measure 16
0010
0001
0000
0000
,  // measure 17
1000
0000
0100
0000
,  // measure 18
1000
0010
0000
0000
,  // measure 19
0100
0001
0000
0000
,  // measure 20
0010
0100
0000
0000
,  // measure 21
1000
0000
0001
0000
,  // measure 22
1000
0010
0000
0000
,  // measure 23
0100
0001
0000
0000
,  // measure 24
1000
0100
0000
0000
,  // measure 25
0010
0000
0000
0000
,  // measure 26
0000
0000
0000
0000
,  // measure 27
0001
0000
0000
0000
,  // measure 28
0000
0000
0000
0000
,  // measure 29
0020
0000
0000
0000
,  // measure 30
0230
0000
0000
0000
,  // measure 31
2300
0000
0000
0000
,  // measure 32
3020
0000
0000
0000
,  // measure 33
0230
0000
0302
0000
,  // measure 34
0013
0100
1000
0000
,  // measure 35
0100
0000
1000
0000
,  // measure 36
0010
0100
0001
0000
,  // measure 37
0010
0000
0001
0000
,  // measure 38
1000
0100
1000
0000
,  // measure 39
0010
0000
0100
0000
,  // measure 40
0001
0010
0100
0000
,  // measure 41
1000
0000
0001
0000
,  // measure 42
0100
0010
0100
0000
,  // measure 43
0010
0000
1000
0000
,  // measure 44
0001
0100
0010
0000
,  // measure 45
1000
0000
0100
0000
,  // measure 46
0010
0001
0010
0000
,  // measure 47
0100
0000
1000
0000
,  // measure 48
0001
0010
0001
0000
,  // measure 49
1000
0000
0010
0000
,  // measure 50
1000
0001
0100
0000
,  // measure 51
0001
0000
1000
0000
,  // measure 52
0100
1000
0001
0000
,  // measure 53
0010
0000
0001
0000
,  // measure 54
1000
0010
0100
0000
,  // measure 55
0001
0000
0100
0000
,  // measure 56
0010
1000
0010
0000
,  // measure 57
1000
0000
0001
0000
,  // measure 58
0100
0000
0010
1000
,  // measure 59
0001
0000
0000
0000
;
