#TITLE:Ticking in My Head;
#SUBTITLE:;
#ARTIST:D-Mode-D;
#TITLETRANSLIT:;
#SUBTITLETRANSLIT:;
#ARTISTTRANSLIT:;
#CREDIT:;
#BANNER:head.png;
#BACKGROUND:head-bg.png;
#LYRICSPATH:;
#CDTITLE:;
#MUSIC:head.ogg;
#OFFSET:0.000;
#SAMPLESTART:22.326;
#SAMPLELENGTH:12.000;
#SELECTABLE:YES;
#BPMS:0.000=172.000;
#STOPS:;
#BGCHANGES:;

//---------------dance-single - Renard----------------
#NOTES:
     dance-single:
     Renard:
     Hard:
     9:
     0.678,0.628,0.472,0.028,0.170:
0000
0000
0000
0000
,
0000
0000
0000
0000
,
0000
0000
0000
0000
,
0000
0000
0000
0000
,
0010
1000
0001
0100
0001
0100
0001
1000
,
0001
0100
0001
1000
0001
0100
0001
1000
,
0001
0100
0001
1000
0001
0100
0001
1000
,
0001
0100
0001
1000
0001
1000
0001
0000
,
1000
0100
1000
0100
0010
0001
0010
0001
,
1000
0000
0010
0000
1010
0000
1000
0100
,
0010
0001
0010
0001
1000
0100
1000
0100
,
1000
0000
0001
0000
1001
0000
0001
0100
,
0010
1000
0010
1000
0001
0100
0001
0100
,
0001
0000
1000
0000
1001
0000
1000
0100
,
1000
0000
0001
0010
0001
0000
1000
0010
,
0100
0001
1000
0100
1000
0000
1001
0000
,
1000
0001
0100
0001
1000
0000
1100
0000
,
1001
0000
1010
0000
1000
0010
0100
0001
,
0010
0001
1000
0001
0100
0001
1000
0000
,
1001
1001
1010
1010
,
1000
0100
0010
0001
0010
0100
1000
0000
,
1001
0000
1001
0000
0101
0000
0001
0010
,
0100
1100
1000
1010
,
0010
0100
0001
0010
0100
1000
0001
0000
,
1000
0000
1000
0001
0000
0001
0100
0000
0100
0010
0000
0010
,
1000
0000
1000
0100
0000
0100
0010
0100
0010
0100
0000
0100
,
1000
0000
1000
0010
0000
0010
0100
0000
0100
0001
0000
0001
,
1000
0000
1000
0001
0000
0001
0100
0001
0100
0001
0000
0000
,
0100
0000
0100
0010
0000
0010
1000
0000
1000
0100
0000
0100
,
1000
0000
1000
0001
0000
0001
0010
0001
0010
0001
0000
0001
,
1000
0000
1000
0010
0000
0010
0100
0000
0100
0001
0000
0001
,
1000
0000
1000
0100
0000
0100
1000
0001
1000
0001
0000
0000
,
1000
0000
0010
0010
0010
0010
0010
0000
,
0100
0100
0001
0001
,
0010
0000
0100
0100
0100
0100
0100
0000
,
1000
1000
0010
0010
,
0100
0000
0001
1000
0001
1000
0001
0000
,
0110
1001
1100
0011
,
1001
0000
0001
0100
0010
1000
0100
0000
,
1000
0000
0001
0000
0100
0001
0100
0001
0100
0000
0000
0000
1001
0000
0000
0000
,
0001
0100
0010
1000
0100
1000
0000
1001
,
0000
0001
0101
0000
0001
1000
0100
0010
,
0001
0010
0100
1000
0001
1000
0010
1000
,
0000
0001
1001
0000
0001
0100
0010
0000
,
1000
0100
0010
0001
0010
0100
0000
1001
,
0000
1000
1010
0000
1000
0100
0010
0001
,
0010
0100
1000
0001
0100
0001
1000
1001
,
0000
1000
1100
0000
1000
0100
0010
0000
,
0100
1000
0100
1000
0100
1000
0100
1000
,
0100
1000
0100
1000
0100
1000
0100
1000
,
0100
1000
0100
1000
0100
1000
0100
1000
,
0100
1000
0100
1000
0100
1000
0100
1000
,
0001
1000
0010
1000
0100
1000
0100
1000
,
0100
1000
0100
1000
0100
1000
0100
1000
,
0100
1000
0100
1000
0100
1000
0100
2000
,
0002
0000
0000
0000
0000
0000
0000
3003
,
1001
0101
1010
1001
,
1100
0000
0011
0000
0010
0100
1000
0010
,
0100
0101
1010
1001
,
1000
0100
0010
0100
1000
0010
0100
0000
,
0101
1010
1001
1100
,
0011
0000
1100
0000
1000
0001
0100
0010
,
1000
1010
1100
0011
,
0010
0100
1000
0010
0100
0001
0100
0010
,
1000
0100
0000
1000
0001
0000
0010
0000
,
0100
0000
1000
0000
0010
0000
0100
0001
,
0100
0010
1000
0100
0010
0001
0010
0100
,
0010
0110
1100
0011
,
0010
0100
0000
1000
0010
0000
0100
0000
,
0001
0100
0010
1000
0100
1000
0001
0010
,
0100
1000
0100
1000
0001
0010
0001
0010
,
0001
1000
0010
0100
0001
0100
0010
1000
,
0001
1000
0100
1000
0100
1000
0100
1000
,
0002
0000
0000
0000
,
0003
0000
0000
0000
;

//---------------dance-single - Renard----------------
#NOTES:
     dance-single:
     Renard:
     Medium:
     6:
     0.414,0.517,0.198,0.000,0.000:
0000
0000
0000
0000
,
0000
0000
0000
0000
,
0000
0000
0000
0000
,
0000
0000
0000
0000
,
1000
0000
0100
1000
0100
0000
1000
0001
,
1000
0000
0001
0010
0001
0000
1000
0010
,
1000
0000
0001
0100
0010
0000
1000
0001
,
0100
0100
0001
0001
,
1000
0000
0100
1000
0100
0000
1000
0000
,
0100
0000
1100
0000
,
0010
0000
0001
0010
0001
0000
0010
0000
,
0001
0010
0011
0000
,
0001
1000
0001
0000
1000
0000
0001
0000
,
1000
0010
0110
0000
,
0010
1000
0010
0000
1000
0000
0001
0100
,
0001
1000
0100
1000
,
1001
0001
0100
0100
,
0010
0000
0010
0000
0000
1000
0010
1000
,
0010
0010
1000
1000
,
0001
0001
0100
0100
,
0001
0001
0010
0010
,
0100
0000
0100
0000
0000
0000
1000
0100
,
1000
1000
0001
0001
,
0010
0010
0001
0001
,
1000
1000
0010
0010
,
0100
0100
0000
0101
,
0110
0110
1010
1010
,
1001
1001
1100
0000
,
1000
1000
0100
0100
,
0010
0010
0000
0011
,
0110
0110
1100
1100
,
1001
1001
1001
0000
,
1000
0000
0001
0000
0000
1000
0001
0000
,
1000
0001
1000
0000
,
0010
0000
0100
0000
0000
0010
0100
0000
,
0010
0100
0010
0000
,
1000
0010
1000
0010
,
0100
0001
0100
0001
,
0010
0001
0010
0000
0100
1000
0100
0000
,
1000
0010
0100
0001
1000
0000
1001
0000
,
1000
0000
0100
0000
1000
0100
1000
0000
,
0001
0010
0001
0010
,
0001
0000
0100
0000
0001
0100
0001
0000
,
1000
0010
1000
0100
,
1000
0001
1000
0001
,
0010
0001
0010
0000
0100
0000
1000
0000
,
0010
0000
1000
0000
0001
0100
0001
0000
,
1000
0010
1000
0000
0001
0000
0001
0000
,
1000
1000
0100
0100
,
1000
1000
0100
0100
,
1000
1000
0100
0100
,
1000
1000
0100
0100
,
0010
0010
0001
0001
,
0010
0010
0001
0001
,
0010
0010
0001
0010
,
0001
0000
0000
0000
,
0010
0100
1000
0001
,
0100
0000
0100
0000
0000
0000
0010
1000
,
0010
0010
1000
1000
,
0001
0001
0100
0100
,
0001
0001
1000
1000
,
0100
0000
0100
0000
0000
1000
0001
1000
,
0001
0001
0100
0100
,
0010
0000
1000
0010
1000
0000
0010
0000
,
0100
0100
0010
0010
,
1000
0010
0100
0001
,
1000
0000
0100
1000
0100
0000
1000
0000
,
0001
0001
0010
0100
,
0000
1000
0000
1000
0100
0000
0100
0000
,
1000
1000
0001
0010
,
0001
0001
1000
0010
,
0100
0100
0001
1000
,
0100
0000
1000
0000
,
0001
0000
0000
0000
;

//---------------dance-single - Renard----------------
#NOTES:
     dance-single:
     Renard:
     Easy:
     2:
     0.270,0.309,0.075,0.047,0.000: // measure 1
0000
0000
0000
0000
,  // measure 2
0000
0000
0000
0000
,  // measure 3
0000
0000
0000
0000
,  // measure 4
0000
0000
0000
0000
,  // measure 5
1000
0000
1000
0001
,  // measure 6
1000
0000
0001
0000
,  // measure 7
0001
0000
1000
0001
,  // measure 8
1000
0000
0010
0000
,  // measure 9
1000
0000
1010
0000
,  // measure 10
0010
0100
0001
0000
,  // measure 11
0100
0000
0101
0000
,  // measure 12
0001
0010
0100
0000
,  // measure 13
1000
0000
1100
0000
,  // measure 14
1000
0001
1000
0000
,  // measure 15
0010
0000
1010
0000
,  // measure 16
1000
0001
0010
0001
,  // measure 17
1000
1000
0001
0001
,  // measure 18
0100
0100
0000
0000
,  // measure 19
0010
0010
1000
1000
,  // measure 20
0001
0000
0001
0000
,  // measure 21
0010
0010
0100
0100
,  // measure 22
1000
1000
0000
0000
,  // measure 23
0001
0001
0010
0010
,  // measure 24
0001
1000
0001
0000
,  // measure 25
1000
0000
1001
0000
,  // measure 26
0001
1000
0001
0000
,  // measure 27
0100
0000
0010
0000
,  // measure 28
1000
0000
0010
1000
,  // measure 29
0001
0000
0100
0000
,  // measure 30
0001
0000
1001
0001
,  // measure 31
1000
0000
0100
0000
,  // measure 32
1000
0000
1001
0001
,  // measure 33
1000
0000
1000
0000
,  // measure 34
1000
0000
1000
0000
,  // measure 35
0010
0000
0010
0000
,  // measure 36
0100
0000
0100
0000
,  // measure 37
0001
0000
0001
0000
,  // measure 38
0010
0000
0010
0000
,  // measure 39
0100
0000
0100
0000
,  // measure 40
1000
0000
1000
0000
,  // measure 41
0001
1000
0001
1000
,  // measure 42
0010
0000
1000
0000
,  // measure 43
0001
1000
0001
1000
,  // measure 44
0001
0000
0100
0000
,  // measure 45
0001
1000
0001
1000
,  // measure 46
0010
0000
1000
0000
,  // measure 47
0001
1000
0001
0100
,  // measure 48
0001
1000
0010
0000
,  // measure 49
1000
1000
0001
0001
,  // measure 50
1000
1000
0001
0001
,  // measure 51
1000
1000
0001
0001
,  // measure 52
1000
1000
0001
0001
,  // measure 53
0100
0100
0010
0010
,  // measure 54
0100
0100
0010
0010
,  // measure 55
0100
0100
0010
0010
,  // measure 56
0200
0000
0000
0000
,  // measure 57
0310
0010
0010
0010
,  // measure 58
0010
0010
0000
0000
,  // measure 59
0100
0100
0100
0100
,  // measure 60
0001
0000
1000
0000
,  // measure 61
0100
0100
0100
0100
,  // measure 62
0100
0100
0000
0000
,  // measure 63
0010
0000
0001
0000
,  // measure 64
1000
0000
0010
0000
,  // measure 65
1000
0000
0001
0000
,  // measure 66
1000
0001
0100
0000
,  // measure 67
0001
0000
1000
0000
,  // measure 68
0100
1000
0001
0000
,  // measure 69
0100
0000
0100
0000
,  // measure 70
1000
0000
0001
0000
,  // measure 71
0100
0000
0100
0000
,  // measure 72
0002
0000
2000
0000
,  // measure 73
0220
0000
0000
3333
;
