#TITLE:This is a Virus;
#SUBTITLE:;
#ARTIST:Doual & Gammer;
#TITLETRANSLIT:;
#SUBTITLETRANSLIT:;
#ARTISTTRANSLIT:;
#CREDIT:;
#BANNER:virus.png;
#BACKGROUND:virus-bg.png;
#LYRICSPATH:;
#CDTITLE:;
#MUSIC:virus.ogg;
#OFFSET:0.000;
#SAMPLESTART:35.191;
#SAMPLELENGTH:12.000;
#SELECTABLE:YES;
#BPMS:0.000=177.320;
#STOPS:;
#BGCHANGES:;

//---------------dance-single - Renard----------------
#NOTES:
     dance-single:
     Renard:
     Hard:
     8:
     0.601,0.719,0.338,0.415,0.000:
0000
0000
0000
0000
,
0000
0000
0000
0000
,
0000
0000
0000
0000
,
0000
0000
0000
0000
,
1000
0100
0010
0001
0000
0010
0000
0000
,
0000
0100
0000
0100
0000
0100
0000
0100
,
0000
1000
0000
1000
0000
1000
0000
1000
,
0010
0000
0010
0200
0000
0000
0000
0000
,
0301
0000
0001
0000
0100
0010
1000
0000
,
0010
0000
0010
0000
1000
0100
1000
0100
,
0010
0000
0010
0000
0001
0010
0001
0010
,
0100
0000
0100
0000
1000
0010
1000
0010
,
0100
0000
0100
0000
0001
0010
0100
0000
,
1000
0000
1000
0000
0010
0100
0001
1000
,
0100
0000
0100
0000
0010
0001
0010
0001
,
0100
0000
0100
0000
1000
0100
1000
0100
,
1000
1010
0010
0110
,
0100
0101
0001
0011
,
0010
0110
0100
1100
,
1000
1010
0010
0110
,
0100
0001
0100
0010
0100
1000
0100
0010
,
0100
0001
0100
0010
0100
1000
0100
0010
,
0100
0001
0100
0010
0100
0001
0100
0010
,
1000
0100
0010
0001
0010
1000
0010
0100
,
1000
0010
0100
0001
0100
0010
1000
0001
,
2002
0000
0000
0000
0000
0000
0000
3003
,
1001
0000
0110
0000
1000
0001
1000
0000
,
0110
0000
1001
0000
0100
0010
0100
0010
,
1000
0000
0001
0000
1000
0001
1000
0001
,
0100
0000
0010
0000
0100
0010
0100
0010
,
0110
0000
1001
0000
0100
0010
0100
0000
,
1001
0000
0110
0000
1000
0001
1000
0001
,
0100
0000
0100
0000
0010
1000
0010
1000
,
0100
0000
0100
0000
0001
0010
0001
0010
,
0110
0000
0110
0000
1000
0100
1000
0000
,
0110
0000
0110
0000
0001
0010
0001
0000
,
0110
0000
0110
0000
1000
0010
1000
0010
,
0110
0000
0110
0000
0001
0100
0001
0100
,
0010
0000
0010
0000
1000
0100
0010
0000
,
0011
0000
0011
0000
0010
0100
1000
0001
,
0010
0000
0010
0000
0001
1000
0010
0100
,
0002
0000
0000
0003
0002
0000
0200
0000
0000
0000
0000
0000
0000
0000
0303
0000
,
0001
0100
0010
1000
0000
1010
0000
0010
,
0100
0001
0010
0100
1000
0001
0010
0000
,
0001
0010
0100
1000
0000
0011
0000
0100
,
1000
0010
0100
0001
0100
0010
1000
0100
,
0010
0001
0010
0100
0000
0110
0000
0100
,
1000
0010
0100
0001
0100
0010
1000
0001
,
0100
0010
1000
0001
0000
1001
0000
1000
,
0100
0000
0100
0010
0000
0010
0001
0000
,
0001
0010
0100
1000
0000
0011
0000
0100
,
1000
0010
0100
0001
0100
0010
1000
0000
,
0001
0100
0010
1000
0000
0101
0000
0100
,
0010
1000
0100
0010
0001
0010
0100
0000
,
0010
0100
1000
0001
0000
1001
0000
0001
,
0100
0010
1000
0100
0010
0001
0010
0000
,
0100
1000
0001
0100
0010
0000
1000
0010
,
0100
0000
0200
0002
0000
0000
0000
0303
,
0002
0200
0000
0000
,
0000
0000
0000
0003
,
0020
0300
2000
0000
0000
0000
0030
0000
,
0200
3000
0020
0000
0000
0000
0000
0300
,
0002
0030
0200
0000
0000
0000
0000
0000
,
0000
0000
0000
0000
0000
0000
0000
0003
,
0020
0300
2000
0000
0000
0000
0030
0000
,
3002
0000
0200
0000
0000
0000
0000
0003
,
0010
0000
0020
0300
1000
0000
2000
0030
,
0100
0000
0200
3000
0010
0000
0020
0300
,
0001
0000
0002
0030
0100
0000
0200
0003
,
0010
0000
0020
0300
1000
0000
2030
0000
,
0100
0000
0200
3000
0010
0000
0320
0000
,
0001
0000
0002
0030
0200
0003
0010
0000
,
0020
0300
2030
0000
3100
0010
0001
0010
,
0200
0000
2000
0300
3020
0230
0302
2003
,
0002
3003
0220
0000
0330
0000
0000
0000
;

//---------------dance-single - Renard----------------
#NOTES:
     dance-single:
     Renard:
     Medium:
     5:
     0.330,0.430,0.145,0.000,0.000:
0000
0000
0000
0000
,
0000
0000
0000
0000
,
0000
0000
0000
0000
,
0000
0000
0000
0000
,
1000
0000
0000
0000
,
0000
0000
0000
0000
,
0001
0000
0000
0000
,
0100
0000
0000
0000
,
0010
0000
0010
0000
1000
0010
1000
0000
,
0010
0010
0010
0000
,
0100
0000
0100
0000
0001
0100
0001
0000
,
0100
0100
0100
0000
,
0001
0000
0001
0000
0010
0001
0010
0000
,
0001
0001
0001
0000
,
1000
0000
1000
0000
0100
1000
0100
0000
,
1000
1000
0001
0001
,
1000
0000
0001
0000
,
1000
0000
0001
0000
,
0100
0000
0010
0000
,
0100
0000
0010
0000
,
1000
0010
1000
0010
,
0100
0001
0100
0001
,
1000
0100
0010
0001
,
1000
1000
1000
1000
,
0010
0000
0000
0000
,
0110
0000
0000
0000
,
0010
0000
0010
0000
0100
0001
0100
0000
,
0010
0000
0010
0000
,
1000
0000
1000
0000
0100
0010
0100
0000
,
1000
0000
1000
0000
,
0010
0000
0010
0000
0100
0001
0100
0000
,
0010
0000
0010
0000
,
1000
0000
1000
0000
0100
1000
0100
0000
,
1000
0000
1000
0000
,
0001
0000
0010
0000
0001
1000
0001
0000
,
0010
0000
0010
0000
,
0100
0000
0100
0000
1000
0001
1000
0000
,
0010
0000
0010
0000
,
1000
0000
0001
0000
0100
0010
0100
0000
,
0010
0000
1000
0000
,
0001
0000
0100
0000
0001
1000
0001
0000
,
1000
0000
0000
0000
,
0100
0000
0100
1000
,
0001
0000
0001
0000
,
0010
0000
0010
0001
,
1000
0010
1000
0001
,
0100
0000
0100
0001
,
1000
0000
1000
0000
,
0100
1000
0001
0010
,
0001
0001
1000
0000
,
0001
0100
0001
0100
,
0010
0100
0010
0100
,
0010
1000
0010
1000
,
0100
1000
0100
1000
,
0100
0010
0100
0010
,
0001
0010
0001
0010
,
0001
0100
0010
1000
,
0001
0000
0000
0000
,
1001
1001
0000
0000
,
0000
0000
0000
0000
,
1010
1010
0000
0000
,
0101
0101
0000
0000
,
0011
0011
0000
0000
,
0000
0000
0000
0000
,
1100
1100
0000
0000
,
1010
1010
0000
0000
,
1000
0000
1000
0000
0001
1000
0001
0000
,
1000
0000
1000
0000
0001
1000
0001
0000
,
0100
0000
0100
0000
0010
0100
0010
0000
,
0100
0000
0100
0000
0010
0100
0010
0000
,
1000
0000
1000
0000
0001
1000
0001
0000
,
1000
0000
1000
0000
0001
1000
0001
0000
,
1000
0000
1000
0000
0100
1000
0100
0000
,
1000
0000
0001
0000
0010
0001
1000
0000
,
1001
1001
0000
0000
;

//---------------dance-single - Renard----------------
#NOTES:
     dance-single:
     Renard:
     Easy:
     2:
     0.279,0.358,0.135,0.000,0.000: // measure 1
0000
0000
0000
0000
,  // measure 2
0000
0000
0000
0000
,  // measure 3
0000
0000
0000
0000
,  // measure 4
0000
0000
0000
0000
,  // measure 5
0000
0000
0000
0000
,  // measure 6
0000
0000
0000
0000
,  // measure 7
0000
0000
0000
0000
,  // measure 8
0000
0000
0000
0000
,  // measure 9
1000
1000
0000
0000
,  // measure 10
0001
0001
0000
0000
,  // measure 11
0100
0100
0000
0000
,  // measure 12
0010
0010
0000
0000
,  // measure 13
1000
1000
0000
0000
,  // measure 14
0100
0100
0000
0000
,  // measure 15
0010
0010
0000
0000
,  // measure 16
0001
0001
0000
0000
,  // measure 17
1000
1000
0001
0001
,  // measure 18
1000
1000
0001
0001
,  // measure 19
1000
1000
0001
0001
,  // measure 20
1000
1000
0001
0001
,  // measure 21
1000
0001
1000
0001
,  // measure 22
1000
0001
1000
0001
,  // measure 23
1000
1000
1000
1000
,  // measure 24
0001
0001
0001
0001
,  // measure 25
0100
0100
0100
0100
,  // measure 26
0010
0000
0000
0000
,  // measure 27
1000
0000
0010
1000
,  // measure 28
0010
0000
0100
0001
,  // measure 29
0100
0000
0001
0010
,  // measure 30
0001
0000
1000
0100
,  // measure 31
1000
0000
0010
1000
,  // measure 32
0001
0000
0100
0001
,  // measure 33
1000
0000
0100
1000
,  // measure 34
0001
0000
0010
0001
,  // measure 35
1000
0000
0010
1000
,  // measure 36
0001
0000
0100
0001
,  // measure 37
1000
0000
0100
1000
,  // measure 38
0001
0000
0010
0001
,  // measure 39
1000
0000
0010
1000
,  // measure 40
0010
0000
0100
0001
,  // measure 41
0100
0000
0001
1000
,  // measure 42
0100
0000
0000
0000
,  // measure 43
1000
0000
1000
0001
,  // measure 44
0100
0100
0100
0000
,  // measure 45
0001
0000
0001
1000
,  // measure 46
0100
0100
0100
0000
,  // measure 47
1000
0000
1000
0001
,  // measure 48
0010
0010
0010
0000
,  // measure 49
0001
0000
0001
1000
,  // measure 50
0010
0010
0010
0000
,  // measure 51
1000
0001
1000
0001
,  // measure 52
0100
0100
0100
0000
,  // measure 53
0001
1000
0001
1000
,  // measure 54
0100
0100
0100
0000
,  // measure 55
1000
0001
1000
0001
,  // measure 56
0010
0010
0010
0000
,  // measure 57
1000
0000
0010
0100
,  // measure 58
0001
0001
0001
0000
,  // measure 59
1100
1100
0000
0000
,  // measure 60
0000
0000
0000
0000
,  // measure 61
1001
1001
0000
0000
,  // measure 62
0101
0101
0000
0000
,  // measure 63
1001
1001
0000
0000
,  // measure 64
0000
0000
0000
0000
,  // measure 65
0011
0011
0000
0000
,  // measure 66
1100
1100
0000
0000
,  // measure 67
1000
1000
1000
0000
,  // measure 68
0001
0001
0001
0000
,  // measure 69
0100
0100
0100
0000
,  // measure 70
0010
0010
0010
0000
,  // measure 71
1000
1000
1000
0000
,  // measure 72
0010
0010
0010
0000
,  // measure 73
0100
0100
0100
0000
,  // measure 74
0001
0001
0001
0000
,  // measure 75
1001
1001
0000
0000
;
