#TITLE:This is My Style;
#SUBTITLE:;
#ARTIST:Scott Brown;
#TITLETRANSLIT:;
#SUBTITLETRANSLIT:;
#ARTISTTRANSLIT:;
#CREDIT:;
#BANNER:style.png;
#BACKGROUND:style-bg.png;
#LYRICSPATH:;
#CDTITLE:;
#MUSIC:style.ogg;
#OFFSET:0.000;
#SAMPLESTART:54.585;
#SAMPLELENGTH:12.000;
#SELECTABLE:YES;
#BPMS:0.000=175.872;
#STOPS:;
#BGCHANGES:;

//---------------dance-single - Renard----------------
#NOTES:
     dance-single:
     Renard:
     Hard:
     9:
     0.607,0.648,0.699,0.466,0.000:
0000
0000
0000
0000
,
0000
0000
0000
0000
,
0000
0000
0000
0000
,
0000
0000
0000
0000
,
2002
0000
0000
0000
0000
0010
0000
0100
,
0000
0000
0000
0000
0003
0002
3000
2003
,
3001
0100
0010
0000
1001
0000
0000
0000
,
0001
0010
0100
1000
0000
0001
1000
0000
,
2002
0000
0000
0000
0000
0100
0000
0010
,
0000
0000
0000
0000
0003
0002
3000
2003
,
3001
1000
0100
0000
1001
0000
0000
0000
,
0001
0100
0010
1000
0000
0001
1000
0000
,
2002
0000
0000
0000
0000
0010
0000
0100
,
0000
0000
0000
0000
3000
2000
0003
3002
,
1003
0001
0010
0000
1001
0000
0000
0000
,
1000
0010
0100
0001
0000
1000
0001
0010
,
0011
0000
0110
0000
2200
0000
0000
0001
,
0000
3310
0000
1100
0000
1010
0000
0002
,
0200
0000
0010
0000
1000
0000
0000
1000
,
0313
0000
0001
0100
0000
1010
0000
1000
,
0002
0000
0200
0000
0020
0000
0300
1000
,
0000
1000
0000
1033
0000
1001
0000
2000
,
0200
0000
0010
0000
0010
0000
0000
0001
,
0010
0000
0001
0010
0000
3311
0000
1000
,
1100
0000
0110
0000
0202
0000
0000
1000
,
0000
0313
0000
0011
0000
0101
0000
2000
,
0200
0000
0010
0000
0001
0000
0000
0001
,
3310
0000
1000
0010
0000
0101
0000
0001
,
2000
0000
0200
0000
0020
0300
0000
0001
,
0000
0001
0000
3031
0000
1001
0000
0002
,
0200
0000
0010
0000
0010
0000
0000
1000
,
0313
0000
0000
0000
2002
0000
0000
3003
,
1001
0000
1010
0000
1000
0100
0010
0001
,
0000
0010
0000
0100
1000
0001
0100
0000
,
0110
0000
1001
0000
0001
0100
0010
1000
,
1010
0000
1001
0000
1000
0100
0010
0000
,
0001
0000
0001
0000
0001
0010
0100
1000
,
0000
1010
0000
0001
0100
0010
1000
0000
,
0101
0000
1001
0000
1000
0100
0010
0001
,
0011
0000
1100
0000
2002
0000
0000
3003
,
0101
0000
0110
0000
0010
1000
0100
0010
,
0000
0110
0000
0100
1000
0010
0100
0000
,
0101
0000
0110
0000
0010
1000
0100
1000
,
0000
0011
0000
0100
1000
0001
1001
0000
,
0101
0000
1010
0000
0001
1000
0100
0010
,
0000
0110
0000
0010
0001
0010
0100
0000
,
1100
0000
1010
0000
0010
1000
0001
0100
,
0000
0101
0000
0001
0100
0020
1000
0030
,
1010
0000
1010
0000
0001
0100
0010
1000
,
0000
1001
0000
1000
0100
0010
0001
0000
,
0110
0000
0011
0000
0001
0010
0100
1000
,
0000
1100
0000
1000
0010
0100
0001
0000
,
0101
0000
0110
0000
0010
1000
0100
0010
,
0000
0110
0000
0100
1000
0001
0010
0000
,
0110
0000
0011
0000
0001
0010
0100
1000
,
1001
0000
0110
0000
2002
0000
0000
3003
,
0001
0000
0001
0000
0001
1000
0200
0000
,
0010
0000
0010
0000
0010
0310
0001
0000
,
0001
0000
0001
0000
0001
0200
0010
0000
,
0010
0000
0010
0000
0010
0010
0010
0300
,
1010
0000
1100
0000
0100
0020
0001
0000
,
0001
0000
0001
0000
0031
0100
1000
0000
,
1000
0000
0100
0000
0200
0001
0010
0000
,
0310
1000
0100
0020
0000
0000
0000
0000
,
0000
0000
0000
0000
0000
0000
0000
0030
;

//---------------dance-single - Renard----------------
#NOTES:
     dance-single:
     Renard:
     Medium:
     5:
     0.312,0.323,0.033,0.033,0.000:
0000
0000
0000
0000
,
0000
0000
0000
0000
,
0000
0000
0000
0000
,
0000
0000
0000
0000
,
1000
0000
0000
0000
0000
0100
1000
0000
,
0000
0000
0000
0000
0000
0001
0010
0000
,
0001
0001
0100
0000
,
0010
1000
0010
1000
0000
0000
0000
0000
,
0010
0000
0010
0000
0000
1000
0000
0100
,
0000
0000
0000
0000
0000
0010
0000
0001
,
0000
0000
0000
0000
0000
0100
0000
0010
,
0000
0000
0000
0000
0000
1000
0010
0100
,
0001
0000
0000
0000
0000
0100
0000
0100
,
0000
0000
0000
0000
0000
0010
0000
0010
,
0000
0000
0000
0000
0000
1000
0000
1000
,
0002
0000
0000
0000
,
0103
0000
0100
0000
0001
0000
0000
1000
,
0000
0100
0000
0010
0000
0010
0000
0001
,
1000
0001
0100
0000
,
0010
0000
1000
0000
,
0001
0000
0001
0000
1000
0000
0000
0100
,
0000
1000
0000
0001
0000
0001
0000
0000
,
1000
0000
0100
0000
,
0010
0000
0000
0001
0000
1000
0000
0000
,
0001
0000
0001
0000
0001
0000
0000
1000
,
0000
0000
0000
0010
0000
0000
0000
0000
,
0100
0100
0100
0000
,
0001
0000
0000
1000
0000
0000
0000
0000
,
0100
0000
0100
0000
0100
0000
0000
1000
,
0000
0001
0000
1000
0000
0000
0000
0000
,
0001
0100
0010
0000
,
1000
0010
1000
0010
0000
0000
0000
0000
,
1000
0000
1000
0000
0010
0000
0000
0100
,
0000
0100
0000
0000
0001
0000
1000
0000
,
0100
0000
0100
0000
0010
0000
0000
0001
,
0000
0001
0000
0000
1000
0000
0010
0000
,
0100
0000
0100
0000
0001
0000
0000
1000
,
0000
1000
0000
0000
0100
0000
0010
0000
,
0001
0000
0001
0000
1000
0000
0000
0010
,
0000
0010
0000
0000
0100
0000
0001
0000
,
1000
0000
1000
0000
0100
1000
0100
1000
,
0000
1000
0000
0000
0100
0000
0000
0000
,
0010
0000
0010
0000
0001
0010
0001
0010
,
0000
0001
0000
0000
0100
0000
0000
0000
,
0010
0000
1000
0000
0001
0000
0000
1000
,
0000
0100
0000
0000
1000
0001
1000
0000
,
0001
0000
0010
0000
0001
0000
0000
1000
,
0000
0001
0000
0000
0100
0000
0010
0000
,
1000
0000
1000
0000
0010
0000
0000
0100
,
0000
0001
0000
0000
1000
0100
1000
0000
,
0001
0000
0010
0000
0001
0000
0000
1000
,
0000
0010
0000
0000
1000
0001
1000
0000
,
0001
0000
0100
0000
0010
0000
0000
1000
,
0000
0001
0000
0000
1000
0100
1000
0000
,
0001
0010
0001
0000
,
1001
0000
0000
0000
,
0100
0000
0000
0000
0100
0010
0100
0000
,
0000
0000
0000
0000
0000
0010
1000
0000
,
0001
0000
0001
0000
0001
0100
0001
0000
,
1000
0000
0000
1100
,
0100
0000
0000
0000
0000
0010
0001
0000
,
0010
0000
0000
0000
0000
0100
1000
0100
,
1000
0001
0100
0000
,
0010
0000
0000
2002
0000
0000
0000
0000
,
0000
0000
0000
3003
;

//---------------dance-single - Renard----------------
#NOTES:
     dance-single:
     Renard:
     Easy:
     2:
     0.257,0.287,0.022,0.022,0.000: // measure 1
0000
0000
0000
0000
,  // measure 2
0000
0000
0000
0000
,  // measure 3
0000
0000
0000
0000
,  // measure 4
0000
0000
0000
0000
,  // measure 5
1000
0000
0000
0000
,  // measure 6
0001
0000
0000
0000
,  // measure 7
1000
0000
0001
0000
,  // measure 8
1000
1000
1000
0000
,  // measure 9
0001
0001
0001
0000
,  // measure 10
1000
1000
1000
0000
,  // measure 11
0001
0001
0001
0000
,  // measure 12
1000
0000
0001
0000
,  // measure 13
1000
1000
1000
0000
,  // measure 14
0001
0001
0001
0000
,  // measure 15
1000
1000
0001
0001
,  // measure 16
1000
0000
1001
0000
,  // measure 17
1000
0001
1000
0000
,  // measure 18
0001
0000
0100
0000
,  // measure 19
0010
1000
0010
0000
,  // measure 20
1000
0000
0001
0000
,  // measure 21
0100
0001
0100
0000
,  // measure 22
0001
0000
0010
0000
,  // measure 23
0100
1000
0100
0000
,  // measure 24
1000
0000
0010
0000
,  // measure 25
1000
0001
1000
0000
,  // measure 26
0001
0000
0100
0000
,  // measure 27
0010
1000
0010
0000
,  // measure 28
0100
0000
0001
0000
,  // measure 29
1000
0100
1000
0000
,  // measure 30
0001
0010
0001
0000
,  // measure 31
1000
0010
1000
0001
,  // measure 32
0100
0000
0000
0000
,  // measure 33
0010
0010
0010
0000
,  // measure 34
0010
0000
0010
0000
,  // measure 35
0010
0010
0010
0000
,  // measure 36
0010
0010
0010
0000
,  // measure 37
0100
0100
0100
0000
,  // measure 38
0100
0000
0100
0000
,  // measure 39
0100
0100
0100
0000
,  // measure 40
0100
0000
0100
0000
,  // measure 41
0010
0010
0010
0000
,  // measure 42
1000
0010
1000
0000
,  // measure 43
0001
0001
0001
0000
,  // measure 44
0100
0001
1000
0000
,  // measure 45
0001
0001
0001
0000
,  // measure 46
0010
0010
0010
0000
,  // measure 47
0100
1000
0100
1000
,  // measure 48
0001
0010
0001
0000
,  // measure 49
1000
0000
1000
0001
,  // measure 50
0100
0000
0100
0000
,  // measure 51
0001
0000
0001
1000
,  // measure 52
0100
0000
0100
0000
,  // measure 53
1000
0001
1000
0000
,  // measure 54
0001
0010
0001
0000
,  // measure 55
1000
0010
1000
0000
,  // measure 56
1001
0000
0000
0000
,  // measure 57
0001
0000
0001
1000
,  // measure 58
0001
0000
0001
0000
,  // measure 59
1000
0000
1000
0001
,  // measure 60
1000
0000
1000
0000
,  // measure 61
0001
0000
0001
1000
,  // measure 62
0001
0000
0001
0000
,  // measure 63
1000
0001
0100
0000
,  // measure 64
0010
2000
0002
0000
,  // measure 65
0000
0000
0000
3003
;
