#TITLE:This Night;
#SUBTITLE:;
#ARTIST:Lollipop feat. Kitsune²;
#TITLETRANSLIT:;
#SUBTITLETRANSLIT:;
#ARTISTTRANSLIT:;
#CREDIT:;
#BANNER:night.png;
#BACKGROUND:night-bg.png;
#LYRICSPATH:;
#CDTITLE:;
#MUSIC:night.ogg;
#OFFSET:0.000;
#SAMPLESTART:65.032;
#SAMPLELENGTH:12.000;
#SELECTABLE:YES;
#BPMS:0.000=155.000;
#STOPS:31.500=1.548
;
#BGCHANGES:;

//---------------dance-single - Renard----------------
#NOTES:
     dance-single:
     Renard:
     Challenge:
     10:
     0.756,0.768,0.248,0.526,0.588:
0000
0000
0000
0000
,
0000
0000
0000
0000
,
0000
0000
0000
0000
,
0000
0000
0000
0000
,
2020
0000
3030
0202
0000
0000
0303
2002
,
0000
0000
3003
2200
0000
0000
0000
3300
,
0022
0000
0033
2002
0000
0000
3003
2020
,
0000
0000
0000
0000
0000
0000
0000
0000
3030
0000
0000
0000
0202
0000
0000
0000
0000
0000
0000
0000
0000
0000
0000
0000
0000
0000
0000
0000
0000
0303
0000
0000
,
0001
0100
0001
0100
0001
0100
0001
0100
0001
0100
0001
0100
0001
0100
0001
0100
,
0001
0000
1000
0010
0000
0000
0100
0001
0000
0000
0010
0001
0000
0000
1000
0100
,
0000
0000
1000
0010
0000
0000
0100
0010
0000
0000
0100
0001
0000
0000
0010
0001
,
0000
0000
0010
0100
0000
0000
1000
0100
0000
0000
1000
0010
0000
0000
0100
0001
,
0000
0000
0010
0001
0000
0000
1000
0100
0000
0000
0010
0001
0000
0000
1000
0010
,
0100
0000
0001
0010
0000
0000
0100
1000
0000
0000
0010
0100
0000
0000
0001
1000
,
0010
0000
0100
0001
0000
0000
1000
0010
0000
0000
0100
0001
0000
0000
0010
0100
,
1000
0000
0001
0010
0000
0000
0100
1000
0000
0000
0010
0100
0000
0000
0001
0100
,
0010
0000
1000
0010
0000
0000
0100
0001
0000
0000
1000
0001
1000
0001
1000
0000
,
0001
0000
0100
0000
0010
0000
1000
0100
0000
0100
0010
0000
0001
0000
0010
0100
,
1000
0000
0001
0000
0100
0000
0010
1000
0000
1000
0010
0000
0100
0000
0001
0010
,
0100
0000
1000
0000
0100
0000
0010
0001
0000
0001
1000
0000
0010
0000
0100
0001
,
0100
0010
1000
0010
0100
0001
0100
0010
,
1000
0000
0100
0000
0010
0000
0001
0010
0000
0010
0100
0000
1000
0000
0001
0010
,
0100
0000
1000
0000
0010
0000
0100
0001
0000
0001
0100
0000
0010
0000
1000
0010
,
0100
0000
0001
0000
1000
0000
0100
0010
0000
0010
0001
0000
0010
0000
0100
0000
,
1000
0000
0001
0000
1001
0000
0100
0010
0000
0010
0100
0000
1001
0000
0000
0000
,
1000
0000
0000
0000
0000
0000
0001
0100
0001
0000
0000
0100
0000
0000
0010
0000
,
1000
0000
0000
1100
0000
0000
0000
0000
,
0100
0000
0000
0010
0000
0000
0001
0000
0100
0000
0000
0010
0000
0000
1000
0000
,
0010
0000
0000
0000
0010
0000
0100
0000
0001
0000
0000
1000
0000
0000
0010
0000
,
0100
0001
0100
0010
0000
0010
1000
0100
,
0000
0100
0010
0001
0000
0001
1000
0000
,
0101
0000
0000
0110
0000
0000
1010
0000
1001
0000
0000
1100
0000
0000
0110
0000
,
0011
0000
0000
1001
0000
0001
0100
0000
,
0010
1000
0010
0100
0001
0010
0100
1000
,
0010
0100
0001
0100
1000
0100
0010
0001
,
0010
1000
0100
0010
0001
0010
0100
1000
,
0010
0001
0010
1000
0010
0000
1010
0000
,
0010
0100
0001
0010
0100
1000
0100
0001
,
0100
1000
0100
0010
0001
0010
1000
0010
,
0001
0100
1000
0100
0010
0001
0010
1000
,
0010
1000
1010
0000
0001
0100
0101
0000
,
0001
0000
1000
0100
0010
0000
0001
0010
0100
0000
1000
0001
1000
0000
0010
1000
,
0010
0000
0100
0001
0100
0000
0010
1000
0001
0000
0010
0100
0010
0000
0001
0010
,
0100
0000
1000
0100
1000
0000
0010
0100
0010
0000
0100
0001
0100
0000
0010
1000
,
0001
0000
0100
0010
1000
0000
0001
0100
0010
0000
1000
0000
0100
0000
0010
0000
,
0001
0000
0010
0100
1000
0000
0001
0010
0100
0000
1000
0010
0100
0000
0001
0100
,
0010
0000
1000
0010
0100
0000
0001
0010
0100
0000
1000
0100
1000
0000
0001
1000
,
0010
0000
1000
0001
0100
0000
0001
0010
0100
0000
0010
0001
0010
0000
0001
0010
,
0100
0000
1000
0100
1000
0000
0010
1000
0001
0000
0100
0000
0010
0000
2000
0000
,
0000
0000
0000
0000
0000
0000
3002
0203
0302
0000
0000
0203
0000
0000
0320
0000
,
2030
0000
0000
3200
0000
0000
0000
0000
,
0320
0000
0000
0032
0000
0000
2003
0000
3020
0000
0000
0032
0000
0000
2003
0000
,
3200
0000
0000
0000
0000
0000
0000
0000
0302
0000
0023
0000
0000
2030
0000
0000
,
0000
3020
0032
0023
0000
0032
0000
2003
,
0000
3020
0000
0230
0000
0000
0302
0000
,
0203
0000
0000
2300
0000
0000
3002
0000
0023
0000
0000
2030
0000
0000
3200
0000
,
0320
0000
0000
0032
0000
0023
0230
0000
,
1300
0100
0010
0000
0001
0010
0100
0000
1000
0010
0100
0000
0001
0100
0010
0000
,
1000
0010
0100
0000
0001
0010
0100
0000
1000
0100
0010
0000
0001
0000
0100
0000
,
0010
0000
1000
0010
0100
0000
0001
0100
0010
0000
1000
0100
0010
0000
0001
0010
,
0100
0000
1000
0010
0100
0000
0001
1000
0001
0000
0100
0010
1000
0000
0001
0000
,
1000
0100
0010
0000
0001
0010
0100
0000
1000
0010
0100
0000
0001
0100
0010
0000
,
1000
0100
0010
0000
0001
0010
0100
0000
1000
0010
0100
0000
0001
1000
0001
0000
,
0101
0000
0110
1100
0000
2002
0000
0200
,
0000
3303
0000
0000
;

//---------------dance-single - Renard----------------
#NOTES:
     dance-single:
     Renard:
     Hard:
     8:
     0.576,0.555,0.468,0.019,0.033:
0000
0000
0000
0000
,
0000
0000
0000
0000
,
0000
0000
0000
0000
,
0000
0000
0000
0000
,
1100
0000
0000
0011
0000
0000
0000
1001
,
0000
0000
0000
0110
0000
0000
0000
0000
,
1010
0000
0000
0101
0000
0000
0000
1001
,
0000
0000
0000
1100
0000
0000
0000
0000
,
0000
0000
0000
0000
,
1000
0100
0010
0001
0010
0100
1000
0100
,
1000
0100
0010
0001
0010
0100
1000
0100
,
1000
0001
0100
0010
1000
0010
0100
0001
,
0100
0001
0100
0010
1000
0010
0100
0001
,
1000
0100
0010
0001
0010
0100
0010
0100
,
1000
0100
0010
0001
0010
0100
0010
0100
,
1000
0100
0010
0001
0010
0100
1000
0001
,
0100
0010
1000
0010
0100
0001
1001
0000
,
1000
0100
1100
0000
1000
0100
0010
0001
,
1000
0001
0101
0000
0001
0100
0010
1000
,
0100
0010
0110
0000
0010
0001
1000
0010
,
0100
0001
0001
0000
1000
1000
1000
0000
,
1000
0100
0010
0001
1000
0001
1001
0000
,
0001
0100
0010
1000
0001
0010
0011
0000
,
0010
0100
1000
0000
0001
0100
0010
0000
,
1000
0010
0100
0001
1000
0000
1001
0000
,
1000
0000
0000
0000
0000
0000
0100
1000
0100
0000
0000
1000
0000
0000
0001
0000
,
0010
0000
0000
0001
0000
0000
0000
0000
,
1000
0000
0000
0010
0000
0000
0100
0000
0001
0000
0000
0010
0000
0000
0001
0000
,
1000
0000
0000
0000
0000
0000
0000
0000
0100
0000
0000
0010
0000
0000
0001
0000
,
0010
0100
1000
0001
0000
0100
0010
1000
,
0000
0010
0100
0001
0000
0010
0001
0000
,
0010
0000
0000
0100
0000
0000
1000
0000
0001
0000
0000
0010
0000
0000
0001
0000
,
1000
0000
0010
0100
0000
0001
0100
0010
,
1000
0010
0100
0100
0001
0010
0001
1000
,
0001
0100
0001
0010
0000
1001
1001
0000
,
0001
1000
0010
1000
1000
0100
1000
0010
,
0000
1000
0001
0100
0010
0000
1001
0000
,
0001
1000
0001
0001
0100
0001
0010
0001
,
1000
0001
0100
0001
0000
1001
1001
0000
,
1000
0100
1000
1000
0010
1000
0001
1000
,
0100
1001
0100
1001
,
0001
1000
0001
0001
0100
0001
0010
0001
,
1000
0001
0100
0001
1000
1001
1001
0000
,
1000
0100
1000
1000
0010
1000
0001
1000
,
0100
1000
0010
1000
0001
1001
1001
0000
,
0001
1000
0001
0001
0100
0001
0010
0001
,
1000
0001
0100
0001
0001
1001
1001
0000
,
1000
0100
1000
1000
0010
1000
0001
1000
,
0001
1001
0100
0110
,
0010
0000
1000
0001
0000
0101
0000
1001
,
0000
1100
0000
1001
0000
1000
0100
0010
,
0001
0010
0100
1000
0000
1100
0000
1010
,
0000
1000
0010
0100
0001
0000
0001
0000
,
0010
0001
1000
0001
0000
0101
0000
0011
,
0000
1001
0000
1001
0000
1000
0100
1000
,
0010
0000
0010
1000
0001
0000
0001
0100
,
0010
1000
0100
0010
0001
1000
0001
0000
,
1000
0100
1000
1000
0010
1000
0001
1000
,
0100
1000
0010
1000
0001
1001
1001
0000
,
0001
0010
0001
0001
0100
0001
1000
0001
,
0010
0001
1000
0001
0100
1001
1001
0000
,
1000
0100
1000
1000
0001
1000
0010
1000
,
0001
1000
0100
1000
0000
1001
1001
0000
,
0001
1000
0001
0101
0000
1010
0000
2002
,
0000
0000
3003
0000
;

//---------------dance-single - Renard----------------
#NOTES:
     dance-single:
     Renard:
     Medium:
     5:
     0.296,0.339,0.019,0.010,0.000:
0000
0000
0000
0000
,
0000
0000
0000
0000
,
0000
0000
0000
0000
,
0000
0000
0000
0000
,
0000
0000
0000
0000
,
0000
0000
0000
0000
,
0000
0000
0000
0000
,
0000
0000
0000
0000
,
0000
0000
0000
0000
,
1000
0100
1000
0100
,
0010
0000
0001
0000
0010
0001
0010
0001
,
0100
0001
0100
0001
,
1000
0000
0010
0000
1000
0001
1000
0000
,
0001
0000
0100
0000
0001
1000
0001
0000
,
1000
0100
1001
0000
,
1000
0000
0001
0000
0100
0001
0100
0000
,
0001
1000
1001
0000
,
1000
0000
0100
0000
1000
0100
1000
0000
,
0001
0010
0001
0000
,
1000
0000
0010
0000
1000
0010
1000
0000
,
0001
0100
0001
0000
,
1000
0000
0100
0000
1000
0100
1000
0000
,
0001
0010
0001
0000
,
1000
0000
0001
0000
1000
0001
1000
0000
,
0010
0100
0010
1000
,
0010
0000
0000
0100
0000
0000
0000
0001
,
1000
0000
0000
0100
0000
0000
0000
0000
,
0010
0000
0000
0000
0001
0000
1000
0010
,
0100
0000
0001
0001
,
0100
0010
1000
0010
0000
1000
0000
0010
,
0000
0100
0000
0001
0000
0000
0100
0000
,
0001
0000
0001
1000
0000
1000
0100
1000
,
0000
0000
0001
0000
,
0100
0000
0010
1000
0000
0010
0000
0100
,
0000
0100
0000
0100
0000
0000
0001
0000
,
1000
0000
1000
0100
0000
0010
0000
0001
,
0000
0010
0010
0100
,
1000
0000
0010
0100
0000
0001
0000
0100
,
0000
0010
0000
1000
0000
0000
0001
0000
,
0001
0000
1000
0100
0000
0010
0000
0001
,
0000
1000
0001
0010
,
0100
0000
1000
0001
0000
0100
0000
0010
,
0000
0010
0000
1000
0000
0001
0100
0000
,
0001
0000
1000
0100
0000
1000
0000
0001
,
0000
0010
0010
0100
,
1000
0000
0001
0100
0000
0010
0000
1000
,
0000
1000
0000
0010
0000
0100
0001
0000
,
0100
0000
0010
1000
0000
0001
0000
1000
,
0000
0100
1000
0001
,
0010
0000
0001
1000
,
0010
0000
0010
0000
,
0100
0001
0100
0010
,
1000
0000
1000
0000
,
0001
0000
0010
0001
0000
0010
0000
0100
,
0000
1000
0000
0001
0000
0000
1000
0000
,
0010
0000
0100
0000
,
0001
0100
0010
1000
,
0100
0100
1000
0000
,
0001
0001
0010
0000
,
0100
0100
1000
0010
,
0100
0100
0001
0000
,
0100
0010
0100
0010
,
1000
0001
1000
0001
,
0010
0000
0010
0100
0000
1000
0000
0001
,
0002
0000
0003
0000
;

//---------------dance-single - Renard----------------
#NOTES:
     dance-single:
     Renard:
     Easy:
     2:
     0.197,0.244,0.010,0.000,0.000: // measure 1
0000
0000
0000
0000
,  // measure 2
0000
0000
0000
0000
,  // measure 3
0000
0000
0000
0000
,  // measure 4
0000
0000
0000
0000
,  // measure 5
0000
0000
0000
0000
,  // measure 6
0000
0000
0000
0000
,  // measure 7
0000
0000
0000
0000
,  // measure 8
0000
0000
0000
0000
,  // measure 9
0000
0000
0000
0000
,  // measure 10
1000
0000
0001
0100
,  // measure 11
0001
0001
1000
0100
,  // measure 12
1000
0000
0001
1000
,  // measure 13
0001
0000
1000
0000
,  // measure 14
0001
0000
1000
1000
,  // measure 15
0010
1000
0001
0000
,  // measure 16
0010
0000
0001
0001
,  // measure 17
1000
0000
0010
0000
,  // measure 18
1000
0010
0000
0010
,  // measure 19
0100
0001
0000
0001
,  // measure 20
0010
0100
0000
0100
,  // measure 21
1000
0001
1000
0001
,  // measure 22
0100
0010
0000
0010
,  // measure 23
1000
0001
0000
0001
,  // measure 24
1000
0000
0100
0000
,  // measure 25
0010
0001
0010
0000
,  // measure 26
0100
0000
1000
0000
,  // measure 27
0001
0100
0001
0000
,  // measure 28
1000
0000
0001
0000
,  // measure 29
0010
0000
0010
0010
,  // measure 30
0001
0000
1000
0000
,  // measure 31
0010
0000
0100
0000
,  // measure 32
0001
0000
1000
0000
,  // measure 33
0100
0000
0100
0000
,  // measure 34
1000
0000
0000
0100
0000
0010
0000
0001
,  // measure 35
0000
0010
0000
0100
0000
0000
0000
0000
,  // measure 36
1000
0000
0000
0100
0000
0010
0000
0001
,  // measure 37
0000
0000
0000
0000
,  // measure 38
1000
0000
0000
0100
0000
0010
0000
0001
,  // measure 39
0000
0010
0000
0100
0000
0000
0000
0000
,  // measure 40
1000
0000
0000
0100
0000
0010
0000
0001
,  // measure 41
0000
0000
0000
0000
,  // measure 42
0001
0000
0000
0010
0000
0100
0000
1000
,  // measure 43
0000
0100
0000
0010
0000
0000
0000
0000
,  // measure 44
0001
0000
0000
0010
0000
0100
0000
1000
,  // measure 45
0000
0000
0000
0000
,  // measure 46
0001
0000
0000
0010
0000
0100
0000
1000
,  // measure 47
0000
0100
0000
0010
0000
0000
0000
0000
,  // measure 48
0001
0000
0000
0010
0000
0100
0000
1000
,  // measure 49
0000
0000
0000
0000
,  // measure 50
0001
0000
0100
0000
,  // measure 51
0010
0000
1000
0000
,  // measure 52
0100
0000
1000
0000
,  // measure 53
0001
0000
0000
0000
,  // measure 54
0010
0000
0001
0000
,  // measure 55
1000
0000
0010
0000
,  // measure 56
0100
0000
0010
0000
,  // measure 57
1000
0000
0000
0000
,  // measure 58
0010
1000
0010
1000
,  // measure 59
0001
0100
0001
0000
,  // measure 60
1000
0100
1000
0100
,  // measure 61
0010
0000
0001
0000
,  // measure 62
1000
0010
1000
0010
,  // measure 63
0100
0001
0100
0000
,  // measure 64
0001
0000
1000
0000
0010
0000
0000
1001
;
