#TITLE:This Ain't A Scene, It's an Arms Race;
#SUBTITLE:;
#ARTIST:Fall Out Boy;
#TITLETRANSLIT:;
#SUBTITLETRANSLIT:;
#ARTISTTRANSLIT:;
#CREDIT:;
#BANNER:scene.png;
#BACKGROUND:scene-bg.png;
#LYRICSPATH:;
#CDTITLE:;
#MUSIC:scene.ogg;
#OFFSET:0.000;
#SAMPLESTART:40.766;
#SAMPLELENGTH:12.000;
#SELECTABLE:YES;
#BPMS:0.000=100.035,68.000=200.070,196.000=100.035,228.000=200.070;
#STOPS:;
#BGCHANGES:;

//---------------dance-single - Renard----------------
#NOTES:
     dance-single:
     Renard:
     Challenge:
     9:
     0.686,0.776,0.696,0.050,0.124:
0000
0000
0000
0000
,
1000
0000
0001
0000
0100
0000
0010
0100
0010
0000
1000
0000
0100
0000
0110
0000
,
0000
0000
0010
0000
0001
0000
1000
0000
0001
0000
0100
0010
0100
0000
0010
0000
,
0110
0100
0110
0100
0101
0100
0101
0100
,
1100
0000
0110
0000
0101
0000
0000
0001
0100
1000
0100
0000
0101
0000
0000
0000
,
0001
0100
0010
0000
0110
0000
0010
0000
1000
0100
1000
0000
1100
0000
0000
0000
,
1000
0100
0010
0000
0011
0000
0000
0000
0010
0100
0010
0000
0110
0000
0100
0000
,
1000
0010
1000
0000
0001
0100
0001
0000
0010
0001
0010
0000
0100
1000
0100
0000
,
1000
0000
0001
0000
0100
0000
0010
0000
1000
0100
0010
0001
0010
0000
0010
0000
,
0001
0010
0011
0110
0000
1100
0011
1000
,
1001
1000
1100
1000
1010
1000
1001
1000
,
1000
0100
0010
0001
0010
0000
0011
0000
0001
0000
0001
0000
0101
0000
0100
0000
,
0010
0100
0010
0000
1010
0000
0000
0000
1000
0100
1000
0000
0011
0000
0000
0000
,
0100
1000
0001
0000
1000
0000
1001
0000
0000
0000
0001
0100
0010
0000
1000
0000
,
1010
1001
1100
1001
,
1000
0100
0010
0001
0010
0100
1000
0002
,
2000
0000
0000
0000
0000
0000
0000
0000
0000
0000
3003
0001
1000
0001
1000
0001
,
1000
0000
0011
0000
1000
0001
1000
0100
,
0010
0001
0010
0100
1000
0001
0100
0000
,
0110
0000
1010
0000
1000
0100
0010
0000
,
0001
0010
0100
0000
1000
0001
0100
0010
,
0100
0110
0110
0110
,
0110
0000
0010
0100
0000
0100
0010
0000
,
0010
1000
0100
0000
0110
0000
0110
0000
,
0010
0100
0010
0100
0000
0100
0010
0000
,
0010
0001
0010
0001
0010
0100
0010
0100
,
1000
0100
1000
0100
1000
0010
1000
0000
,
0001
0100
0001
0100
0001
0010
0001
0010
,
0100
0010
0100
0010
0100
1000
0010
1000
,
0010
1010
1001
1100
,
1001
0000
1000
0001
0000
0000
0001
1000
,
0001
0100
0010
0000
0110
0000
0110
0000
,
0010
1000
0100
0010
0000
0010
0001
0000
,
0010
0000
0100
0000
1000
0001
1000
0000
,
0001
0100
0001
0000
0100
0010
0100
0000
,
0010
1000
0010
1000
0100
1000
0100
1000
,
0001
0010
0001
0010
0000
0010
0001
0000
,
0010
0100
0010
0000
0100
1000
0100
0000
,
1000
0001
1000
0000
0001
0100
0001
0000
,
0100
0010
1000
0000
0001
0100
0010
0000
,
1000
0100
0010
0000
0001
0010
0100
0000
,
1000
1100
1000
1010
,
0010
0100
0001
0000
0010
0100
0010
0000
,
0010
0000
0110
0000
0100
1000
0010
0000
,
0100
0001
0100
0010
0000
0010
1000
0000
,
0100
0010
0001
0000
0010
0000
0100
0000
,
1000
0010
1000
0000
0001
0100
0001
0000
,
1000
0100
0010
0001
0010
0100
1000
0001
,
0010
0001
1000
0100
0010
0001
1000
0000
,
0001
1000
1001
0000
0010
0100
0110
0000
,
0101
0100
1100
0100
0110
0100
0101
0100
,
0001
0100
0001
0000
1000
0000
0100
0000
0010
0000
0001
0010
0100
0000
0010
0000
,
0110
0100
1100
0100
0101
0100
0110
0100
,
0100
1000
0001
0000
0101
0000
0100
0000
1100
0000
0100
0000
0010
0100
0000
0000
,
0101
1100
2002
3013
,
0010
0100
0001
0000
0101
0000
0100
0000
1100
0000
0100
0000
0001
0100
0000
0000
,
2002
0000
0000
0000
0100
0000
0000
0000
3013
0000
1000
0000
0001
0100
0001
0000
,
1000
0000
0100
0010
0000
0011
0000
0011
,
0000
0010
0100
1000
0001
0000
0010
0000
,
0001
0000
1000
0100
1000
0100
0010
0001
,
0010
0001
0010
0100
1000
0001
1000
0000
,
1000
1001
0110
1001
,
0110
0000
1000
0001
0000
0001
1000
0000
,
0010
0100
0010
0000
0110
0000
1001
0000
,
0110
0000
1000
0001
0000
0001
1000
0000
,
0110
0000
0101
0000
0001
0100
0010
0000
,
1000
0100
0010
0000
0100
1000
0001
0000
,
1100
0000
1010
0000
1000
0100
0010
0000
,
0001
0010
0100
1000
0001
0000
1001
0000
,
0001
0100
0010
0000
0110
0000
0110
0000
,
0110
0000
0010
1000
0000
1000
0001
0000
,
0100
0010
1000
0000
0100
0010
0001
0000
,
0010
0100
1000
0001
0000
0001
1000
0000
,
0001
0100
0010
1000
0100
0010
0001
0100
,
0010
1000
0100
0010
0001
1000
0001
0100
,
1001
0000
0000
0000
;

//---------------dance-single - Renard----------------
#NOTES:
     dance-single:
     Renard:
     Hard:
     8:
     0.620,0.745,0.613,0.207,0.083:
0000
0000
0000
0000
,
1000
1000
0100
0100
0010
0010
0001
0001
,
0000
0000
0001
0000
0010
0000
0100
0000
1000
0000
0001
0100
0001
0000
0100
0000
,
0010
0010
1000
1000
0001
0001
1000
1000
,
1001
1000
1001
0001
1001
1000
1001
0000
,
0001
0001
1000
1000
0001
0100
0010
1000
,
0000
0000
1000
0000
1000
0000
0001
0000
0001
0000
1000
0100
0010
0000
0001
0000
,
1000
0000
1000
0001
0100
0000
0100
0010
1000
0000
1000
0100
0010
0000
0010
0001
,
0010
0000
0100
1000
0001
0000
0100
0000
0010
0000
0000
0010
0100
0000
0010
0000
,
0110
0000
0100
0000
0101
0000
1001
0000
0000
0000
1000
0100
0010
0000
0001
0000
,
0011
2200
0011
3311
,
1000
0100
0010
0000
0011
0000
0011
0000
0000
0000
0010
0100
1000
0000
0100
0000
,
2200
3311
2200
3311
,
1000
0100
0010
0000
0001
0000
0010
0000
0100
0000
1000
0001
1000
0000
0001
0000
,
0202
0000
0013
0302
0200
0000
1313
0000
,
0001
0100
0010
1000
0100
0010
0002
2000
,
0000
0000
0000
0000
0000
0000
0000
0000
0000
3003
0000
0001
1000
0001
1000
0001
,
1000
1100
0010
0011
,
0001
0101
0010
1010
,
1000
0100
0010
0000
0001
0010
0100
0000
,
1000
0010
0100
0000
0001
0100
0010
0000
,
1000
1001
1001
1001
,
1001
0000
0001
1000
0000
0000
0000
0000
,
0010
0110
0110
0110
,
0110
0000
0010
0100
0000
0100
0010
0000
,
0110
0000
0010
0100
0001
0000
0010
0100
,
1000
0000
0100
0010
0001
1000
0010
0000
,
1000
0000
0001
0100
0010
0000
1000
0100
,
0010
0000
0001
0010
0100
1000
0001
0000
,
1000
1001
1001
1001
,
0110
0000
0010
0100
0000
0000
0000
0000
,
0100
0110
0110
0110
,
1001
0000
1000
0001
0000
0001
1000
0000
,
1000
0100
1000
0000
0001
0010
0001
0000
,
1000
0010
1000
0000
0001
0100
0001
0000
,
1000
0100
0010
0001
,
1000
0100
0000
1100
0000
0000
1000
0000
,
0001
0010
0100
0000
1000
0000
0001
0000
,
0100
0000
0010
1000
0010
0000
1000
0000
,
0100
1000
0100
1000
0001
0010
0001
0010
,
0001
0100
0001
0100
0010
1000
0010
1000
,
0001
0000
0101
0000
0001
0100
0010
0000
,
1000
0000
1010
0000
1000
0100
0010
0000
,
0001
0010
0100
1000
,
0001
0010
0000
0011
0000
0010
0100
0000
,
1000
0000
0010
0000
0100
0001
0100
0001
,
0100
0010
0100
0010
1000
0010
1000
0010
,
1000
0001
1000
0001
1000
0100
0010
0001
,
0010
0100
1000
0001
0010
0100
1000
0000
,
0001
0001
1000
2000
0000
0000
0001
0001
,
0002
0000
0110
3003
2002
0000
3113
0000
,
0001
0000
0002
0000
1000
0000
2000
0000
0000
0003
0001
0000
0001
0000
3001
0000
,
2002
0000
0113
0001
0002
0000
3113
0000
,
1100
0000
0000
0000
0011
0000
0000
0000
0000
0000
0001
0000
0100
0010
0000
0000
,
0220
1000
0001
1330
,
0110
0000
0000
0000
0101
0000
0000
0000
0000
0000
0001
0000
1000
0100
0000
0000
,
2200
0000
0000
0000
0001
0000
0000
0000
3310
0000
1000
0100
0010
0001
1000
0000
,
1000
0000
1000
0100
0000
0100
0000
1100
,
0000
1000
0100
0010
0001
0010
0001
0000
,
0010
0000
0001
0000
0010
0001
0010
0000
,
0100
0000
0010
0000
0100
0010
0100
0000
,
1000
1100
0011
1100
,
0011
0000
1000
0001
0000
0000
0000
0000
,
1000
0011
1100
0011
,
1100
0000
0001
1000
0000
0001
1000
0000
,
0001
0100
0001
0100
0010
0100
0000
0010
,
0000
1000
0100
0000
0010
0001
0010
0000
,
0001
0010
0100
1000
,
0001
0100
0001
0000
0100
0000
0010
1000
,
0000
1010
0101
1010
,
0101
0000
1000
0001
0000
0000
0000
0000
,
1000
0011
1100
0011
,
1100
0000
1000
0001
0000
0001
0100
0000
,
0010
0100
0010
0100
0001
0100
0001
0100
,
0001
1000
0001
1000
0100
0010
0001
0000
,
1001
0000
0000
0000
;

//---------------dance-single - Renard----------------
#NOTES:
     dance-single:
     Renard:
     Medium:
     6:
     0.459,0.559,0.580,0.099,0.000:
0000
0000
0000
0000
,
1000
0000
0001
0000
0100
0000
0010
0100
,
0000
0100
0010
0000
0110
0000
1010
0000
,
0010
0100
0001
0010
0100
1000
0001
0000
,
1001
0001
1001
1000
1001
0000
1001
0000
,
0001
0100
0001
0100
0010
0100
0010
0100
,
0000
0010
1000
0100
1000
0001
1000
0001
,
1000
0100
1000
0000
0001
0010
0001
0000
,
1000
0010
1000
0001
0100
0001
0100
0000
,
0001
0100
0010
1000
0000
0000
0001
1000
,
1001
0110
1001
0110
,
0001
0100
0010
1000
0000
0000
1100
1100
,
0011
2200
0001
3310
,
1000
0100
0010
0001
0000
0001
1000
0010
,
0100
0202
0010
1303
,
0001
0100
0001
0100
0010
0100
0010
2000
,
0002
0000
0000
0000
0000
0000
3003
1001
,
0001
0101
0000
0110
,
0000
1010
0000
1001
,
1000
1100
0000
0110
,
0000
0011
0000
0011
,
0010
0100
1000
0001
,
1000
0000
0001
1000
0000
0000
0000
0000
,
0001
0100
0010
1000
,
0100
0000
0010
0001
0000
0000
0000
0000
,
0010
0000
0100
0010
0000
0100
0000
0010
,
0000
0100
1000
0010
,
0100
0001
0100
0001
,
0100
0000
0010
0000
1000
0000
0001
1000
,
0000
1100
1100
1100
,
1100
0000
1000
0001
0000
0000
0000
0000
,
0000
0011
0011
0011
,
0011
0000
0010
0100
0000
0000
1000
0000
,
0001
0000
0100
0000
0010
0100
0010
0000
,
1000
0000
0010
0000
1000
0001
1000
0000
,
0001
0100
0001
0010
,
0100
1000
0000
1100
0000
0000
0000
0000
,
1000
0100
0010
0001
,
1000
0001
0100
0010
,
1000
0000
1010
0000
,
1001
0000
0101
0000
,
0011
0010
0100
0000
,
1000
0100
1000
0000
,
0010
0100
0001
0100
,
0010
0000
1000
0010
0000
0000
1000
0000
,
0010
0100
0001
0100
,
0001
0100
0001
0100
,
0010
1000
0100
0010
,
0001
0000
1000
0000
0001
1000
0001
0000
,
1000
0001
0100
0010
0000
0000
0110
0110
,
1010
1010
1001
1001
,
1000
0100
0010
0001
0000
0000
0011
0011
,
0110
1100
1001
1001
,
2002
0000
3013
0000
0000
0001
1000
0000
,
0202
0000
0000
1313
,
0001
0100
0010
0000
1100
0000
0110
0000
,
2002
0000
0000
3013
,
1000
0000
1000
0100
0000
0100
0000
1000
,
0000
0001
0010
0100
,
1000
0001
0100
0010
,
1000
0000
0100
0000
0010
0000
0001
1000
,
0000
1001
1001
1001
,
1001
0000
0001
1000
0000
0000
0000
0000
,
0001
0100
0010
1000
,
0100
0000
0000
1100
0000
0000
0000
0000
,
1100
0000
0001
0000
1000
0100
0000
1001
,
0000
1000
0100
0010
,
0001
1000
0001
0100
,
0010
1000
0001
0100
,
0010
0110
0110
0110
,
0110
0000
0010
0100
0000
0000
0000
0000
,
0000
1001
1001
1001
,
1001
0000
0001
1000
0000
0000
0000
0000
,
1000
1000
0100
0100
,
0010
0000
0010
0000
0001
0000
0001
0010
,
0100
0000
0000
0000
;

//---------------dance-single - Renard----------------
#NOTES:
     dance-single:
     Renard:
     Easy:
     3:
     0.310,0.466,0.149,0.050,0.000: // measure 1
0000
0000
0000
0000
,  // measure 2
1000
1000
0001
0001
,  // measure 3
0100
0100
0010
0010
,  // measure 4
1000
1010
0001
0101
,  // measure 5
0001
1000
0100
0000
,  // measure 6
0010
0001
1000
0001
,  // measure 7
0100
0010
1000
0100
,  // measure 8
1000
1000
0001
0001
,  // measure 9
1000
0001
0100
0010
,  // measure 10
1000
1000
0001
0100
,  // measure 11
0001
0001
0001
0001
,  // measure 12
0010
0100
1000
0010
,  // measure 13
0100
0100
0001
0001
,  // measure 14
1000
0100
0010
0001
,  // measure 15
1000
1000
1000
1000
,  // measure 16
0001
0010
0001
1000
,  // measure 17
2002
0000
0000
3003
,  // measure 18
1000
1000
0001
0001
,  // measure 19
1000
0001
1000
0000
,  // measure 20
0010
0010
0100
0100
,  // measure 21
0010
0100
0010
0000
,  // measure 22
1000
1000
0001
0001
,  // measure 23
1000
0001
1000
0000
,  // measure 24
0001
0100
0001
0000
,  // measure 25
1000
0010
1000
0000
,  // measure 26
0100
1000
0100
1000
,  // measure 27
0001
0000
0001
0000
,  // measure 28
0010
0001
0010
0001
,  // measure 29
1000
0000
1000
0000
,  // measure 30
0001
0100
0001
0000
,  // measure 31
1000
0010
1000
0000
,  // measure 32
0100
1000
0001
0010
,  // measure 33
0001
1000
0010
0100
,  // measure 34
0010
0000
0010
0000
,  // measure 35
1000
0000
1000
0000
,  // measure 36
0001
0001
0100
0100
,  // measure 37
0010
0010
1000
0000
,  // measure 38
0100
0000
1000
0000
,  // measure 39
0001
0010
0100
0000
,  // measure 40
1000
1000
0010
0010
,  // measure 41
0100
0100
0001
0000
,  // measure 42
1000
0000
0001
0000
,  // measure 43
0100
0010
1000
0001
,  // measure 44
0100
0000
0001
0000
,  // measure 45
1000
0100
1000
0000
,  // measure 46
0001
0000
0010
0000
,  // measure 47
0100
0000
1000
0000
,  // measure 48
0001
1000
0010
0100
,  // measure 49
0001
1000
0001
1000
,  // measure 50
0001
1001
1000
1001
,  // measure 51
1000
1001
0001
1001
,  // measure 52
1000
0010
0100
0001
,  // measure 53
0110
0110
1001
1001
,  // measure 54
0001
1001
0000
0110
,  // measure 55
2002
0000
0000
3013
,  // measure 56
0001
1001
0000
0110
,  // measure 57
2002
0000
0000
3013
,  // measure 58
1000
1000
0001
0001
,  // measure 59
1000
0001
1000
0001
,  // measure 60
0100
0100
0010
0010
,  // measure 61
0100
0010
0100
0010
,  // measure 62
1000
0000
0010
0000
,  // measure 63
0100
0000
0001
0000
,  // measure 64
1000
0000
0100
0000
,  // measure 65
0010
0000
0001
0000
,  // measure 66
1000
1000
0001
0000
,  // measure 67
1000
1000
0001
0000
,  // measure 68
0001
0001
1000
0000
,  // measure 69
0001
0001
1000
0000
,  // measure 70
0010
0000
0100
0000
,  // measure 71
0100
0000
0010
0000
,  // measure 72
0010
1000
0010
0000
,  // measure 73
0100
0001
0100
0000
,  // measure 74
0001
0000
0001
0000
,  // measure 75
1000
0100
0010
0001
,  // measure 76
1001
0000
0000
0000
;
