#TITLE:The Terminal;
#SUBTITLE:;
#ARTIST:Pendulum;
#TITLETRANSLIT:;
#SUBTITLETRANSLIT:;
#ARTISTTRANSLIT:;
#CREDIT:;
#BANNER:terminal.png;
#BACKGROUND:terminal-bg.png;
#LYRICSPATH:;
#CDTITLE:;
#MUSIC:terminal.ogg;
#OFFSET:0.000;
#SAMPLESTART:38.611;
#SAMPLELENGTH:12.000;
#SELECTABLE:YES;
#BPMS:0.000=174.000,32.000=87.000,56.000=174.000;
#STOPS:;
#BGCHANGES:;

//---------------dance-single - Renard----------------
#NOTES:
     dance-single:
     Renard:
     Hard:
     9:
     0.587,0.881,0.172,0.114,0.167:
0000
0000
0000
0000
,
0000
0000
0000
0000
,
0000
0000
0000
0000
,
0000
0000
0000
0000
,
0000
0000
0000
0000
,
0000
0000
0000
0000
,
0000
0000
0000
0000
,
0000
0000
0000
0000
,
1100
0000
0100
0010
0001
0000
0010
0000
0110
0000
0100
1000
0000
0010
0100
0000
,
0101
0000
0100
0010
1000
0000
0010
0100
0001
0000
0100
0010
1000
0010
1000
0000
,
1001
1000
1010
0010
0110
0100
0101
0000
,
0011
0000
0010
0000
0110
0000
0100
0000
1000
0010
0001
0010
0000
1000
0000
0000
,
0010
0100
0001
0000
0110
0000
0010
0000
1000
0100
0010
0000
0011
0000
0010
0000
,
0100
1000
0001
0000
0110
0000
0010
1000
0100
0000
0010
0000
0001
0000
0010
0000
,
0001
1000
0001
1000
0010
0100
0010
0100
,
0001
1000
0001
1000
0010
0100
0010
0100
,
0001
1000
0001
1000
0010
0100
0010
0100
,
0001
1000
0001
1000
0010
0100
0010
0000
,
2000
0000
3020
0000
,
0230
0000
0302
0000
,
0013
0100
1000
0100
0010
0001
0010
0100
,
1000
0010
0100
0001
1000
0001
1000
0001
,
1000
0000
0010
0000
0100
0000
0001
0000
0010
0000
0100
0010
0100
0000
0010
0000
,
0100
0000
1000
0000
0010
0000
0100
0000
0001
0000
1000
0001
1000
0000
0001
0000
,
0100
0000
0010
0000
1000
0000
0100
0000
0010
0000
0001
0010
0001
0000
0010
0000
,
0100
0000
1000
0000
0001
0000
0010
0000
0100
0000
1000
0100
1000
0000
0100
0000
,
1000
0000
0010
0000
0100
0000
0000
0000
0001
0000
0000
0100
0010
0000
0000
0000
,
1000
0000
0010
0000
0100
0000
0000
0000
0001
0000
0000
1000
0100
0000
0000
0000
,
0010
0000
0001
0000
0010
0000
0100
0000
1000
0000
0000
0001
0010
0000
0000
0000
,
0100
0000
1000
0000
0010
0000
0100
0000
0001
0000
0000
0010
0100
0000
0010
0000
,
0001
0000
0100
0000
0010
0000
1000
0000
0100
0000
0010
0100
0010
0000
0100
0000
,
0010
0000
0001
0000
0100
0000
0010
0000
1000
0000
0001
1000
0001
0000
1000
0000
,
0010
0000
0100
0000
0001
0000
0010
0000
0100
0000
1000
0100
1000
0000
0100
0000
,
0010
0000
0001
0000
1000
0000
0100
0000
0010
0000
0001
0010
0001
0000
0010
0000
,
0001
0000
0100
0000
0010
0000
0000
0000
1000
0000
0000
0010
0100
0000
0000
0000
,
0001
0000
0100
0000
0010
0000
0000
0000
1000
0000
0000
0001
0010
0000
0000
0000
,
0100
0000
1000
0000
0100
0000
0010
0000
0001
0000
0000
1000
0100
0000
0000
0000
,
0010
0000
0001
0000
0100
0000
0010
0000
1000
0000
0000
0010
0100
0000
0000
0000
,
2002
0000
0000
0000
,
0000
0000
0000
0000
,
0000
0000
0000
0000
,
0000
0000
0000
3003
,
0001
0100
0010
0000
1000
0010
0100
0000
,
0001
1000
0100
0000
0010
0001
0010
0000
,
0100
1000
0001
0000
0010
0100
1000
0000
,
0001
0100
0010
1000
0010
0100
0001
0000
,
1000
0001
1000
0001
0100
0010
0100
0010
,
1000
0010
1000
0010
0100
0001
0100
0001
,
0010
0100
1000
0100
0010
0001
1000
0001
,
0100
0000
0001
0000
1000
0000
0010
0000
1000
0010
1000
0000
0001
0000
0001
0000
,
1000
0100
0001
0100
2000
0000
3020
0000
,
0031
0010
1000
0010
0001
0010
0100
0010
,
0001
0010
0100
1000
0100
0001
0100
0010
,
1000
0010
0100
0001
0010
0100
1000
0000
,
0001
0010
1000
0010
0002
0000
0203
0000
,
1300
0100
0001
0100
1000
0100
0010
0100
,
1000
0100
0010
0001
0010
1000
0010
0100
,
0001
0100
0010
1000
0100
0010
0001
0000
,
1000
0000
0110
0000
0010
0001
0100
0010
,
1000
0000
0101
0000
0010
1000
0100
0010
,
0001
0000
0110
0000
0100
1000
0001
1000
,
0010
0000
1010
0000
0010
0100
0001
0010
,
0001
0000
0010
0000
0100
0000
0000
0000
1000
0000
0000
0010
0100
0000
0000
0000
,
0001
0000
0100
0000
0010
0000
0000
0000
1000
0000
0000
0010
0100
0000
0000
0000
,
0001
0000
0100
0000
0010
0000
0000
0000
1000
0000
0000
0100
0010
0000
0000
0000
,
0001
0000
0010
0000
0100
0000
1000
0000
0001
0000
0000
1000
0001
0000
0000
0000
,
2002
0000
0000
0000
,
0000
0000
0000
0000
,
0000
0000
3003
0000
;

//---------------dance-single - Renard----------------
#NOTES:
     dance-single:
     Renard:
     Medium:
     5:
     0.310,0.511,0.105,0.019,0.000:
0000
0000
0000
0000
,
0000
0000
0000
0000
,
0000
0000
0000
0000
,
0000
0000
0000
0000
,
0000
0000
0000
0000
,
0000
0000
0000
0000
,
0000
0000
0000
0000
,
0000
0000
0000
0000
,
1000
1000
0001
0001
,
1000
1000
0001
0001
,
0100
0010
0110
0000
0010
1000
1010
0000
,
0001
0100
0101
0000
1000
1000
1000
0000
,
0100
1000
0001
0010
,
0100
1000
0100
1000
0001
0010
0001
0000
,
1000
0000
1000
0000
0001
1000
0001
0000
,
1000
0000
1000
0000
0001
1000
0001
0000
,
1000
0000
1000
0000
0001
1000
0001
0000
,
1000
0000
1000
0000
0001
1000
0001
0000
,
0200
0000
0000
0000
,
0000
0000
0000
0000
,
0000
0000
0000
0000
,
0000
0000
0000
0000
,
0310
0000
0110
0000
0000
0100
0001
0000
,
1000
0000
1100
0000
0000
1000
0001
0000
,
1000
0000
1100
0000
0000
0010
0001
0000
,
1000
0000
1010
0000
0000
0100
0001
0000
,
0100
0000
0010
0000
1000
0100
1000
0000
,
0001
0000
0010
0000
,
0001
0000
1000
0001
,
0100
0000
0010
0100
0010
0000
0000
0000
,
0100
0000
0101
0000
0000
0001
1000
0000
,
0100
0000
1100
0000
0000
1000
0001
0000
,
0010
0000
0011
0000
0000
0001
1000
0000
,
0010
1000
0001
0100
,
0001
0000
0000
1000
0000
0100
1000
0000
,
0001
0000
0000
0010
0000
0001
1000
0000
,
0001
0000
0000
0100
0000
0010
1000
0000
,
0001
0001
0100
0000
,
1001
0000
0000
0000
,
0000
0000
0000
0000
,
0000
0000
0000
0000
,
0000
0000
0000
0000
,
1000
0000
1000
0000
,
0001
0000
0001
0000
,
0100
0100
0100
0100
,
0010
0000
0010
0000
1000
0010
1000
0000
,
0001
0001
1000
1000
,
0100
0100
0010
0010
,
0001
1000
0001
0100
,
0010
1000
0010
1000
0010
1000
0010
0000
,
1000
0000
0010
0000
0000
0100
0001
0000
,
1000
0000
0100
0000
0000
0010
0001
0000
,
1000
0000
0001
0000
0000
0100
0010
0000
,
1000
0010
0100
0001
,
1000
0000
0100
0000
0000
0010
0001
0000
,
1000
0000
0100
0000
0000
0010
0001
0000
,
1000
0000
0010
0000
0000
0100
0001
0000
,
1000
0100
1000
0001
,
0100
0000
0010
0000
0000
1000
0010
0000
,
0100
0001
1000
0100
,
0010
0000
0001
0000
0000
1000
0001
0000
,
0010
0100
1000
0010
,
0100
0001
0100
0010
,
1000
0000
0100
0000
1000
0001
1000
0001
,
1000
0001
0100
0010
,
1000
0000
0100
0000
0010
0001
0010
0001
,
0020
0000
0000
0000
,
0030
0000
0000
0000
;

//---------------dance-single - Renard----------------
#NOTES:
     dance-single:
     Renard:
     Easy:
     2:
     0.227,0.383,0.038,0.010,0.000: // measure 1
0000
0000
0000
0000
,  // measure 2
0000
0000
0000
0000
,  // measure 3
0000
0000
0000
0000
,  // measure 4
0000
0000
0000
0000
,  // measure 5
0000
0000
0000
0000
,  // measure 6
0000
0000
0000
0000
,  // measure 7
0000
0000
0000
0000
,  // measure 8
0000
0000
0000
0000
,  // measure 9
1000
1000
0001
0001
,  // measure 10
1000
1000
0001
0001
,  // measure 11
0100
0110
0010
0110
,  // measure 12
0100
0110
0110
0000
,  // measure 13
0010
0010
1000
1000
,  // measure 14
0001
0001
0100
0100
,  // measure 15
0010
0000
0010
0000
,  // measure 16
1000
0000
1000
0000
,  // measure 17
0001
0000
0001
0000
,  // measure 18
0100
0000
0100
0010
,  // measure 19
0100
0000
0100
0000
,  // measure 20
0100
0000
0100
0000
,  // measure 21
0100
0100
0100
0100
,  // measure 22
0100
0100
0100
0100
,  // measure 23
0100
0010
0000
0010
,  // measure 24
1000
0100
0000
0100
,  // measure 25
0010
0001
0000
0001
,  // measure 26
1000
0010
1000
0000
,  // measure 27
0001
0100
0000
0100
,  // measure 28
0010
1000
0000
1000
,  // measure 29
0100
1000
0000
1000
,  // measure 30
0001
0010
0001
0000
,  // measure 31
1000
0100
0000
0100
,  // measure 32
0010
0001
0000
0001
,  // measure 33
1000
0010
0000
0010
,  // measure 34
0100
0001
0000
0001
,  // measure 35
1000
0100
1000
0000
,  // measure 36
0001
0010
0001
0000
,  // measure 37
1000
0010
1000
0000
,  // measure 38
0001
0100
0001
0000
,  // measure 39
1000
0000
0000
0000
,  // measure 40
0000
0000
0000
0000
,  // measure 41
0000
0000
0000
0000
,  // measure 42
0000
0000
0000
0000
,  // measure 43
0001
0000
0001
0000
,  // measure 44
0100
0000
0100
0000
,  // measure 45
0010
0000
0010
0000
,  // measure 46
1000
0000
0010
1000
,  // measure 47
0010
0000
0010
0000
,  // measure 48
0100
0000
0100
0000
,  // measure 49
0001
0100
0001
1000
,  // measure 50
0100
0010
0001
1000
,  // measure 51
0001
0100
0000
0100
,  // measure 52
0010
1000
0000
1000
,  // measure 53
0100
0010
0100
0010
,  // measure 54
0100
0010
0100
0010
,  // measure 55
0001
1000
0000
1000
,  // measure 56
0010
0100
0000
0100
,  // measure 57
0001
0010
0000
0010
,  // measure 58
0100
1000
0100
1000
,  // measure 59
0001
0010
0000
0010
,  // measure 60
0000
0001
0000
1000
,  // measure 61
0010
0100
0000
0001
,  // measure 62
0000
1000
0000
0100
,  // measure 63
1000
0001
0000
0010
,  // measure 64
0000
0100
0000
0010
,  // measure 65
0001
1000
0000
0010
,  // measure 66
0000
0100
0000
0010
,  // measure 67
2000
0000
0000
0000
,  // measure 68
3000
0000
0000
0000
;
