#TITLE:The Roots of Coincidence;
#SUBTITLE:;
#ARTIST:Pat Metheny Group;
#TITLETRANSLIT:;
#SUBTITLETRANSLIT:;
#ARTISTTRANSLIT:;
#CREDIT:;
#BANNER:roots.png;
#BACKGROUND:roots-bg.png;
#LYRICSPATH:;
#CDTITLE:;
#MUSIC:roots.ogg;
#OFFSET:0.000;
#SAMPLESTART:12.755;
#SAMPLELENGTH:12.000;
#SELECTABLE:YES;
#BPMS:0.000=150.000;
#STOPS:;
#BGCHANGES:;

//---------------dance-single - Renard----------------
#NOTES:
     dance-single:
     Renard:
     Hard:
     9:
     0.672,0.996,0.217,0.165,0.356:
0000
0000
0000
0000
,
0000
0000
0000
0000
,
0000
0000
0000
0000
,
0000
0000
0000
0000
,
0001
1000
0100
1000
0001
0010
0001
1000
,
0010
1000
0000
0001
0100
0000
0001
0000
0010
0100
0000
0010
0100
0000
1000
0000
,
0100
1000
0010
1000
0001
1000
0100
1000
,
0001
1000
0000
0010
1000
0000
0100
0000
1000
0001
0000
0010
0001
0000
0010
0001
,
0010
0000
0001
0000
0010
0000
0100
1000
0100
0000
1000
0000
0010
0000
0100
0000
,
0001
0000
0000
0000
0100
0000
0010
1000
0010
0000
1000
0000
0100
0000
1000
0100
,
1000
0010
0100
0001
0010
0001
1000
0100
,
1000
0000
0001
0010
0001
0000
1000
0100
1000
0000
0010
1000
0010
0000
1000
0010
,
0100
0000
0001
0000
0010
0000
0100
0000
1000
0000
0001
0000
0100
0000
0010
1000
,
0010
0000
1000
0000
0100
0000
0010
0100
0010
0000
0001
0000
0010
0000
0100
0010
,
0100
0010
0100
1000
0010
0100
0001
0100
,
0010
0000
1000
0000
0100
0000
0010
0000
0001
0000
0010
0100
1000
0000
0001
0000
,
0100
0000
0010
0000
1000
0000
0100
0000
0010
0000
0001
0000
0010
0000
0100
1000
,
0100
0000
1000
0000
0010
0000
1000
0010
1000
0000
0010
0000
0100
0000
0001
0100
,
0001
0000
0100
0000
0001
0000
0010
0001
0010
0000
0001
0000
0010
0000
0100
0010
,
0100
0000
1000
0000
0100
0000
1000
0000
0010
0000
0100
0000
0001
0000
0100
0001
,
0100
0000
0001
0000
0100
0000
0010
0100
0010
0000
0100
0000
0010
0000
1000
0010
,
1000
0000
0010
0000
1000
0000
0100
1000
0100
0000
1000
0000
0001
0000
1000
0001
,
1000
0001
0100
0010
1000
0100
0010
0001
,
0010
0100
1000
0010
0100
0001
0010
0100
,
1000
0001
0100
0010
1000
0100
0010
0001
,
0010
0100
1000
0001
0100
0010
1000
0000
,
1010
1000
1010
1000
1010
1000
1010
1000
,
1010
1000
1010
1000
1010
1000
1001
1000
,
1001
1000
1100
1010
0000
0000
0000
0000
,
0000
0000
0000
0000
,
1000
0000
0001
0000
1001
0000
0000
0010
0000
1000
0100
0000
1100
0000
0000
0000
,
1000
0000
0001
0000
1001
0000
0000
0001
0000
0100
0000
0001
0010
0000
0000
0000
,
0200
0000
1000
0000
0010
0000
0001
0300
,
0200
1000
0010
0301
,
2000
0000
0010
0000
0100
0000
0001
3000
,
2000
0000
0010
0000
0100
0000
0001
3000
,
0002
0000
0100
0000
1000
0000
0010
0003
,
0002
0010
1000
0103
,
0020
0000
0100
0000
0001
0000
1000
0030
,
0020
1000
0001
0130
,
0020
0000
1000
0000
0100
0100
1000
0030
,
2000
0000
0100
0000
0001
0001
0100
3000
,
0002
0000
0010
0000
1000
1000
0010
0003
,
0200
0000
0010
0000
1000
1000
0010
0300
,
2000
0000
0100
0000
0001
0000
0010
3000
,
0002
1000
0100
0010
,
0203
0000
0010
0000
0001
0000
1000
0300
,
0002
0010
1000
0103
,
0001
0000
0100
0000
0001
0000
0100
0000
0001
0000
0100
0000
0001
0100
0001
0000
,
1000
0000
0010
0000
1000
0000
0010
0000
1000
0000
0010
0000
1000
0010
1000
0000
,
0100
0000
1000
0000
0100
0000
1000
0000
0100
0000
1000
0000
0100
1000
0100
0000
,
1000
0000
0001
0000
0010
0000
0001
0010
0001
0000
1000
0000
0001
0000
0100
0000
,
0010
0000
1000
0000
0100
0000
0010
0000
0001
0000
0010
0000
0001
0010
0001
0000
,
0010
0000
0100
0000
0010
0000
0100
0000
0010
0000
0100
0000
0010
0100
0010
0000
,
0100
0000
1000
0000
0100
1000
0100
0000
1000
0000
0010
0000
1000
0010
1000
0000
,
0001
0100
0001
1000
0100
0010
0001
1000
,
0001
0000
1000
0001
1000
0000
0001
0000
1000
0000
0001
1000
0001
0000
1000
0000
,
0010
0000
1000
0010
1000
0000
0010
0000
1000
0000
0010
1000
0010
0000
1000
0000
,
0001
0000
0100
0001
0100
0000
0001
0000
0010
0000
0001
0010
0001
0000
0010
0000
,
0100
0000
0010
0100
0010
0000
0100
0000
1000
0000
0100
1000
0100
0000
1000
0000
,
0010
1000
0010
1000
0010
1000
0010
1000
0010
1000
0010
1000
0010
1000
0010
1000
,
0010
1000
0010
1000
0010
1000
0010
1000
0010
1000
0010
1000
0010
1000
0010
1000
,
0010
1000
0010
1000
0010
1000
0010
1000
0010
1000
0010
1000
0010
1000
0010
1000
,
0010
1000
0010
1000
0010
1000
0010
1000
0010
1000
0010
1000
0010
1000
0010
0000
,
0101
0001
1001
0001
0011
0001
0101
0001
,
0011
0001
1001
0001
0101
0001
1001
0001
,
0011
0001
0101
2002
0000
0000
0000
0000
,
0000
0000
0000
0000
,
0000
0000
0020
0000
,
0000
0000
3033
0000
;

//---------------dance-single - Renard----------------
#NOTES:
     dance-single:
     Renard:
     Medium:
     5:
     0.320,0.506,0.000,0.017,0.000:
0000
0000
0000
0000
,
0000
0000
0000
0000
,
0000
0000
0000
0000
,
0000
0000
0000
0000
,
1000
0100
1000
0100
,
0010
0010
0001
0001
,
0100
0001
0100
0001
,
1000
0000
1000
0000
0010
0000
0000
1000
,
0001
0000
0000
0000
0100
0000
0000
0001
,
1000
0000
0000
0100
0010
0000
0000
0001
,
1000
0001
0100
0010
,
1000
0000
0100
0000
0010
0100
0010
0001
,
1000
0000
0000
0000
0001
0000
0000
0100
,
0010
0000
0000
1000
0100
0000
0000
0010
,
0001
1000
0001
0100
,
0010
0000
1000
0001
1000
0000
0100
0000
,
0010
0000
0001
0000
1000
0000
0001
0100
,
0001
0000
0000
1000
0010
0000
0000
1000
,
0100
0000
0000
0010
0001
0000
0000
1000
,
0010
0000
0000
0000
0100
0000
0001
0100
,
0001
0000
1000
0001
1000
0000
0100
1000
,
0100
0000
1000
0001
1000
0000
0001
0010
,
0001
0000
0010
0000
0100
0000
1000
0100
,
1000
0000
0010
0000
0100
0000
0001
1000
,
0001
0000
1000
0000
0100
0000
0010
0001
,
0010
0100
1000
0001
,
0100
0001
0100
0001
0100
0001
0100
0001
,
0100
0001
0100
0001
0100
0001
0100
0001
,
0100
0001
0100
0001
0000
0000
0000
0000
,
0000
0000
0000
0000
,
0000
0000
0000
0000
,
1000
0000
0100
0000
0000
0010
0001
0000
,
1000
0000
1000
0000
1000
0000
1000
0100
,
0010
0010
0001
1000
,
0001
0001
0001
0001
,
0100
0000
0010
0000
1000
0000
0010
1000
,
0010
0100
0001
1000
,
0100
0000
0100
0000
1000
0001
1000
0000
,
0001
0001
0010
0010
,
0001
0001
1000
1000
,
0001
0000
0100
0001
,
1000
0000
0000
0000
0100
0000
1000
0001
,
1000
0000
0001
0010
,
0001
0000
0000
0000
0010
0000
0001
1000
,
0001
0000
0010
0000
,
0001
0000
1000
0000
0001
0000
0100
0001
,
0100
0000
0001
0000
,
1000
0000
0100
0000
1000
0000
0001
0010
,
0001
0000
1000
0100
,
1000
0000
0001
0000
,
1000
0000
0010
0000
,
0100
0000
0001
0000
,
0010
0010
0100
0100
,
1000
1000
0001
0001
,
0100
0100
0001
0001
,
1000
1000
0100
0000
,
0010
0010
0001
0000
,
1000
1000
0100
0000
,
1000
1000
0010
0000
,
0100
0100
0001
0000
,
1000
0100
1000
0001
,
0010
0001
1000
0010
,
1000
0001
0100
0001
,
1000
0100
0010
0001
,
1000
0001
1000
0001
1000
0001
1000
0001
,
1000
0001
1000
0001
1000
0001
1000
0001
,
1000
0001
2000
0002
0000
0000
0000
0000
,
0000
0000
0000
0000
,
0000
0000
3003
0000
;

//---------------dance-single - Renard----------------
#NOTES:
     dance-single:
     Renard:
     Easy:
     2:
     0.252,0.535,0.191,0.295,0.000: // measure 1
0000
0000
0000
0000
,  // measure 2
0000
0000
0000
0000
,  // measure 3
0000
0000
0000
0000
,  // measure 4
0000
0000
0000
0000
,  // measure 5
1000
0000
1000
0000
,  // measure 6
0001
0100
0001
0000
,  // measure 7
0010
0000
0010
0000
,  // measure 8
0001
1000
0001
0000
,  // measure 9
0100
0000
0100
0000
,  // measure 10
0010
0000
1000
0000
,  // measure 11
1010
0000
0000
0000
,  // measure 12
1000
0000
0010
0000
,  // measure 13
0100
0000
0001
0000
,  // measure 14
0010
0000
0001
0000
,  // measure 15
1100
0000
0000
0000
,  // measure 16
1000
0000
0001
0000
,  // measure 17
0010
0000
0001
0000
,  // measure 18
0100
0010
1000
0000
,  // measure 19
0001
0100
0001
0000
,  // measure 20
1000
0000
0000
0100
,  // measure 21
1000
0000
0011
0000
,  // measure 22
1001
0000
0101
0000
,  // measure 23
1010
0000
0000
0000
,  // measure 24
1000
0000
0000
0000
,  // measure 25
0001
0000
0100
0000
,  // measure 26
0010
0000
1000
0000
,  // measure 27
1001
1001
1001
1001
,  // measure 28
1001
1001
1001
1001
,  // measure 29
1001
1001
0000
0000
,  // measure 30
0000
0000
0000
0000
,  // measure 31
1000
0000
1000
0000
,  // measure 32
0001
0001
0001
0000
,  // measure 33
2000
0000
3200
0000
,  // measure 34
2300
0000
0000
0000
,  // measure 35
3002
0000
0203
0000
,  // measure 36
0302
0000
0000
0000
,  // measure 37
0023
0000
0230
0000
,  // measure 38
2300
0000
3002
0000
,  // measure 39
0203
0000
0302
0000
,  // measure 40
2003
0000
3200
0000
,  // measure 41
1300
0000
1000
0100
,  // measure 42
0010
0001
0001
0000
,  // measure 43
0001
0000
0001
0010
,  // measure 44
0100
1000
1000
0000
,  // measure 45
1000
0000
1000
0010
,  // measure 46
0100
0001
0001
0000
,  // measure 47
0001
0000
0100
0010
,  // measure 48
1000
0001
0000
1000
,  // measure 49
0200
0000
2300
0000
,  // measure 50
3020
0000
0230
0000
,  // measure 51
0302
0000
2003
0000
,  // measure 52
3200
0000
2300
0000
,  // measure 53
3001
0000
0020
0000
,  // measure 54
0230
0000
1300
0000
,  // measure 55
0010
0000
0200
0000
,  // measure 56
0302
0000
1003
0000
,  // measure 57
0200
0000
2300
0000
,  // measure 58
3002
0000
0013
0000
,  // measure 59
0020
0000
0032
0000
,  // measure 60
2003
0000
3100
0000
,  // measure 61
0100
1000
0100
1000
,  // measure 62
0001
0010
0001
0010
,  // measure 63
0100
1000
0100
1000
,  // measure 64
0010
1000
0010
1000
,  // measure 65
0001
0001
1001
1001
,  // measure 66
1000
1000
1001
1001
,  // measure 67
0110
0220
0000
0000
,  // measure 68
0000
0000
0000
0000
,  // measure 69
0000
0000
0330
0000
;
