#TITLE:The Rainbow;
#SUBTITLE:;
#ARTIST:Emoticon;
#TITLETRANSLIT:;
#SUBTITLETRANSLIT:;
#ARTISTTRANSLIT:;
#CREDIT:;
#BANNER:rainbow.png;
#BACKGROUND:rainbow-bg.png;
#LYRICSPATH:;
#CDTITLE:;
#MUSIC:rainbow.ogg;
#OFFSET:0.000;
#SAMPLESTART:31.420;
#SAMPLELENGTH:12.000;
#SELECTABLE:YES;
#BPMS:0.000=190.086,29.000=380.172,31.000=566.906,34.000=190.093,64.000=380.187,65.000=190.093,95.000=380.187,96.000=190.093,96.500=380.186,97.500=190.093,98.500=380.186,99.500=190.093,100.500=380.186,101.500=190.093,102.000=380.186,103.500=760.372,104.000=380.186,104.500=190.093,133.000=380.186,135.000=190.093,163.000=380.186,164.500=190.093,165.000=380.186,165.500=190.093,165.750=380.186,166.250=190.093,166.500=380.186,167.000=190.093,167.250=380.186,167.750=190.093,168.000=380.186,168.500=190.093,168.750=380.186,169.250=190.093,169.500=380.186,170.000=190.093,172.000=380.186,173.000=190.093,174.000=95.047,175.000=190.093,196.000=380.186,197.000=190.093,225.000=380.186,227.000=190.093,252.000=380.186,253.000=190.093,253.500=95.047,253.750=47.523,254.000=95.047,254.250=190.093,254.750=380.186,255.750=190.093,269.500=380.186,270.500=190.093,284.000=380.186,284.500=190.093,285.250=380.186,286.250=190.093,287.250=380.186,288.250=190.093,288.500=380.186,290.500=190.093;
#STOPS:29.000=0.039
,29.250=0.039
,29.500=0.039
,29.750=0.039
,30.000=0.079
,30.500=0.079
,64.000=0.039
,64.250=0.039
,64.500=0.039
,64.750=0.039
,95.000=0.039
,95.250=0.039
,95.500=0.039
,95.750=0.039
,103.750=0.118
,104.500=0.158
,133.500=0.158
,134.500=0.158
,163.500=0.158
,172.500=0.158
,178.000=0.158
,179.500=0.789
,181.000=0.789
,188.500=0.158
,191.000=0.473
,192.500=0.789
,196.000=0.039
,196.250=0.039
,196.500=0.039
,196.750=0.039
,255.750=0.237
,284.000=0.079
,290.500=0.237
;
#BGCHANGES:;

//---------------dance-single - Renard----------------
#NOTES:
     dance-single:
     Renard:
     Challenge:
     10:
     0.804,0.769,0.762,0.222,0.127:
0000
0000
0000
0000
,
0000
0000
0000
0000
,
0000
0000
0000
0000
,
0000
0000
0000
0000
,
0001
0000
0100
0010
1000
0000
0100
0010
,
0001
0000
0000
0000
0010
0000
0100
0000
1000
0000
0000
0001
0000
0000
0100
0000
,
0010
0000
1000
0010
0100
0000
0001
0100
,
0010
0000
0000
0000
1000
0001
1000
0001
0100
0000
0010
0000
2000
0000
0000
0000
,
0000
0000
0000
0000
3001
0100
0010
1000
,
0100
0010
0001
0010
0100
0010
0110
0000
,
0100
1000
1010
0000
0010
0100
0001
0010
,
0100
1000
0001
1000
0001
0001
1001
0000
,
0001
0100
0110
0000
1000
0010
0100
0001
,
0010
0100
0110
0000
0100
1000
1010
0000
,
0010
0100
0101
0000
0001
0100
0010
1000
,
0001
0100
0010
0000
0110
0000
1001
0000
,
1000
0100
0010
0001
1000
0000
0010
0000
0100
0000
0001
0000
0010
0000
0100
0000
,
0110
0000
0100
1000
0010
0100
0001
0000
,
1001
0000
0001
0100
0010
1000
0100
0000
,
0110
0000
0100
1000
0001
0100
0010
1010
,
1010
0000
0010
0100
0001
0010
0001
0000
,
1001
0000
0001
0100
0010
1000
0001
1001
,
1001
0000
0001
0100
0010
1000
0010
0000
,
1010
0000
0000
0000
0101
0000
0000
0000
1010
0000
0000
0000
0001
0100
0010
1000
,
0001
0100
0000
1000
0100
0001
0000
0010
,
1000
0000
0010
0000
0000
0000
0100
1000
0001
0000
0000
0000
2200
0000
0000
0000
,
0000
3311
1000
0001
0100
0110
0000
1010
,
0000
1001
0000
1100
0000
0110
0000
0010
,
0001
0010
0100
1000
0001
1000
0000
1001
,
0000
1010
0000
0101
0000
1001
0000
0011
,
0011
0000
0110
0000
0100
1000
0000
1001
,
0000
1010
0000
0101
0000
0011
0000
0010
,
0100
0000
0110
0000
0100
1000
0000
0011
,
0000
1001
0110
0000
1001
0000
1000
0010
,
0100
0001
0000
0110
0000
1001
0000
1010
,
0000
0100
0001
0010
0100
1000
0001
1000
,
0001
0101
0000
1010
0000
0101
0000
1100
,
0000
0011
0000
0001
0010
0000
0110
0000
,
0100
1000
0000
1001
0000
1010
0000
0101
,
0000
1001
0000
0001
0100
0000
0010
1000
,
0100
0010
0000
0011
0000
0100
0010
0000
,
0210
0000
0000
2300
0000
0000
3020
0000
0000
0032
0000
0000
0023
0000
0000
0230
,
0000
0000
2300
0000
0000
3200
0000
0000
0302
0000
0103
0000
2002
0000
0000
0000
,
3020
0000
0000
0000
2033
0000
0000
0000
0002
0000
0000
3003
0100
0000
0010
0000
,
1000
0010
0100
0000
0101
0001
0100
0010
,
1000
0010
0100
0001
0010
0100
1000
0010
,
0000
0010
0100
0010
1000
0100
0000
0011
,
0000
0000
0000
0000
0000
0000
0000
0000
1001
0000
0000
0000
0000
0000
0000
0000
0001
0000
0000
0000
0000
0000
0000
0000
0100
0000
0000
0000
0000
0000
0000
0000
0020
0000
0000
0000
0000
0000
0000
0000
0000
0000
0000
0000
0000
0000
0000
0000
0000
0030
0000
0000
0000
0000
0000
0000
0100
0000
0000
0000
0000
0000
0000
0000
,
0010
1000
0001
0100
0010
1000
0001
0100
,
0010
1000
0010
1000
0001
0000
0100
0000
0010
0000
1000
0000
0000
0000
0110
0000
,
0000
0101
0000
0001
1000
0100
0010
0001
,
0010
0100
1000
0001
0100
0010
0000
1000
,
0010
0100
0001
1000
0010
0100
0001
1000
,
0100
0010
0001
0010
0100
1000
0000
0011
,
0000
1100
0000
0001
0100
0010
1000
0001
,
0100
0010
1000
0100
0010
0001
0000
0001
,
0010
0100
1000
0000
0000
0000
0001
0100
,
0010
1000
0000
1000
0010
0100
0001
0010
,
0100
1000
0001
0000
0011
0000
0001
0010
,
0100
1000
0000
1000
0001
0100
0010
1000
,
0001
0100
0010
1010
1010
0000
0010
0100
,
0001
0010
0000
0010
0100
1000
0001
0010
,
0100
1000
0001
0000
1001
0000
0001
0200
,
0002
0000
0000
0000
0000
0000
0000
0000
0000
0000
0000
0000
0000
0000
0000
1313
,
0001
0100
0010
1000
0100
0010
0010
0010
,
0001
0100
0010
1000
0100
0010
0010
0010
,
0001
0010
0100
1000
0010
0100
0100
0100
,
0001
0100
0010
1000
0000
0001
0100
0010
,
1000
0100
0010
0001
0010
0100
1000
0010
,
0100
0001
0100
0100
0100
0010
1000
0100
,
0010
0001
0010
0100
1000
0001
0100
0010
,
1000
0000
0010
0100
0001
1000
0000
0100
0000
0010
0001
0010
0100
1000
0000
0001
,
0000
0100
0020
0000
0000
0000
0000
0000
0000
0000
1030
1111
0000
0000
0000
0000
;

//---------------dance-single - Renard----------------
#NOTES:
     dance-single:
     Renard:
     Hard:
     9:
     0.648,0.654,0.423,0.000,0.005:
0000
0000
0000
0000
,
0000
0000
0000
0000
,
0000
0000
0000
0000
,
0000
0000
0000
0000
,
0100
0000
0100
1000
0000
0000
0001
0010
,
0001
0000
1000
0001
1000
0000
0001
0000
,
0100
0000
0010
0100
0010
0000
1000
0010
,
1000
0000
0010
0100
0001
0100
0010
0000
,
0000
0000
0000
0000
1000
0010
0100
0001
,
0000
0100
0010
0000
1000
0000
0100
0000
,
0010
0000
0001
0010
0100
0000
1000
0000
,
0010
0100
0001
0100
,
0010
1000
0010
0000
0100
0001
0100
0001
,
0000
0000
0010
0000
0100
1000
0100
0000
,
1000
0001
1000
0000
0001
0100
0010
1000
,
0010
0000
1000
0000
0001
0100
0001
0100
,
0010
0000
0010
1000
0100
0010
0001
0010
,
0100
0000
1000
0100
1000
0000
0001
0010
,
0001
0000
1000
0010
0100
0001
0100
0010
,
1000
0000
0100
1000
0001
0000
0010
0001
,
1000
0000
0010
0100
0001
0010
0100
0010
,
0001
0000
1000
0100
0010
0100
1000
0001
,
0100
0000
0010
1000
0010
0100
0001
1000
,
0010
0100
0001
1000
0100
0010
0001
0000
,
1000
0000
0000
0000
,
0000
0000
0000
0000
,
0000
1001
1000
0010
0100
0001
0000
0011
,
0000
0110
0000
1100
0000
1001
0000
1000
,
0010
0000
0100
0001
0010
0001
0000
0011
,
0000
0110
0000
1100
0000
1001
0000
1000
,
0001
0000
0001
0100
0010
1000
0000
1001
,
0000
1100
0000
0011
0000
0110
0000
0100
,
1000
0000
0010
0100
0001
0100
0010
1000
,
0100
0010
0001
0000
1001
0000
1000
0010
,
0100
0001
0000
0101
0000
0110
0000
1010
,
0000
1001
0000
1000
0100
0000
0010
0001
,
0010
0100
1000
0001
0100
0010
0100
0010
,
1000
0010
1000
0001
1000
0000
0001
1000
,
0100
0010
0000
0110
0000
0011
0000
0110
,
0000
1100
0000
1000
0001
0000
0001
0100
,
0010
1000
0100
0010
0001
1000
0001
0000
,
1001
0000
0000
0000
,
0000
0000
0000
0000
,
0110
1001
0110
1000
,
0001
0000
0100
0010
0100
0010
0000
1000
,
0010
0000
1000
0010
0000
0100
0000
0001
,
0100
0010
0000
1000
0100
0010
0001
0010
,
0000
0100
1000
0000
0010
0100
0001
0100
,
0000
1110
0010
0100
0001
0100
0010
0100
,
0010
0000
1000
0010
0100
0001
0000
0010
,
0100
1000
0000
1000
0100
0010
0001
1000
,
0010
0000
0100
0001
0100
0010
0000
0010
,
1000
0100
0010
0001
0010
0100
1000
0001
,
0001
0000
1000
0100
0010
0001
0000
0001
,
0010
0100
1000
0001
0100
0010
1000
0100
,
0010
0000
0001
0010
0100
1000
0001
0100
,
0010
1000
0001
0000
0000
0000
1001
0000
,
1000
0010
0100
0001
0010
0100
1000
0000
,
1100
0000
1000
0000
1010
0000
0010
0100
,
0001
0010
0100
1000
0001
0100
0001
0010
,
0001
0010
0100
0010
0100
0010
0100
1000
,
0010
0100
0001
0000
0110
0000
0010
1000
,
1100
0000
1000
0100
0110
0000
0010
0001
,
1000
0000
0000
0000
0000
0000
0000
0000
0000
0000
0000
0000
0000
0000
0000
0110
,
1001
0000
0010
0100
0001
0010
0100
1000
,
0001
0100
0010
1000
0100
0010
0001
0010
,
0100
1000
0001
0100
0010
1000
0100
0010
,
0001
0000
1001
0000
0000
1000
0010
0100
,
0001
0010
0100
1000
0100
0010
0001
1000
,
0010
0100
0001
0010
0100
1000
0100
0010
,
0001
0100
0010
1000
0100
0010
0001
1001
,
0000
0110
0000
0000
0000
0000
0000
0000
,
0000
0000
0000
0000
0000
0110
1001
0000
;

//---------------dance-single - Renard----------------
#NOTES:
     dance-single:
     Renard:
     Medium:
     6:
     0.395,0.500,0.159,0.000,0.000:
0000
0000
0000
0000
,
0000
0000
0000
0000
,
0000
0000
0000
0000
,
0000
0000
0000
0000
,
1000
0000
0000
0001
0000
0000
0000
0000
,
1000
0000
0100
0100
,
1000
0000
0001
0000
,
0100
0001
1000
0001
,
0000
0000
0000
0000
1000
0000
0100
0010
,
0000
0001
0010
0100
,
1000
0000
0001
1000
0001
0000
0100
0000
,
0010
1000
0001
1000
,
0100
1000
0100
0000
1000
0001
1000
0001
,
0000
0100
0010
1000
,
0100
0010
0001
0010
,
0100
1000
0001
0100
,
0010
0000
1000
0010
1000
0010
0000
0100
,
0001
1000
0100
0010
,
0001
0010
0100
1000
,
0001
0000
0100
0000
0010
0100
0010
0000
,
1000
0010
1000
0010
1000
0001
0000
0000
,
1000
0100
0010
0001
,
1000
0001
0010
0100
,
1000
0001
0100
0010
,
1000
0000
0000
0000
,
0000
0000
0000
0000
,
0000
1001
1000
0000
0100
0010
0000
0001
,
0000
0010
0000
0100
0000
1000
0000
0001
,
1000
0000
0001
0000
0100
0010
0000
1000
,
0000
0010
0000
0100
0000
0001
0000
1000
,
0001
0000
1000
0000
0100
1000
0000
0001
,
0000
0010
0000
0001
0000
1000
0000
0001
,
0100
0000
0010
0000
1000
0010
0100
0000
,
0001
1000
0000
0001
,
0000
1000
0000
0100
0000
0010
0000
0001
,
0000
0010
0000
0100
1000
0000
0001
0000
,
0100
0010
0000
1000
0000
0010
0000
0100
,
0000
0001
0000
1000
0100
0000
1000
0000
,
0000
0001
0000
0010
0000
0100
0000
1000
,
0000
0001
0000
0100
0010
0000
1000
0000
,
0000
0010
0000
0100
0000
0001
1000
0000
,
0001
0000
0000
0000
,
0000
0000
0000
0000
,
0110
1001
0110
0010
,
1000
0000
0010
0000
0110
0100
0000
1001
,
1000
0000
1100
0010
0000
0001
0000
1000
,
0000
0010
0000
0100
0000
0001
0000
1000
,
0000
1001
1000
0000
0001
0000
0101
0100
,
0000
0110
0010
0000
1000
0000
0010
0000
,
1000
0000
0010
0000
0100
0001
0000
0100
,
0000
0010
0000
0000
0000
0000
0000
0000
,
0000
0000
1000
0000
0100
0010
0000
0001
,
0000
0010
0000
0000
0100
0000
1000
0000
,
0100
0000
1000
0000
0010
0100
0000
0001
,
0000
0100
0000
0000
0000
0000
0000
0000
,
0000
0010
1000
0100
,
0010
0001
0000
1000
,
0000
0001
0000
0000
0000
0100
0000
0000
,
0010
1000
0100
0010
,
0000
0001
0000
0000
0000
1000
0000
0000
,
0010
0100
0001
0100
,
0000
0010
0000
0000
1000
0000
0100
0000
,
0010
0001
0010
0100
,
1000
0000
0000
0000
,
1001
0000
0001
1000
,
1100
0000
1000
0001
,
0101
0000
0001
1000
,
0100
0000
0100
0000
0000
1000
0000
0001
,
0000
0010
0000
0010
0000
0001
0000
1000
,
0000
0010
0000
0010
0000
0100
0000
0001
,
0000
1000
0000
0100
0000
0100
0000
1000
,
0000
1001
0000
0000
0000
0000
0000
0000
,
0000
0000
0000
0110
;

//---------------dance-single - Renard----------------
#NOTES:
     dance-single:
     Renard:
     Easy:
     3:
     0.266,0.308,0.032,0.000,0.000: // measure 1
0000
0000
0000
0000
,  // measure 2
0000
0000
0000
0000
,  // measure 3
0000
0000
0000
0000
,  // measure 4
0000
0000
0000
0000
,  // measure 5
0001
0000
0000
1000
0000
0000
0000
0000
,  // measure 6
0001
0000
0001
1000
,  // measure 7
0100
0000
0100
0000
,  // measure 8
1000
0001
0000
0000
,  // measure 9
0000
0000
1000
0000
,  // measure 10
1000
0001
0100
0000
,  // measure 11
0001
0000
1000
0000
,  // measure 12
0100
0000
1000
1000
,  // measure 13
1000
1000
0100
0000
,  // measure 14
1000
0000
0001
0001
,  // measure 15
0001
0000
1000
0000
,  // measure 16
0001
0000
0100
0000
,  // measure 17
0001
1000
0000
0100
,  // measure 18
1000
0001
0000
0100
,  // measure 19
0000
0001
0000
1000
,  // measure 20
0100
1000
0000
0001
,  // measure 21
0000
0010
0000
0001
,  // measure 22
1000
0010
0000
1000
,  // measure 23
0001
0001
0000
1000
,  // measure 24
0100
1000
0000
0001
,  // measure 25
1000
0000
0000
0000
,  // measure 26
0000
0000
0000
0000
,  // measure 27
0000
1001
1000
0000
0000
0001
0000
0100
,  // measure 28
0000
0001
0000
0000
0000
0000
0000
0000
,  // measure 29
0000
0000
1000
0000
0000
0100
0000
1000
,  // measure 30
0000
0100
0000
0000
0000
0000
0010
0000
,  // measure 31
0000
0000
0001
0000
0000
0100
0000
0010
,  // measure 32
0000
1000
0000
0000
0000
0000
0000
0000
,  // measure 33
0000
0000
0010
0000
0000
1000
0000
0100
,  // measure 34
0000
0010
0000
0000
0000
1001
1000
0000
,  // measure 35
0000
0001
0100
0001
,  // measure 36
0000
1000
0000
0100
,  // measure 37
0000
1000
0001
1000
,  // measure 38
0000
0010
0000
0100
,  // measure 39
0000
0001
1000
0010
,  // measure 40
0000
1000
0000
0001
,  // measure 41
0100
0001
0000
1000
,  // measure 42
0000
0000
0000
0000
,  // measure 43
0000
0000
0000
0000
,  // measure 44
1000
0001
0100
0010
,  // measure 45
0000
0000
0010
0000
1000
0010
0000
0100
,  // measure 46
0000
0100
0001
1000
0000
0000
0000
0100
,  // measure 47
0000
0000
0000
1000
0000
0000
0000
0001
,  // measure 48
0000
0100
0010
0000
0000
0000
1000
0010
,  // measure 49
0000
1000
0010
0000
0010
0000
0100
0000
,  // measure 50
0001
1000
0000
0100
,  // measure 51
1000
0001
0000
0010
,  // measure 52
0000
0001
0000
1000
,  // measure 53
0100
0010
0010
0010
,  // measure 54
0010
0001
0000
1000
,  // measure 55
0010
0000
0100
0000
0000
0000
0000
0100
,  // measure 56
0010
1000
0001
0100
,  // measure 57
0001
1000
0000
0001
,  // measure 58
1000
0100
0000
1000
,  // measure 59
0000
0001
0000
0100
,  // measure 60
0001
1000
0000
0100
,  // measure 61
0100
1000
0000
0001
,  // measure 62
0000
0010
0000
0001
,  // measure 63
0000
1000
0010
1000
,  // measure 64
0001
0000
0000
0000
,  // measure 65
1000
0000
0001
0000
,  // measure 66
0100
0001
1000
0000
,  // measure 67
0100
0000
1000
0000
,  // measure 68
0001
0000
0010
0000
0000
0001
0000
0000
,  // measure 69
0000
1000
0000
0000
0000
0100
0000
1000
,  // measure 70
0000
0001
0000
0000
0000
0010
0000
0000
,  // measure 71
0000
0001
0000
0000
0000
1000
0000
0010
,  // measure 72
0000
1000
0000
0000
0000
0000
0000
0000
,  // measure 73
0000
0000
0000
1001
;
