#TITLE:The Rails;
#SUBTITLE:;
#ARTIST:The A.M.D.A;
#TITLETRANSLIT:;
#SUBTITLETRANSLIT:;
#ARTISTTRANSLIT:;
#CREDIT:;
#BANNER:rails.img;
#BACKGROUND:rails-bg.img;
#LYRICSPATH:;
#CDTITLE:;
#MUSIC:rails.ogg;
#OFFSET:0.000;
#SAMPLESTART:45.080;
#SAMPLELENGTH:12.000;
#SELECTABLE:YES;
#BPMS:0.000=135.000,32.000=140.000,36.000=155.000,38.000=166.000,40.000=189.000,42.000=210.000,44.000=234.000,46.000=154.000,47.000=135.000,48.000=100.000,52.000=204.100,100.000=102.760,140.000=185.750,172.000=187.400,216.000=211.000,232.000=212.000,240.000=213.000,248.000=218.000,252.000=224.000,256.000=233.000,260.000=240.000,264.000=247.000,268.000=253.000,272.000=265.000,276.000=268.000,280.000=280.000,284.000=295.000,288.000=290.000,292.000=300.000,296.000=310.000,298.000=316.000,309.000=340.000,312.000=338.000,344.000=169.000;
#STOPS:;
#BGCHANGES:;
#GENRE:Mixture;

//---------------dance-single - Renard----------------
#NOTES:
     dance-single:
     Renard:
     Challenge:
     14:
     1.000,1.000,0.874,0.047,0.660: // measure 1
0000
0000
0000
0000
,  // measure 2
0000
0000
0000
0000
,  // measure 3
0101
0000
0000
0001
0100
0010
0000
0000
1010
0000
0000
0010
1000
0100
0000
0000
,  // measure 4
0110
0000
0000
0010
0001
0100
0000
0000
0101
0000
0100
0010
1000
0000
0001
0000
,  // measure 5
1001
0000
0000
1000
0100
0010
0000
0000
0110
0000
0000
0010
0001
0100
0000
0000
,  // measure 6
0101
0000
0000
0001
0100
0010
0000
0000
1010
0000
0000
1000
0100
0000
0010
0001
,  // measure 7
0010
0000
0000
0001
0010
0100
0000
0000
0100
0000
0000
0100
1000
0010
0000
0000
,  // measure 8
0010
0000
0000
0100
0001
0100
0000
0000
0010
0000
1000
0001
0100
0000
0001
0000
,  // measure 9
0101
0000
0000
0001
0100
0010
0000
0010
1000
0000
0000
0010
0100
0000
0001
0000
,  // measure 10
0011
0000
0000
0010
0100
1000
0000
1000
0010
0000
0100
0000
0001
0000
0100
0000
,  // measure 11
0101
0000
0000
0010
1000
0000
0010
0000
1010
0000
0000
0001
0100
0000
0010
0000
,  // measure 12
1000
M100
0M10
00M1
001M
01M0
1M00
MM10
,  // measure 13
02M0
0000
0000
0000
0000
0000
0000
00M0
,  // measure 14
0310
10M0
0001
0100
0010
1000
0100
0010
,  // measure 15
0001
0010
0100
1000
0001
0100
0010
1000
,  // measure 16
0001
1000
0001
1000
0001
1000
0001
1000
0001
1000
0001
1000
0001
1000
0001
1000
,  // measure 17
0010
0010
0010
0000
0010
0000
0010
0010
,  // measure 18
1010
0000
1001
0000
0101
0000
0001
0010
,  // measure 19
0011
0000
0101
0000
1001
1001
0110
0110
,  // measure 20
0000
0110
0000
1010
1001
0000
0101
0000
,  // measure 21
0001
0100
0010
1000
0010
0100
0001
1000
0000
0000
0001
0100
0010
0000
1000
0010
,  // measure 22
0100
0000
0110
0000
1000
0010
1010
0000
,  // measure 23
0201
0000
0010
0000
1000
0000
1000
0300
,  // measure 24
1000
0000
0100
0000
0001
0100
0001
0100
0001
0010
0001
0010
0100
0010
0100
0010
,  // measure 25
0200
0000
1000
1000
0010
0001
0010
0000
,  // measure 26
13M0
0000
M010
0000
1010
0000
0010
0100
0001
0010
0001
0000
0011
0000
001M
0100
,  // measure 27
1000
0001
1000
0000
1001
0000
M001
0100
0010
0000
10M0
0000
M010
0000
1000
0010
,  // measure 28
M100
0000
0M01
0000
0101
0000
0001
0100
0010
1000
0001
0000
100M
0000
0110
0000
,  // measure 29
1MM0
0000
0000
0000
0010
0000
0100
0000
M001
0000
0000
0000
0010
0000
0000
0000
M001
0000
1000
0000
0100
0000
0010
0000
0001
0010
0100
1000
0001
0010
0100
1000
,  // measure 30
11MM
0000
111M
0000
0100
0010
0MM0
0110
0000
0011
0011
00MM
0001
0100
0010
0000
,  // measure 31
1010
0000
1010
0000
0100
0010
0MM0
0110
0MM0
0101
0101
0000
0001
0010
0100
1000
,  // measure 32
0001
0000
1010
0000
0100
0001
0M0M
0110
0MM0
1010
1010
0000
1000
0010
0100
0001
,  // measure 33
0010
0000
0011
0000
0010
0100
0MM0
0110
0MM0
0110
0110
0000
0100
1000
0010
0100
,  // measure 34
0001
0000
0001
0000
0100
0010
0000
0110
0MM0
1010
1010
M0M0
1000
0010
0100
0001
,  // measure 35
0010
0100
0010
0100
0010
0100
0010
0100
0001
0100
0001
0100
0010
0100
0010
0100
1000
0000
0000
0000
0100
0000
0000
0000
0001
0000
0000
0000
0100
0000
0000
0000
,  // measure 36
1MMM
M100
0010
0001
0010
1000
0010
0100
,  // measure 37
1000
0010
0100
0001
0100
0010
1000
0010
,  // measure 38
0001
0010
0100
1000
0100
0001
0100
0010
,  // measure 39
1000
0100
0001
0100
0010
0001
0010
0100
,  // measure 40
1000
0010
0100
0001
0100
0010
1000
0010
,  // measure 41
0001
0010
0100
1000
0100
0001
0010
0100
,  // measure 42
1000
0100
0001
0100
0010
0001
0010
1000
,  // measure 43
0010
0100
1000
0010
0100
0001
0100
0010
,  // measure 44
2010
0000
0000
3000
0001
0100
0010
1000
,  // measure 45
0100
0010
0001
0010
0100
1000
0010
0001
,  // measure 46
0010
0100
1000
0100
0001
0010
0100
1000
,  // measure 47
0100
0001
0100
0010
0100
1000
0010
1000
,  // measure 48
1010
1000
0010
0001
0010
0100
1000
0100
,  // measure 49
0001
0010
0100
1000
0100
0010
0001
0010
,  // measure 50
1000
0010
0001
1000
0100
1000
0010
0001
,  // measure 51
0010
0100
0010
1000
0100
0010
0001
1000
,  // measure 52
0001
0100
0010
1000
0010
0100
0110
0000
,  // measure 53
0010
1000
0100
0010
0001
1000
1001
0000
,  // measure 54
0001
0000
0000
0000
0100
0000
0000
0000
0010
0000
0000
0010
0000
0000
0010
0000
0000
0010
0000
0000
0010
0000
0000
0010
0000
0000
0010
0000
0000
0010
0000
0000
,  // measure 55
10M0
0010
0100
0001
0010
0100
0010
0100
,  // measure 56
1000
0001
1000
0010
0100
0001
0100
0010
,  // measure 57
1000
0100
0010
0001
1000
0001
0100
0001
,  // measure 58
0101
0000
0000
0000
0110
0000
0110
0000
1000
0010
1000
0010
0100
0001
0100
0001
,  // measure 59
0100
0000
0100
0010
1000
0100
0010
0000
,  // measure 60
0110
0110
0011
0011
,  // measure 61
1001
1010
0101
1010
,  // measure 62
2001
0000
0010
0010
0100
0100
3100
0000
,  // measure 63
1000
0100
0010
0001
0010
0100
1000
0010
,  // measure 64
0100
0001
0100
0010
1000
0100
0010
0001
,  // measure 65
0010
0100
1000
0010
0100
0001
0100
0010
,  // measure 66
1010
0000
0000
0000
0101
0000
0000
0000
1000
0001
1000
0001
1000
0000
0001
0000
,  // measure 67
1000
0010
0100
0001
0010
0001
1000
0100
,  // measure 68
1000
0010
0100
0001
0010
0100
1000
0010
,  // measure 69
0100
0001
0100
0010
1000
0100
0010
0001
,  // measure 70
0011
0000
0000
0000
0110
0000
0110
0000
1100
0000
0000
0000
1000
0001
1000
0000
,  // measure 71
0001
0100
0010
1000
0001
0100
0010
1000
,  // measure 72
0100
0010
0001
0010
0100
1000
0001
0100
,  // measure 73
0000
0101
0000
1010
1010
0000
1001
0000
,  // measure 74
0001
0100
0001
0000
1000
0010
1000
0000
0001
0010
0001
0000
1000
0100
1000
0000
,  // measure 75
0101
0000
0001
0100
0010
1000
0100
1000
,  // measure 76
0001
0010
0100
1000
0001
0010
0100
1000
,  // measure 77
0010
0100
0001
0100
0010
1000
0001
1000
,  // measure 78
2001
000M
0010
0010
0010
00M0
3010
0000
,  // measure 79
1010
0000
1001
1010
0000
0001
0100
0000
,  // measure 80
1010
0000
0001
0010
0100
1000
0001
0001
,  // measure 81
1001
0000
1000
0010
0000
0101
0101
0000
,  // measure 82
1010
0000
0000
0000
1001
0000
0000
0000
0001
0100
0001
0000
1000
0001
1000
0000
,  // measure 83
1001
0000
1010
1001
0000
0101
0000
0001
,  // measure 84
0100
0000
1010
1001
0100
0100
0100
0100
,  // measure 85
0010
0000
1000
1000
0001
0001
0001
0000
,  // measure 86
1000
0000
0000
0100
0000
0000
0010
0000
0000
0001
0000
0000
0010
0000
0100
0000
1000
0000
0100
0000
0010
0000
0001
0000
,  // measure 87
1000
0000
0001
0000
1001
0000
0001
0000
0100
0000
0010
0000
1010
0100
0001
0100
,  // measure 88
0010
0000
1000
0010
1010
0000
0001
0000
0100
0000
0100
0000
0010
1000
0010
0000
,  // measure 89
0100
0001
0010
0100
1000
0000
1100
0000
0011
0000
0001
0000
0101
0100
0010
1000
,  // measure 90
0001
0000
0000
0100
0000
0000
0010
0000
0000
1000
0000
0000
0100
0000
0000
0010
0000
0000
0001
0000
0000
0010
0000
0000
0100
0000
0000
1000
0000
0000
0001
0000
0000
0100
0000
0000
0010
0000
0000
0000
1000
0000
0000
0000
0001
0000
0000
0000
,  // measure 91
0100
0000
0100
0010
0000
0010
1000
0000
1000
0001
1000
0001
,  // measure 92
0100
0010
1000
0010
0100
0001
0100
0010
1000
0001
1000
0100
0010
0001
0010
0100
,  // measure 93
1000
0000
0101
0000
1010
0000
0001
0100
0000
0101
0000
0110
0000
1000
0010
0000
,  // measure 94
1010
0000
0100
0001
0010
0100
1000
0000
0001
0010
0100
0000
1100
MM00
0100
0000
,  // measure 95
0110
0MM0
0010
0000
0011
00MM
0001
0000
1001
M00M
0000
0000
0000
0000
0000
0000
;
