#TITLE:The People Want More;
#SUBTITLE:;
#ARTIST:Darien Kelly;
#TITLETRANSLIT:;
#SUBTITLETRANSLIT:;
#ARTISTTRANSLIT:;
#CREDIT:;
#BANNER:more.jpg;
#BACKGROUND:more-bg.jpg;
#LYRICSPATH:;
#CDTITLE:;
#MUSIC:more.ogg;
#OFFSET:0.000;
#SAMPLESTART:20.928;
#SAMPLELENGTH:12.000;
#SELECTABLE:YES;
#BPMS:0.000=160.550;
#STOPS:;
#BGCHANGES:;

//---------------dance-single - Renard----------------
#NOTES:
     dance-single:
     Renard:
     Hard:
     8:
     0.476,0.528,0.514,0.048,0.072:
0000
0000
0000
0000
,
0000
0000
0000
0000
,
0000
0000
0000
0000
,
0000
0000
0000
0000
,
0000
0000
0000
0000
,
0000
0000
0000
0000
,
0000
0000
0000
0000
,
0000
0000
0000
0000
,
1000
0000
0001
0100
0001
0000
1000
0000
0100
0000
0000
0000
0000
0000
0000
0000
,
0010
0000
0010
0001
1000
0010
0100
0000
,
0100
0000
0001
1000
0001
0000
1000
0000
0100
0000
0000
0000
0000
0000
0100
0000
,
0010
0000
0010
0001
1000
0010
0100
0000
,
0001
0000
1000
0100
1000
0000
0100
0000
1000
0000
0000
0000
0000
0000
1000
0000
,
0001
0000
0001
0010
0100
1000
0010
0000
,
1010
0000
0000
1010
0000
0000
0000
0100
,
0001
0010
0100
0000
0110
0000
1001
0000
,
0100
1010
0100
0011
,
0100
1000
0000
0110
0000
0101
0000
0001
,
1000
1100
0010
0011
,
0001
1000
0000
0010
0000
0101
0000
0010
,
0000
1000
0100
0000
0110
0000
0011
0000
,
0001
1000
0010
0000
0100
0000
0110
0000
,
0010
1000
0001
0000
0010
0000
0110
0000
,
0100
1000
0010
0100
0001
0000
0110
0000
,
0010
1000
0100
0000
0110
0000
0011
0000
,
0001
0010
0100
1000
0000
1010
0000
0101
,
0001
1001
1100
0110
,
0010
0001
1000
0010
0000
0110
0000
1001
,
0001
0100
0000
0110
0000
1010
0000
0001
,
1000
1100
0010
0011
,
0001
1000
0MM0
0001
0MM0
1000
0MM0
0M20
,
0M00
0M00
2M3M
000M
3M2M
0M00
M230
M000
,
M310
0000
0000
0000
0010
0000
0000
0000
0010
0000
1000
0000
0010
0000
0000
1000
,
0010
0000
0000
0000
0100
0000
0100
0000
0001
0000
0000
1000
0100
0000
1000
0100
,
1000
0000
0000
0000
0001
0000
0000
0000
0100
0000
0010
0000
0100
0000
0000
0010
,
1000
0000
0000
0000
,
1000
0000
0001
0100
0001
0000
1000
0000
0100
0000
0000
0000
0000
0000
0000
0000
,
0010
0000
0010
0001
0010
0100
1000
0000
,
0000
0000
0010
1000
0010
0000
0100
0000
0001
0000
0000
0000
0000
0000
0000
0000
,
0010
0000
0010
0100
0010
0001
1000
0000
,
0000
0000
0001
0100
0001
0000
0100
0000
0010
0000
0000
0000
0000
0000
1000
0000
,
0100
0000
0010
0001
0010
0100
1000
0000
,
0000
0000
0001
0100
0001
0000
0100
0000
0010
0000
0000
0000
0000
0000
0000
0000
,
0010
0000
1000
0100
0010
0001
0010
0000
,
0110
0000
1100
0000
1001
0000
0001
0100
,
0010
1000
0000
1010
0000
1001
0000
0001
,
0101
0000
0110
0010
1000
0000
0010
1000
,
0100
0000
0100
0010
0001
0010
0010
0000
,
0000
0000
0100
1000
0100
0000
1000
0000
0100
0000
0010
0000
0000
0000
0001
0000
,
1000
0001
0100
0000
0110
0000
1001
0000
,
1010
0000
0000
1010
0000
0000
0000
0100
,
0001
0010
0100
0000
0110
0000
1001
0000
,
0110
0000
0000
0000
;

//---------------dance-single - Renard----------------
#NOTES:
     dance-single:
     Renard:
     Medium:
     6:
     0.372,0.528,0.024,0.000,0.000:
0000
0000
0000
0000
,
0000
0000
0000
0000
,
0000
0000
0000
0000
,
0000
0000
0000
0000
,
0000
0000
0000
0000
,
0000
0000
0000
0000
,
0000
0000
0000
0000
,
0000
0000
0000
0000
,
0000
1000
0001
0100
0001
0000
0000
0000
,
1000
0000
1000
0100
1000
0100
1000
0000
,
0000
0001
0010
0001
1000
0000
0000
0000
,
0010
0000
0010
1000
0001
0100
0001
0000
,
0000
1000
0100
1000
0001
0000
0000
0000
,
0010
0000
0010
0001
1000
0001
0100
0000
,
0001
0000
0000
1000
0000
0000
0000
0100
,
0010
0001
0010
0000
0110
0000
0000
0000
,
0100
1000
0010
0100
,
0001
0000
0010
0000
0001
1000
0001
1000
,
0001
0100
0010
1000
,
0100
0000
0010
0000
0001
1000
0001
1000
,
0010
0100
0001
1000
,
0100
0000
0010
0000
0001
1000
0001
1000
,
0010
0100
0001
1000
,
0100
0000
0010
0000
0001
1000
0001
1000
,
0010
0010
0100
0100
,
0001
1000
0001
0000
1000
0000
0100
0000
,
0010
0010
0001
0001
,
1000
0001
1000
0000
0001
0000
0100
0000
,
0010
0010
1000
1000
,
0100
1000
0100
0000
1000
0001
1000
0000
,
0001
0010
0001
0010
0001
1000
0001
1000
,
0001
0100
0010
1000
0100
0010
0001
1000
,
0001
0001
0001
0001
,
1000
1000
1000
1000
,
0001
0001
0001
0001
,
1000
1000
0001
0001
,
0000
0100
0010
0100
0010
0000
0000
0000
,
1000
0000
0001
1000
0001
1000
0001
0000
,
0000
0100
0010
0100
0010
0000
0000
0000
,
1000
0000
0001
1000
0001
1000
0001
0000
,
0000
0010
0100
0010
0100
0000
0000
0000
,
1000
0000
0001
1000
0001
1000
0001
0000
,
0000
0100
0010
0100
0010
0000
0000
0000
,
1000
0000
0010
1000
0010
1000
0010
0000
,
0000
0100
0001
0100
0001
0000
0000
0000
,
1000
0000
0100
1000
0001
0010
0100
0000
,
0000
1000
0001
0100
0001
0000
0000
0000
,
1000
0000
0100
0010
0001
1000
0010
0000
,
0000
0100
0001
0100
0001
0000
0000
0000
,
1000
0000
0100
1000
0100
1000
0001
0000
,
1000
0000
0000
0100
0000
0000
0000
0010
,
0001
0010
0100
0000
1000
0000
0001
0000
,
0110
0000
0000
0000
;

//---------------dance-single - Renard----------------
#NOTES:
     dance-single:
     Renard:
     Easy:
     2:
     0.261,0.280,0.024,0.048,0.000: // measure 1
0000
0000
0000
0000
,  // measure 2
0000
0000
0000
0000
,  // measure 3
0000
0000
0000
0000
,  // measure 4
0000
0000
0000
0000
,  // measure 5
0000
0000
0000
0000
,  // measure 6
0000
0000
0000
0000
,  // measure 7
0000
0000
0000
0000
,  // measure 8
0000
0000
0000
0000
,  // measure 9
1000
1000
1000
0000
,  // measure 10
0001
0100
0001
1000
,  // measure 11
0000
0001
0001
0000
,  // measure 12
0100
0001
1000
0100
,  // measure 13
0000
0010
0010
0000
,  // measure 14
0001
0010
0100
1000
,  // measure 15
0020
0000
0230
0000
,  // measure 16
0301
1000
1100
0000
,  // measure 17
1000
1000
1000
1000
,  // measure 18
0001
0010
0100
1000
,  // measure 19
0001
0001
0001
0001
,  // measure 20
1000
0100
0010
0001
,  // measure 21
1000
1000
1000
1000
,  // measure 22
0001
0010
0100
1000
,  // measure 23
0001
0001
0001
0001
,  // measure 24
1000
0100
0010
0001
,  // measure 25
1000
0001
1000
0001
,  // measure 26
0010
0100
0010
0100
,  // measure 27
1000
0001
1000
0001
,  // measure 28
0100
0010
0100
0010
,  // measure 29
1000
0001
1000
0001
,  // measure 30
0010
0100
0010
0100
,  // measure 31
1000
0001
0100
0010
,  // measure 32
1000
0001
0010
0100
,  // measure 33
1000
0000
1000
0000
,  // measure 34
1000
0000
1000
0000
,  // measure 35
0001
0000
0001
0000
,  // measure 36
0001
0001
0001
0001
,  // measure 37
0000
1000
0100
0000
,  // measure 38
0010
0010
0001
0100
,  // measure 39
0000
0010
1000
0000
,  // measure 40
0010
0010
0100
0001
,  // measure 41
0000
0010
0010
0000
,  // measure 42
0100
1000
0010
0100
,  // measure 43
0000
0001
0001
0000
,  // measure 44
1000
0100
0010
0001
,  // measure 45
0000
1000
1000
0000
,  // measure 46
0001
0010
0001
1000
,  // measure 47
0010
0100
0001
0000
,  // measure 48
0100
0010
0100
0010
,  // measure 49
0000
1000
1000
0000
,  // measure 50
0001
0010
0100
0100
,  // measure 51
2000
0000
3002
0000
,  // measure 52
0103
0010
0100
0000
,  // measure 53
1001
0000
0000
0000
;
