#TITLE:The Man;
#SUBTITLE:;
#ARTIST:Belladonnakillz;
#TITLETRANSLIT:;
#SUBTITLETRANSLIT:;
#ARTISTTRANSLIT:;
#CREDIT:;
#BANNER:man.png;
#BACKGROUND:man-bg.png;
#LYRICSPATH:;
#CDTITLE:;
#MUSIC:man.ogg;
#OFFSET:0.000;
#SAMPLESTART:32.914;
#SAMPLELENGTH:12.000;
#SELECTABLE:YES;
#BPMS:0.000=175.000;
#STOPS:;
#BGCHANGES:;

//---------------dance-single - Renard----------------
#NOTES:
     dance-single:
     Renard:
     Hard:
     8:
     0.654,0.619,0.325,0.010,0.000:
0000
0000
0000
0000
,
0000
0000
0000
0000
,
0000
0000
0000
0000
,
0000
0000
0000
0000
,
0010
0100
0100
0100
,
0010
0001
0001
0001
,
0010
1000
1000
1000
,
0010
0100
0100
0100
,
0110
0000
0010
1000
0100
0010
0001
0000
,
0011
0000
0001
0010
0100
1000
0010
0000
,
1010
0000
0010
1000
0100
1000
0001
0000
,
0001
1000
0100
0010
0001
0010
0100
1000
,
1001
0000
0001
0000
0100
0010
1000
0100
,
1000
0000
1100
0000
1000
0010
0100
0001
,
0010
0000
0011
0000
0010
0100
1000
0001
,
0100
0010
0100
0001
0100
1000
0100
0010
,
0100
0000
0110
0000
0010
1000
0100
0010
,
0001
0000
0011
0000
0010
0100
1000
0001
,
1000
0000
1001
0000
0001
0100
0010
1000
,
0100
0010
0001
0010
0100
1000
0001
1000
,
1001
0000
0001
0100
0010
1000
0100
0000
,
1100
0000
1000
0001
0010
0100
1000
0000
,
1001
0000
0001
0100
0010
1000
0001
0000
,
0001
0000
0001
1000
0000
1000
1001
0000
,
0010
0000
0100
0000
0100
0000
0001
0100
,
0010
0000
1000
0000
1000
0000
0100
0010
,
0001
0000
0010
0000
0010
0000
0100
1000
,
0010
0000
0010
0100
0001
0100
0010
1000
,
0100
0000
1000
0000
1000
0000
1000
0010
,
0100
0000
0100
0000
0100
0000
0001
0010
,
0100
0000
0100
0000
0100
0000
1000
0010
,
0100
0001
0100
0010
1000
0100
0010
0001
,
0010
0000
0010
0100
1000
0000
1000
0010
,
0100
0000
0100
0001
0100
0000
0100
0010
,
1000
0000
1000
0100
0010
0000
0010
0001
,
0010
0100
1000
0001
0010
0100
1000
0001
,
0000
0001
1000
0010
0000
0010
0100
0001
,
0000
0001
1000
0100
0000
0100
0010
0001
,
0010
0100
1000
0001
0100
0010
1000
0200
,
0000
0000
0000
0000
0000
0000
0000
0300
,
0110
0000
1100
0000
1010
0000
0010
0100
,
0001
0000
0001
0010
0100
0000
1000
0000
,
0011
0000
0110
0000
1010
0000
1000
0010
,
0001
0000
0001
0100
1000
0000
0100
0000
,
0110
0000
1010
0000
0011
0000
0001
0010
,
1000
0000
1000
0100
0001
0000
0001
0100
,
0010
0001
0010
1000
0010
0100
1000
0010
,
0001
0010
0000
1000
0010
0000
0010
0000
,
0110
0000
0101
0000
1100
0000
1000
0100
,
0010
0000
0010
0100
0001
0000
0100
0000
,
0101
0000
0110
0000
1100
0000
1000
0100
,
0010
0000
0010
0100
0001
0000
0100
0000
,
0101
0000
0011
0000
1010
0000
1000
0010
,
0100
0000
0100
0010
0001
0000
0001
0010
,
0100
0000
0100
0010
1000
0010
0001
0010
,
0100
1000
0000
0001
1000
0000
1001
0000
,
0001
0100
0010
1000
0100
0010
0001
0010
,
0100
1000
0001
0010
0100
1000
0001
0100
,
0010
0000
0010
1000
0100
0000
0100
1000
,
0001
0010
0001
0100
0010
1000
0100
0010
,
0001
0000
0001
0010
0100
0000
0100
1000
,
0010
0100
0001
0100
0010
1000
0100
0010
,
0001
0000
0001
0010
0100
0000
0100
1000
,
0010
0100
0001
0100
0010
1000
0100
1000
,
0001
0010
0001
1000
0010
0100
0001
0100
,
0010
1000
0000
0001
1000
0000
1100
0000
,
1000
0010
0100
0001
0100
0010
0100
0010
,
1000
0010
0100
0001
0100
0001
0100
0010
,
1000
0010
0100
0001
0100
0010
0100
0001
,
1000
0100
0010
0001
0010
0100
1000
0001
,
0010
0001
0010
0001
0010
0100
0010
0100
,
0010
0001
0010
0001
0010
0100
0010
0100
,
0010
1000
0010
0100
0010
0001
0010
0100
,
0010
0001
0010
0100
1000
0001
0010
0100
;

//---------------dance-single - Renard----------------
#NOTES:
     dance-single:
     Renard:
     Medium:
     6:
     0.394,0.473,0.010,0.000,0.000:
0000
0000
0000
0000
,
0000
0000
0000
0000
,
0000
0000
0000
0000
,
0000
0000
0000
0000
,
1000
0100
0100
0100
,
0010
0001
0001
0001
,
1000
0010
0010
0010
,
0100
0001
0100
0001
0100
0000
0001
0000
,
0010
0010
0100
0100
,
1000
0000
0001
0010
,
0100
0100
0010
0010
,
0001
1000
0001
1000
0001
1000
0001
1000
,
0001
0001
0100
0100
,
0010
0000
1000
0000
,
0010
0010
0100
0100
,
0001
1000
0001
1000
0001
1000
0001
1000
,
0001
0010
0100
0100
,
1000
0100
0010
0010
,
0001
0010
0100
0100
,
1000
0001
1000
0001
0100
0010
0100
0010
,
1000
1000
0010
0010
,
0100
0100
0001
0001
,
0010
0100
1000
0001
,
0100
0000
0010
1000
0000
0010
1000
0000
,
0010
1000
0010
1000
,
0001
1000
0100
0010
,
0001
0001
0010
0010
,
0100
1000
0100
1000
0100
1000
0100
1000
,
0100
0100
1000
1000
,
0010
0010
0100
0100
,
0001
0100
0001
0100
,
0001
0100
0001
0100
0001
0100
0001
0100
,
0001
0001
0010
0010
,
0100
0100
1000
0010
,
0100
0100
0001
0010
,
0001
0000
1000
0000
0001
0000
0000
0100
,
0000
0000
0000
0010
0000
0000
0000
1000
,
0000
0000
0000
0010
0000
0000
0000
0100
,
0000
0000
0000
0001
0000
0000
0000
0010
,
0000
0000
0000
0000
,
0100
0000
0100
0000
0100
0000
1000
0100
,
1000
0000
0100
0000
,
0010
0000
0010
0000
0010
0000
0001
0010
,
0001
0000
0010
0000
,
0001
0000
0001
0000
0001
0000
1000
0001
,
1000
0000
0000
0000
0001
0000
0100
0010
,
0100
0000
0010
1000
,
0000
0010
0000
0000
1000
0000
0010
0000
,
1000
0000
0010
1000
,
0001
0001
0100
0000
,
0001
0000
0010
0100
,
0100
1000
1000
0000
,
0001
0000
0010
0001
,
0001
1000
1000
0010
,
0010
0100
0100
0001
,
1001
0000
0000
0001
1000
0000
0001
0000
,
0100
0100
0100
0100
,
0010
0100
0010
0100
0010
0100
0010
0100
,
0010
0000
0010
0000
0010
0000
1000
0010
,
1000
0010
1000
0000
,
0001
0000
0001
0000
0001
0000
0100
0001
,
0100
0001
0100
0000
,
0001
0000
0001
0000
0001
0000
0010
0001
,
0010
0001
0010
0100
,
1000
0100
0010
0001
,
0000
1000
0000
0001
1000
0000
0000
0000
,
0001
0000
0100
0100
,
0010
0000
1000
1000
,
0100
0000
1000
1000
,
0001
0010
0100
1000
,
0001
0000
0010
0010
,
0001
0000
1000
1000
,
0100
0000
1000
0000
,
0010
0100
0001
0010
;

//---------------dance-single - Renard----------------
#NOTES:
     dance-single:
     Renard:
     Easy:
     2:
     0.303,0.327,0.010,0.118,0.000: // measure 1
0000
0000
0000
0000
,  // measure 2
0000
0000
0000
0000
,  // measure 3
0000
0000
0000
0000
,  // measure 4
0000
0000
0000
0000
,  // measure 5
1000
0100
0100
0100
,  // measure 6
0010
0001
0001
0001
,  // measure 7
0100
0010
0010
0010
,  // measure 8
1000
0100
1000
0100
,  // measure 9
0020
0000
0031
0010
,  // measure 10
0002
0000
0013
0001
,  // measure 11
2000
0000
3100
1000
,  // measure 12
0200
0000
2300
0000
,  // measure 13
3020
0000
1030
0010
,  // measure 14
0200
0000
0301
0100
,  // measure 15
0002
0000
0103
0001
,  // measure 16
0010
0010
0001
0001
,  // measure 17
2000
0000
3100
0100
,  // measure 18
0020
0000
0031
0001
,  // measure 19
2000
0000
3010
0010
,  // measure 20
0200
0000
0301
0001
,  // measure 21
1000
0100
1000
0100
,  // measure 22
0010
0001
0010
0001
,  // measure 23
1000
0001
0100
0000
,  // measure 24
0010
0000
0000
1001
,  // measure 25
1000
1000
0100
0010
,  // measure 26
0001
0001
0010
0000
,  // measure 27
0100
0000
1000
0000
,  // measure 28
0010
0100
0001
0100
,  // measure 29
0010
1000
1000
0010
,  // measure 30
0100
0100
0001
0010
,  // measure 31
0001
0000
1000
0000
,  // measure 32
0100
0000
0000
0000
,  // measure 33
1000
0001
1000
0001
,  // measure 34
0100
0000
0010
1000
,  // measure 35
0010
0000
0100
0001
,  // measure 36
0100
0000
0001
0010
,  // measure 37
0001
1000
0001
1000
,  // measure 38
0001
1000
0001
1000
,  // measure 39
0001
1000
0001
1000
,  // measure 40
0001
0000
0000
0000
,  // measure 41
1000
1000
1000
0000
,  // measure 42
0001
0000
0001
0000
,  // measure 43
0100
0100
0100
0000
,  // measure 44
0010
0000
0010
0000
,  // measure 45
1000
1000
0010
0000
,  // measure 46
0100
0000
0100
0000
,  // measure 47
0001
0010
0001
1000
,  // measure 48
0100
0000
0000
0000
,  // measure 49
1000
1000
1000
0000
,  // measure 50
0100
0000
0100
0000
,  // measure 51
0010
0010
0010
0000
,  // measure 52
0001
0000
0001
0000
,  // measure 53
1000
1000
1000
0000
,  // measure 54
0010
0000
0010
0000
,  // measure 55
0100
0001
0100
0001
,  // measure 56
1000
0000
0000
0000
,  // measure 57
0001
0010
0100
1000
,  // measure 58
0001
0010
0100
1000
,  // measure 59
0001
0001
0001
0000
,  // measure 60
1000
0000
1000
0000
,  // measure 61
0010
0010
0010
0000
,  // measure 62
0100
0000
0100
0000
,  // measure 63
0010
1000
0010
0000
,  // measure 64
0100
0000
0100
0000
,  // measure 65
0001
0010
0100
1000
,  // measure 66
0001
0000
0000
0000
,  // measure 67
0010
0000
0010
0001
,  // measure 68
1000
0000
0000
0000
,  // measure 69
0001
0000
1000
0100
,  // measure 70
1000
0000
0000
0000
,  // measure 71
0001
0000
0100
0001
,  // measure 72
1000
0000
0001
0000
,  // measure 73
1000
0000
0010
0000
,  // measure 74
1000
0001
0100
0010
;
