#TITLE:The King;
#SUBTITLE:;
#ARTIST:Leon Switch & Kryptic Minds;
#TITLETRANSLIT:;
#SUBTITLETRANSLIT:;
#ARTISTTRANSLIT:;
#CREDIT:;
#BANNER:king.png;
#BACKGROUND:king-bg.png;
#LYRICSPATH:;
#CDTITLE:;
#MUSIC:king.ogg;
#OFFSET:0.000;
#SAMPLESTART:33.103;
#SAMPLELENGTH:12.000;
#SELECTABLE:YES;
#BPMS:0.000=174.000;
#STOPS:;
#BGCHANGES:;

//---------------dance-single - Renard----------------
#NOTES:
     dance-single:
     Renard:
     Hard:
     9:
     0.701,0.721,0.172,0.029,0.400:
0000
0000
0000
0000
,
0000
0000
0000
0000
,
0000
0000
0000
0000
,
0000
0000
0000
0000
,
0000
0000
1000
0001
0000
0100
0010
0000
,
2002
0000
0020
0000
,
3033
0000
0000
0000
,
1000
0000
0100
0010
0000
0001
0001
0001
,
1000
0010
0100
0000
0101
0000
0100
0010
,
1000
0000
0000
1000
0000
0000
1000
0000
0100
0000
0000
0100
0000
0000
0010
0000
,
0001
0010
0100
0000
1010
0000
1000
0010
,
0100
0000
0000
0100
0000
0000
0100
0000
0001
0000
0010
0001
0000
0010
0001
0000
,
1000
0010
0100
0000
0101
0000
0100
0010
,
1000
0000
0000
1000
0000
0000
1000
0000
0100
0000
0010
0001
0000
0010
0100
0000
,
0010
0100
1000
0010
0100
0001
0100
0010
,
1000
0000
0000
0110
0000
0000
1001
0000
1100
0000
0000
0001
0000
0000
0010
0000
,
0100
0000
0000
0100
1000
0000
0010
0000
0100
0000
0001
0000
0100
0000
0010
0000
,
1000
0000
0000
1000
0000
0000
1000
0000
0100
0000
0010
0000
0001
0000
0010
0000
,
0100
0000
1000
0000
0001
0000
0000
0001
0100
0000
0010
0000
0100
0000
0010
0000
,
1000
0000
0000
1000
0000
0000
1000
0000
0010
0000
0100
0001
0000
0100
0001
0000
,
0100
0000
0010
0000
1000
0000
0000
0000
0100
0000
0000
0010
0000
0000
0001
0000
,
0010
0000
0000
0100
0000
0000
1000
0000
0001
0000
0010
0001
0000
0010
0001
0000
,
1000
0010
0100
0000
0001
0001
0000
0001
,
0001
0000
0000
0001
0000
0000
0001
0000
0000
0001
0000
0000
0000
0001
0000
0000
0000
0001
0000
0000
0000
0001
0000
0000
,
1000
0100
0000
0010
0001
0000
0100
0010
,
0000
1000
0010
0000
0100
0001
0100
0010
,
1000
0000
0010
0000
0100
0000
0001
0000
0010
0000
0100
0000
1000
0000
0100
1000
,
0100
0000
0000
0000
0010
0000
0001
0000
0000
0000
1001
0000
0000
0001
0000
1000
,
0010
0100
0000
0001
1000
0000
0100
0010
,
0000
0001
1000
0000
0001
0100
0010
1000
,
0001
0000
0100
0000
0010
0000
1000
0000
0100
0000
0010
0000
0001
0000
0010
0001
,
0010
0001
0010
0000
0001
0000
0010
0000
0001
0000
0010
0000
0000
0100
0000
1000
,
0010
0010
0000
0100
0100
0000
0001
0001
,
0000
1000
1000
0000
0001
0100
0010
1000
,
0001
0000
0000
0000
0001
0000
1000
0000
0000
0000
1000
0000
0000
0100
1000
0100
,
1000
0000
0000
0000
0010
0000
0100
0000
0000
0000
1001
0000
0000
0001
0000
0100
,
0010
0010
0000
1000
1000
0000
0100
0100
,
0000
0000
0001
0000
0001
0000
0000
0000
0100
0000
1000
0000
0010
0100
0000
0010
,
0100
0000
0001
0000
0010
0000
0100
0000
1000
0000
0010
0000
0100
0001
0000
0001
,
0100
0001
0100
0000
0001
0000
0100
0000
0010
1000
0010
0000
1000
0100
0000
1000
,
0100
0000
0010
0000
0001
0000
0010
0000
0100
0000
1000
0000
0010
0100
0000
0010
,
0100
0000
0001
0000
0100
0000
0010
0000
1000
0000
0100
0000
0010
0001
0000
0010
,
0001
0000
0010
0000
0100
0000
1000
0000
0010
0000
0100
0000
0001
0100
0000
0001
,
0100
0000
0010
0000
0110
0000
0010
0000
1000
0000
1100
0000
0000
0100
0000
1000
,
0100
0000
0010
0000
0001
0000
0010
0000
0100
0000
1000
0000
0010
0100
0000
0001
,
0100
0000
0010
0000
1000
0000
0100
0000
0010
0000
0001
0000
0010
0100
0000
1000
,
0100
0000
1000
0000
0010
0000
0100
0000
0001
0000
0100
0000
0010
1000
0000
0010
,
1000
0010
1010
0000
0001
0100
0101
0000
,
1001
0000
1001
0110
0000
0110
1001
0000
,
1000
0000
0100
0000
0010
0000
0001
0000
0010
0000
0100
0000
1000
0100
1000
0100
,
1000
0000
0010
0000
0100
0000
0001
0000
0010
0000
0001
0000
1000
0001
1000
0001
,
1000
0000
0010
0000
0100
0000
0001
0000
0010
0000
0100
0000
0010
0001
0000
0001
,
0010
0000
0100
0000
1000
0000
0010
0000
0100
0000
0001
0000
0100
0001
0100
0001
,
0100
0000
0010
0000
1000
0000
0100
0000
0010
0000
0001
0000
0010
0100
0010
0100
,
0010
0100
1000
0010
0100
0001
0100
0010
,
1000
0000
0010
0000
1000
0000
0001
0100
0001
0100
0001
0000
1000
0000
0001
0000
,
1000
0000
0000
0000
0001
0000
1000
0000
0010
0000
0000
0010
0000
0000
0010
0000
,
0100
0000
0000
0001
0000
0000
0010
0100
0010
0000
0100
0000
1000
0000
0010
0000
,
0100
0000
0000
0000
0001
0000
0000
0000
0100
0000
0000
0010
0000
0000
1000
0000
,
0010
0000
0000
0100
0000
0000
0010
0100
0010
0000
0100
0000
0001
0000
0010
0000
,
0100
0000
0000
1000
0000
0000
0100
0000
0010
0000
0000
0001
0000
0000
0010
0000
,
0100
0000
0000
1000
0000
0000
0001
0100
0001
0000
0100
0000
0010
0000
1000
0000
,
0001
0000
0100
0001
0100
0000
0001
0000
0100
0000
0010
0000
1000
0000
0010
0000
,
1000
0000
0000
0100
0000
0000
0010
0000
0001
0000
0010
0000
0000
0000
0100
0000
,
1000
0001
0100
0100
0000
0010
0010
0000
,
1000
0100
0010
0001
0001
0000
0010
0100
,
1000
0010
0100
0100
0001
0010
0010
0100
,
1000
0000
0000
0010
0000
0000
0100
0000
0001
0000
0100
0000
0010
0000
1000
0000
,
0100
0010
0001
0000
0010
0100
1000
0000
,
0010
0000
0000
0010
0000
0000
0100
0000
0001
0000
0100
0000
0010
0000
1000
0000
,
0100
0000
0000
0000
0100
0000
1000
0000
0000
0000
1000
0010
1000
0000
0010
0000
,
0100
0000
0001
0000
0010
0000
0001
0000
1000
0000
0001
0100
0001
0100
0001
0000
,
0100
0000
0000
0000
;

//---------------dance-single - Renard----------------
#NOTES:
     dance-single:
     Renard:
     Medium:
     5:
     0.335,0.411,0.010,0.000,0.000:
0000
0000
0000
0000
,
0000
0000
0000
0000
,
0000
0000
0000
0000
,
0000
0000
0000
0000
,
0000
0000
0000
0000
,
0000
0000
0000
0000
,
0000
0000
0000
0000
,
0000
0000
0000
0000
,
1000
0000
0100
1000
0000
0001
0010
0000
,
0001
0000
0000
1000
0010
0000
0000
0000
,
0100
0000
0001
1000
0000
0100
0010
0000
,
0001
0000
0000
1000
0010
0000
0000
0000
,
0100
0000
0001
1000
0000
0001
0010
0000
,
0100
0000
0000
1000
0001
0000
0000
0000
,
0100
0010
1000
0010
,
0100
0000
0001
0100
0000
0000
0000
0000
,
0010
0000
1000
0000
0100
1000
0001
0000
,
0010
0000
0000
0001
1000
0000
0000
0000
,
0010
0000
0100
0000
0001
1000
0100
0000
,
1000
0000
0000
0001
0010
0000
0000
0000
,
0001
0000
1000
0000
0010
1000
0001
0000
,
0010
0000
0000
0001
1000
0000
0000
0000
,
0010
0000
0100
0000
,
0000
0000
0000
0000
,
0001
0000
0000
1000
0000
0000
0100
0000
,
0000
0010
0000
0000
0001
0010
0100
0000
,
1000
0000
0000
0100
0000
0000
1000
0000
,
0010
0100
0001
0100
,
0010
0000
0000
1000
0000
0000
0010
0000
,
0000
0100
0000
0000
0001
0000
0010
0000
,
0001
0000
1000
0100
0000
1000
0000
0000
,
0001
0000
0010
0001
0000
1000
0010
0000
,
0100
0000
0000
0100
0000
0000
0010
0000
,
0000
1000
0000
0000
0001
0000
0010
0000
,
0100
0000
1000
0100
0000
1000
0000
0000
,
0001
0000
0010
0001
0000
0010
0000
0000
,
0001
0000
0000
1000
0000
0000
0010
0000
,
0000
0100
0000
0000
0001
0000
1000
0100
,
1000
0001
0010
0001
,
1000
0010
1000
0000
0001
0100
0001
0000
,
1000
0000
1000
0100
0000
0100
0010
0000
,
0010
0001
0000
0001
0010
0000
0100
0000
,
1000
0100
0010
0001
,
1000
0010
0100
0001
,
1000
0000
1000
0001
0000
0001
0010
0000
,
0010
0100
0000
0100
1000
0000
0010
0000
,
0100
0001
0100
0010
,
1000
0100
1000
0000
,
0100
1000
0001
1000
,
0010
1000
0100
0000
,
1000
0000
1000
0100
0000
0100
0010
0000
,
0010
0001
0000
0000
0001
0000
0010
0000
,
0100
1000
0100
1000
,
0010
1000
0001
0000
,
0010
0000
0010
0001
0000
0001
1000
0000
,
1010
0000
1000
0010
,
1000
0000
0000
0000
0000
0010
1000
0000
,
0001
0000
0100
0001
1000
0000
0000
0000
,
0001
0000
0010
0100
,
1000
0000
0001
0100
0001
0000
0000
0000
,
1000
0000
0000
0000
0000
0100
1000
0000
,
0001
0000
0000
0010
0001
0000
0000
0000
,
1000
0010
0100
0001
,
1000
0100
1000
0000
0001
0000
0010
0000
,
0001
0000
1000
0000
0000
0010
1000
0000
,
0001
0000
0000
0100
0001
0000
0000
0000
,
1000
0000
0100
0000
0000
0010
0001
0000
,
0010
0000
0000
0100
1000
0000
0000
0000
,
0001
0000
0100
0000
0000
0010
1000
0000
,
0001
0000
0000
0100
0001
0000
0000
0000
,
1000
0100
0010
0001
,
1000
0001
0100
0010
1000
0100
0010
0001
;

//---------------dance-single - Renard----------------
#NOTES:
     dance-single:
     Renard:
     Easy:
     2:
     0.226,0.275,0.000,0.000,0.000: // measure 1
0000
0000
0000
0000
,  // measure 2
0000
0000
0000
0000
,  // measure 3
0000
0000
0000
0000
,  // measure 4
0000
0000
0000
0000
,  // measure 5
0000
0000
0000
0000
,  // measure 6
0000
0000
0000
0000
,  // measure 7
0000
0000
0000
0000
,  // measure 8
0000
0000
0000
0000
,  // measure 9
1000
0100
0000
0010
,  // measure 10
0001
0000
1000
0000
,  // measure 11
0001
0100
0000
0010
,  // measure 12
1000
0000
0100
0000
,  // measure 13
1000
0001
0000
0010
,  // measure 14
0001
0000
1000
0000
,  // measure 15
0010
0000
1000
0000
,  // measure 16
0001
0100
0010
1000
,  // measure 17
0001
0010
0000
0100
,  // measure 18
1000
0000
0100
0000
,  // measure 19
1000
0010
0000
0100
,  // measure 20
0001
0000
0100
0000
,  // measure 21
0010
1000
0000
0010
,  // measure 22
0100
0000
0001
0000
,  // measure 23
0100
0000
0001
0000
,  // measure 24
0000
0000
0000
0000
,  // measure 25
1000
1000
0000
0000
,  // measure 26
0100
0100
0000
0010
,  // measure 27
0001
0001
0000
0000
,  // measure 28
0100
0100
0000
0010
,  // measure 29
1000
0000
0000
0100
,  // measure 30
0010
0010
0000
0001
,  // measure 31
1000
0000
0000
0010
,  // measure 32
1000
0001
1000
0001
,  // measure 33
1000
1000
0000
0100
,  // measure 34
0010
0010
0000
0001
,  // measure 35
1000
1000
0000
0010
,  // measure 36
0100
0000
0001
0000
,  // measure 37
1000
0000
0000
0100
,  // measure 38
0010
0000
0000
0001
,  // measure 39
1000
0000
0000
0010
,  // measure 40
0100
0001
0100
0001
,  // measure 41
0100
0000
0010
0000
,  // measure 42
1000
0010
1000
0001
,  // measure 43
0100
0000
0100
0000
,  // measure 44
0001
0100
0001
1000
,  // measure 45
0100
0000
0100
0000
,  // measure 46
1000
0000
1000
0000
,  // measure 47
0001
0010
0001
0000
,  // measure 48
1000
0010
1000
0000
,  // measure 49
0001
0000
0100
0001
,  // measure 50
1000
0000
0100
0000
,  // measure 51
1000
0000
0001
0010
,  // measure 52
0001
0000
1000
0000
,  // measure 53
0010
0000
1000
0001
,  // measure 54
0100
0000
0001
0000
,  // measure 55
1000
0000
0100
0000
,  // measure 56
0100
1000
0001
0100
,  // measure 57
0010
1000
0000
0010
,  // measure 58
0100
0000
0001
0000
,  // measure 59
1000
0100
0000
1000
,  // measure 60
0001
0000
0010
0000
,  // measure 61
0001
1000
0000
0001
,  // measure 62
0100
0000
0001
0000
,  // measure 63
1000
0000
0100
0000
,  // measure 64
1000
0001
1000
0000
,  // measure 65
0001
0100
0000
0010
,  // measure 66
1000
0000
0100
0000
,  // measure 67
0010
0001
0000
0010
,  // measure 68
0100
0000
1000
0000
,  // measure 69
0001
0100
0000
0010
,  // measure 70
1000
0000
0010
0000
,  // measure 71
0100
0001
0000
0100
,  // measure 72
0010
1000
0100
0010
,  // measure 73
0001
0000
0000
0000
;
