#TITLE:The Hell Song;
#SUBTITLE:;
#ARTIST:Sum 41;
#TITLETRANSLIT:;
#SUBTITLETRANSLIT:;
#ARTISTTRANSLIT:;
#CREDIT:;
#BANNER:hell.png;
#BACKGROUND:hell-bg.png;
#LYRICSPATH:;
#CDTITLE:;
#MUSIC:hell.ogg;
#OFFSET:0.000;
#SAMPLESTART:71.272;
#SAMPLELENGTH:12.000;
#SELECTABLE:YES;
#BPMS:0.000=173.000,208.000=175.000;
#STOPS:;
#BGCHANGES:;

//---------------dance-single - Renard----------------
#NOTES:
     dance-single:
     Renard:
     Challenge:
     9:
     0.737,0.800,0.613,0.085,0.051:
0000
0000
0000
0000
,
0000
0000
0000
0000
,
0000
0000
0000
0000
,
0000
0000
0000
0000
0101
0101
0101
0101
,
0010
1000
1100
0100
0010
0001
0011
0001
,
0100
0010
0110
0010
1000
0100
1100
0100
,
0010
0001
0011
0010
0100
1000
1100
1000
,
0010
0000
0100
0000
0001
0010
0001
0010
0001
0000
0100
0000
0010
1000
0010
1000
,
0010
0100
0101
0100
0010
1000
1010
1000
,
0100
0010
0110
0010
0001
0010
0011
0010
,
0100
0010
0110
0100
1000
0001
1001
1000
,
0010
1000
0010
1000
0010
0000
1000
0001
1000
0000
0001
0100
0001
0100
0001
0000
,
1000
0100
1000
0100
0010
0100
0010
0100
,
0001
0100
0001
0100
0010
0100
0010
0100
,
1000
0100
1000
0100
0010
0100
0010
0100
,
0010
0001
0010
0001
0100
0001
0100
0001
,
0100
0001
0100
0001
0100
0010
0100
0010
,
0100
1000
0100
1000
0100
0010
0100
0010
,
0100
0001
0100
0001
0100
0010
0100
0010
,
1000
0010
1000
0010
1000
0100
1000
0100
,
1000
0001
1001
0000
0001
0100
0101
0000
,
0100
0010
0110
0000
0010
1000
1010
0000
,
1000
0100
1100
0000
0100
0010
0110
0000
,
0010
0001
0011
0000
0010
0100
0110
0000
,
0100
1000
1010
0010
0100
0001
0101
0001
,
0010
0100
0110
0100
1000
0001
1001
0001
,
0100
0010
0110
0010
1000
0010
1010
0000
,
1001
0000
0000
0000
0101
0000
0000
0000
0010
1000
0010
1000
0010
1000
0010
0000
,
0100
0100
0001
0010
0100
1000
0010
0100
,
0001
0001
0100
0010
1000
0100
0010
0001
,
0010
0010
0100
1000
0010
0100
0001
0100
,
1000
1000
0010
0010
0100
0100
0001
0001
,
0100
0100
1000
0010
0100
0001
0100
0001
,
0010
0010
0100
1000
0010
0100
0001
0010
,
0100
0100
0010
0001
0010
1000
0010
0001
,
0100
0100
1000
1000
0010
0010
0001
0001
,
0100
0100
0010
1000
0010
0100
0010
1000
,
0010
0010
1000
0100
0010
0001
0010
0100
,
0010
0010
0001
0010
0100
0010
0001
0010
,
0100
0100
1000
0010
0100
0001
0100
0010
,
1000
1000
0010
0001
0010
0100
0010
0100
,
0001
0010
0100
0010
0001
0010
0100
1000
,
0010
0100
1000
0100
0010
1000
0100
0010
,
0001
0010
0100
0001
0001
0101
0100
0110
,
0010
0001
0011
0000
0001
1000
1001
0000
,
1000
0010
1010
0000
0010
0100
0110
0000
,
0100
0001
1000
0100
0010
0001
0010
0100
,
1000
0001
0100
0010
1000
0010
0100
0001
,
0100
0010
0110
0000
0010
1000
1010
0000
,
1000
0001
1001
0000
0001
0100
0101
0000
,
0100
0010
1000
0100
1000
0001
0010
0100
,
1001
0000
0110
0000
1001
0110
0000
1001
,
0000
0001
0100
0010
1000
0100
0000
0110
,
0000
0100
1000
0010
0100
0001
0100
0110
,
0000
1010
0000
1001
0000
1100
0000
0000
,
0110
0000
0010
0001
0100
0010
1000
1010
,
0000
0010
0100
0001
0010
0100
0010
0110
,
0000
0100
1000
0001
0010
0100
1000
1100
,
0000
1010
0000
0101
0000
1001
0000
0000
,
0101
0000
0001
0100
0010
1000
0100
0010
,
0000
0010
0100
1000
0010
0100
0001
0100
,
0000
0100
0010
1000
0010
0100
0001
0010
,
0000
0010
0100
1000
0001
0100
0010
1000
,
0100
1000
0001
0010
0001
1000
0001
0100
,
0001
0100
0010
1000
0010
1000
0100
1000
,
0100
0010
0100
0010
0001
0010
0001
0010
,
0100
1000
0001
0010
0100
1000
0010
1000
,
1010
0010
0110
0100
0101
1001
0101
0000
,
0201
0000
1000
0010
0001
0000
0001
0300
,
0021
0000
0001
0100
1000
0000
0031
0000
,
0120
0000
0100
1000
0001
0000
0100
0030
,
0200
0000
1000
0000
0010
0000
0001
0300
,
0200
0000
1000
0010
0001
0000
0010
0300
,
2100
0000
0010
0100
0001
0000
0001
3000
,
1002
0000
0010
0100
1000
0000
1000
0003
,
0201
0000
0010
0000
1000
0000
0010
0300
,
0202
0000
0000
0000
,
0000
0000
0000
0000
,
0000
0303
0000
0000
;

//---------------dance-single - Renard----------------
#NOTES:
     dance-single:
     Renard:
     Hard:
     8:
     0.539,0.498,0.204,0.009,0.000:
0000
0000
0000
0000
,
0000
0000
0000
0000
,
0000
0000
0000
0000
,
0000
0000
0000
0000
,
1000
0000
0100
0010
0001
0000
0010
0000
,
0100
0000
1000
0001
0010
0000
0100
0000
,
1000
0000
0100
0010
0001
0000
1000
0000
,
0001
0010
0001
0010
0100
0010
0100
0010
,
0100
0000
1000
0001
0100
0000
0010
0000
,
1000
0000
0010
0100
0001
0000
1000
0000
,
0100
0000
1000
0001
0010
0000
0001
0000
,
1000
0010
1000
0010
0100
0001
0100
0001
,
1000
0000
0100
0010
0001
0010
0100
1000
,
0001
0110
1000
0110
,
0010
0000
1000
0100
0010
0001
0010
0100
,
1000
0101
1000
1010
,
1000
0000
0100
0010
0001
0010
0100
1000
,
0001
0101
1000
1010
,
1000
0000
0100
0010
0001
0010
0100
1000
,
0001
0101
1000
1010
,
1000
0000
0100
0000
0010
0000
0001
0010
,
0100
0000
1000
0010
0100
0000
0001
0100
,
0010
0000
1000
0000
0100
0000
0010
0001
,
0010
0000
0100
1000
0001
0000
0100
0000
,
0010
0000
1000
0010
0100
0000
0001
0100
,
0010
0000
1000
0010
0100
0000
0001
1000
,
0100
0000
1000
0001
0010
0000
0001
1000
,
0010
0000
0100
0000
0001
1000
0100
0000
,
0010
0001
0010
0100
1000
0000
0001
0000
,
0010
0001
0010
0100
1000
0000
0001
0000
,
0010
0001
0010
0100
1000
0000
0001
0000
,
0010
0010
0001
0001
,
1000
0100
1000
0001
0010
0000
0001
0000
,
1000
0100
1000
0001
0010
0000
0001
0000
,
1000
0100
1000
0001
0000
0010
0001
0000
,
1000
0000
0010
0100
0001
0100
0010
0000
,
1000
0000
0010
0100
0001
0100
0010
1000
,
0001
0100
0110
1001
,
1000
0000
0100
0010
0001
0010
0100
1000
,
0001
0101
0110
1010
,
1000
0000
0100
0010
0001
0010
0100
1000
,
0001
0100
0110
1001
,
1000
0000
0100
0010
0001
0010
0100
1000
,
0001
0100
0110
0000
,
0010
1000
0010
1000
0001
0000
0001
0000
,
1000
0100
1000
0001
1000
0000
1000
0000
,
0001
0010
0001
0010
0100
0000
0100
0000
,
1000
0010
1000
0010
0100
0010
0100
0000
,
0001
0010
0100
0000
1000
0100
0010
0000
,
0001
0010
0100
0000
1000
0010
0100
0000
,
0001
0000
0010
0100
1000
0000
0001
0000
,
0010
0000
0001
1000
0010
0100
0000
0110
,
0000
0010
1000
0100
0010
0001
0000
0011
,
0000
0010
0100
1000
0001
0100
0000
0110
,
0000
1001
0000
1000
0100
0010
0000
0001
,
0010
0100
1000
0001
0100
0010
0000
0110
,
0000
0010
1000
0100
0010
0001
0000
0011
,
0000
0010
0100
1000
0001
0010
0001
1000
,
0000
1000
0010
0100
0000
0100
0001
0010
,
0001
0010
0100
1000
0001
0010
0100
1000
,
0000
1000
0001
0100
0010
1000
0100
0010
,
0000
0010
0001
0010
0100
1000
0001
0100
,
0000
0100
0010
1000
0000
1000
0010
0100
,
0001
0000
0001
0000
0010
0100
0000
0110
,
0000
0100
1000
0010
0100
0001
0000
1001
,
0000
1000
0100
0010
0001
0010
0000
0010
,
0000
0100
1000
0010
0000
0100
0001
1000
,
0100
1000
0001
0010
0001
1000
0010
0100
,
0001
0000
0100
0010
1000
0000
0010
0000
,
0100
0000
0001
0010
0100
0000
1000
0000
,
0100
0000
0010
0001
1000
0000
0010
0000
,
0100
0000
0001
0100
0010
0000
1000
0100
,
0010
0000
0001
0010
0100
0000
1000
0000
,
0010
0000
0100
0001
1000
0000
0100
0000
,
1000
0000
0001
0010
0001
0000
1000
0000
,
0010
0100
0001
0010
0100
1000
0010
0100
,
0002
0000
0000
0000
,
0000
0000
0000
0000
,
0003
0000
0000
0000
;

//---------------dance-single - Renard----------------
#NOTES:
     dance-single:
     Renard:
     Medium:
     6:
     0.356,0.531,0.068,0.009,0.000:
0000
0000
0000
0000
,
0000
0000
0000
0000
,
0000
0000
0000
0000
,
0000
0000
0000
0000
,
1000
0000
0001
0100
0001
0000
0001
0000
,
1000
0000
1000
0100
1000
0000
1000
0000
,
0001
0000
0001
0100
0001
0000
0100
0000
,
0001
1000
0100
0010
,
0001
0000
1000
0100
1000
0000
1000
0000
,
0001
0000
0001
0100
0001
0000
0001
0000
,
0010
0000
0010
0001
0010
0000
0001
0000
,
1000
0100
1000
0001
,
0000
0000
0010
0000
0001
0000
0010
0100
,
0010
0010
0100
0100
,
0000
0000
1000
0000
0001
1000
0001
0000
,
0100
0000
0100
0010
1000
0000
1000
0000
,
0000
0000
0010
0100
0010
0000
0100
0000
,
0001
0001
1000
1000
,
0000
0000
0001
1000
0001
0000
1000
0000
,
0100
0100
0010
0010
,
0000
0001
0001
0010
,
0100
0000
1000
0100
0000
0010
0001
0000
,
0000
0001
0010
0100
,
1000
0000
0100
0010
0000
0001
1000
0000
,
0000
0001
0100
0010
,
1000
0000
0001
0100
0000
0010
1000
0000
,
0010
0100
0001
1000
,
0100
0000
0000
0010
0001
0010
0100
0000
,
1000
0000
0100
1000
0100
0000
0000
0000
,
1000
0000
0001
0100
0001
0000
0000
0000
,
0010
0000
0001
0010
0001
0000
0000
0000
,
1000
0010
1000
0010
,
0100
0000
0001
0100
0001
0000
0000
0000
,
1000
0000
0100
1000
0100
0000
0000
0000
,
1000
0000
0001
0010
0001
0000
0000
0000
,
1000
0010
0100
0001
,
0010
0001
0010
0100
,
1000
0000
0001
1000
0001
0000
1000
0000
,
0000
0001
0100
0010
,
1000
0000
0001
1000
0001
0000
1000
0000
,
0000
0100
0010
0001
,
1000
0000
0001
0100
0001
0000
1000
0000
,
0000
0001
1000
0100
,
0010
0001
0010
0000
0100
0000
0000
0000
,
0000
0000
1000
0010
1000
0000
0010
0000
,
0000
0000
0100
0001
0100
0000
0001
0000
,
0000
0010
0100
1000
,
0100
0010
0001
1000
,
0000
1001
1001
0110
,
0110
1010
1010
0101
,
0101
0000
0001
1000
,
0100
0000
0000
0000
1000
0100
0000
1000
,
0000
0000
0000
0000
0001
0010
0000
0001
,
0000
0000
0000
0000
1000
0010
0000
1000
,
0000
0001
0000
0100
0000
0010
0000
0000
,
1000
0000
0000
0000
0001
0100
0000
0001
,
0000
0000
0000
0000
1000
0100
0000
1000
,
0000
0000
0000
0000
0001
0010
0000
0100
,
0000
1000
0000
0001
0000
0010
0000
0000
,
0001
0000
0000
0000
1000
0010
0000
1000
,
0000
0000
0000
0000
0001
0010
0000
0001
,
0000
0000
0000
0000
1000
0100
0000
1000
,
0000
0001
0000
0100
0000
0010
0000
0000
,
1000
0000
0010
0000
0100
0001
0000
0100
,
0000
0000
0000
0000
0010
1000
0000
0100
,
0000
0000
0000
0000
0010
0001
0000
0010
,
0000
0100
0000
1000
0000
0001
0000
0000
,
0100
0000
0010
0000
1000
0010
1000
0000
,
0001
0000
0100
0010
0100
0000
0010
0000
,
1000
0000
0100
0000
,
1000
0000
0001
0100
0001
0000
0100
0000
,
0010
0000
1000
0000
,
0100
0000
1000
0100
1000
0000
0001
0000
,
0010
0000
0001
0000
,
1000
0000
0010
0100
,
0001
0100
0010
0100
0010
1000
0001
1000
,
0002
0000
0000
0000
,
0000
0000
0000
0000
,
0003
0000
0000
0000
;

//---------------dance-single - Renard----------------
#NOTES:
     dance-single:
     Renard:
     Easy:
     3:
     0.279,0.299,0.009,0.009,0.000: // measure 1
0000
0000
0000
0000
,  // measure 2
0000
0000
0000
0000
,  // measure 3
0000
0000
0000
0000
,  // measure 4
0000
0000
0000
0000
,  // measure 5
1000
1000
0001
0010
,  // measure 6
0001
0001
1000
0010
,  // measure 7
1000
1000
0001
0100
,  // measure 8
0001
0001
1000
0100
,  // measure 9
1000
1000
0001
0010
,  // measure 10
0001
0001
1000
0010
,  // measure 11
1000
1000
0001
0100
,  // measure 12
0001
0001
1000
0100
,  // measure 13
0000
1000
1000
0100
,  // measure 14
0010
0010
0000
0000
,  // measure 15
0000
0001
0001
0010
,  // measure 16
0100
0100
1000
1000
,  // measure 17
0000
0010
0010
1000
,  // measure 18
0001
0001
0000
0000
,  // measure 19
0000
0100
0100
0001
,  // measure 20
0100
0100
0010
1000
,  // measure 21
0000
0010
0010
1000
,  // measure 22
0001
0000
0100
0000
,  // measure 23
0010
1000
0100
1000
,  // measure 24
0001
0000
0010
0000
,  // measure 25
0001
0000
1000
1000
0000
0000
0001
0000
,  // measure 26
0001
0100
0010
1000
,  // measure 27
0000
0010
0100
0001
,  // measure 28
0010
0000
0001
0010
,  // measure 29
0110
0000
0100
1000
,  // measure 30
0010
0000
1000
0001
,  // measure 31
0100
0000
0001
0010
,  // measure 32
0100
0000
1000
0001
,  // measure 33
0100
0000
0100
0010
,  // measure 34
1000
0000
0010
0100
,  // measure 35
0001
0000
1000
0100
,  // measure 36
1000
0001
0010
0001
,  // measure 37
1000
0000
1000
0001
,  // measure 38
0100
0100
0100
0100
,  // measure 39
0010
0000
1000
0001
,  // measure 40
0010
0010
0100
0100
,  // measure 41
1000
0000
0001
0000
,  // measure 42
0010
0010
0010
0010
,  // measure 43
0001
1000
0100
1000
,  // measure 44
0001
0001
0001
0000
,  // measure 45
0100
0010
0010
0010
,  // measure 46
1000
0100
0100
0100
,  // measure 47
0010
0001
0010
0100
,  // measure 48
0010
1000
0010
0100
,  // measure 49
0000
0010
0010
0100
,  // measure 50
0100
1000
0010
0100
,  // measure 51
0001
0000
0001
0100
,  // measure 52
0010
0000
0000
0000
1000
0000
0000
0010
,  // measure 53
0000
0000
0000
0000
0100
0000
0000
0001
,  // measure 54
0000
0000
0000
0000
0010
0000
0000
0100
,  // measure 55
0000
1000
0000
0100
0000
1000
0000
0000
,  // measure 56
0100
0000
0000
0000
1000
0000
0000
0010
,  // measure 57
0000
0000
0000
0000
0100
0000
0000
0001
,  // measure 58
0000
0000
0000
0000
0010
0000
0000
0001
,  // measure 59
0000
0001
0000
0010
0000
0010
0000
0000
,  // measure 60
0100
0000
0000
0000
1000
0000
0000
0010
,  // measure 61
0000
0000
0000
0000
0100
0000
0000
0001
,  // measure 62
0000
0000
0000
0000
0010
0000
0000
0100
,  // measure 63
0000
0100
0000
1000
0000
1000
0000
0000
,  // measure 64
0100
0000
0000
0000
1000
0000
0000
0010
,  // measure 65
0000
0000
0000
0000
0100
0000
0000
0001
,  // measure 66
0000
0000
0000
0000
0100
0000
0000
0001
,  // measure 67
0000
0001
0000
0100
0000
0001
0000
0000
,  // measure 68
0100
0000
0010
1000
,  // measure 69
0010
0000
0010
0100
,  // measure 70
0001
0000
0010
0100
,  // measure 71
1000
0000
0100
1000
,  // measure 72
0001
0000
0010
0001
,  // measure 73
1000
0000
0010
0100
,  // measure 74
0001
0000
1000
0100
,  // measure 75
0010
0000
0001
0010
,  // measure 76
0100
0000
1000
0010
,  // measure 77
0200
0000
0000
0000
,  // measure 78
0000
0000
0000
0000
,  // measure 79
0000
0300
0000
0000
0000
0000
0000
0000
;
