#TITLE:The Funky Worm;
#SUBTITLE:;
#ARTIST:Spacekats;
#TITLETRANSLIT:;
#SUBTITLETRANSLIT:;
#ARTISTTRANSLIT:;
#CREDIT:;
#BANNER:worm.png;
#BACKGROUND:worm-bg.png;
#LYRICSPATH:;
#CDTITLE:;
#MUSIC:worm.ogg;
#OFFSET:0.000;
#SAMPLESTART:16.881;
#SAMPLELENGTH:11.000;
#SELECTABLE:YES;
#BPMS:0.000=142.000;
#STOPS:;
#BGCHANGES:;

//---------------dance-single - Renard----------------
#NOTES:
     dance-single:
     Renard:
     Challenge:
     9:
     0.738,0.782,0.158,0.253,0.501:
0000
0000
0000
0000
,
0000
0000
0000
0000
,
0000
0000
0000
0000
,
0000
0000
0000
0000
,
0000
0000
0000
0000
,
1000
0100
0001
0100
1000
0100
0001
0100
,
1000
0100
0001
0100
2000
0000
0020
3000
,
0031
0010
1000
0010
0001
0010
1000
0100
,
1000
0000
0001
0100
0001
0000
1000
0100
1000
0000
0001
0100
0001
0000
1000
0001
,
1000
0001
1001
0000
0110
0000
1001
0000
,
1000
0000
0100
0000
1000
0000
0010
0200
0001
0000
0300
0000
0010
0000
1000
0002
,
1000
0000
0000
0000
0103
0000
0001
0000
1000
0000
0100
0010
0001
0000
0010
0000
,
0100
0000
1000
0000
0010
0000
0100
0002
0100
0000
0000
0000
1003
0000
0100
0000
,
0001
0000
0100
0000
1000
0000
0100
0020
0001
0000
0000
0000
0100
0000
0030
0000
,
0010
0100
1000
0001
0200
0000
0310
0000
,
0010
0100
0001
1000
0020
0000
0130
0000
,
0010
0000
0100
0010
0100
0000
0010
0000
1000
0000
0001
0000
0100
0000
0010
0000
,
1000
0000
0100
0000
0010
0000
0001
0000
0010
0100
1000
0000
0001
0000
1000
0000
,
0001
0000
0100
0000
0001
0000
1000
0200
0000
0000
1300
0000
0010
0000
0100
0001
,
0100
0000
0010
0000
1000
0000
0100
0010
0001
0000
0010
0000
0100
0000
1000
0200
,
0000
0000
1300
0000
0010
0000
0100
0002
0000
0000
0103
0000
0010
0000
1000
0001
,
0100
0000
0010
0000
1000
0000
0100
0000
0010
0000
0001
0010
0100
0000
1000
0100
,
0010
0000
0001
0000
0100
0000
0010
2000
0001
0000
0000
0000
3001
0000
1000
0000
,
0010
0000
0100
0000
0001
0000
1000
0200
1000
0000
0000
0000
1300
0000
0010
0000
,
0100
0000
0001
0100
0010
0000
1000
0000
0010
0000
0100
0001
1000
0000
0100
0000
,
0010
0000
0001
0000
0010
0000
0100
0000
1000
0000
0001
1000
0001
0000
1000
0000
,
0001
0100
0010
1000
0100
0010
0001
0010
0100
1000
0010
0100
0001
0000
0000
0000
,
0100
0010
1000
0100
0010
0001
0010
0100
1000
0001
0010
0100
1000
0000
0000
0000
,
0001
0010
0001
1000
0100
1000
0010
0100
0001
1000
0100
0010
0001
0000
0000
0000
,
0010
0100
1000
0001
0010
0001
1000
0100
0010
0001
1000
0010
0100
0000
0000
0000
,
0010
0100
0001
1000
0010
0100
0001
1000
0100
0010
0001
0010
0100
0000
0000
0000
,
1000
0010
0100
0001
1000
0001
0100
0010
1000
0001
0100
0010
1000
0000
0000
0000
,
0001
1000
0001
0100
0010
1000
0100
1000
0001
0100
0001
0010
0001
0000
0000
0000
,
1000
0100
0010
0100
1000
0001
0100
0010
1000
0100
1000
0010
0100
0000
0000
0000
,
0010
0000
1000
0010
0100
0000
0001
0000
0100
0000
0010
0000
1000
0000
0100
0000
,
0010
0000
0100
1000
0001
0000
0010
0000
0100
0000
1000
0000
0020
0000
0000
0000
,
0130
0000
0001
0100
0010
0000
1000
0000
0100
0000
0010
0000
0001
0000
0010
0000
,
0100
0000
1000
0010
0100
0000
0001
0000
1000
0000
0010
0000
0200
0000
0000
0000
,
0310
0000
1000
0001
0100
0000
0010
0000
1000
0000
0100
0000
0010
0000
0001
0000
,
0010
0000
0100
1000
0010
0000
0100
0000
0001
0000
1000
0000
0020
0000
0000
0000
,
0130
0000
0001
1000
0100
0000
0010
0000
0001
0000
0010
0100
1000
0000
0010
0000
,
0100
0000
0001
1000
0100
0000
1000
0001
0100
0000
0001
1000
0100
0000
1000
0001
,
0200
1001
1001
1301
,
0011
0000
0010
0000
0001
0000
0100
0020
1000
0000
0030
0000
0100
0000
0001
2000
,
0001
0000
0000
0000
3010
0000
1000
0000
0011
0000
0010
0100
1000
0000
0100
0000
,
1010
0000
0001
0000
0100
0000
0010
2000
0010
0000
0000
0000
3001
0000
0010
0000
,
0100
0000
0010
0000
0001
0000
0010
0200
1000
0000
0000
0000
0010
0000
0300
0000
,
0110
0010
0001
1000
0020
0000
0130
0000
,
0110
0010
1000
0001
0200
0000
0310
0000
,
1100
0000
0010
0100
0010
0000
0100
0000
0011
0000
1000
0000
0010
0000
0100
0000
,
0101
0000
0010
0000
0100
0000
1000
0000
0100
0010
0001
0000
1000
0000
0001
0000
,
1010
0000
0010
0000
1000
0000
0001
0020
0000
0000
0031
0000
0100
0000
0010
1000
,
0010
0000
0100
0000
0001
0000
0010
0100
1000
0000
0100
0000
0010
0000
0001
0010
,
0001
1000
0001
0100
0010
1000
0100
0010
,
0001
0010
0100
1000
0100
0001
0010
0001
;

//---------------dance-single - Renard----------------
#NOTES:
     dance-single:
     Renard:
     Hard:
     8:
     0.570,0.551,0.253,0.032,0.000:
0000
0000
0000
0000
,
0000
0000
0000
0000
,
0000
0000
0000
0000
,
0000
0000
0000
0000
,
0000
0000
0000
0000
0000
0000
0001
0010
,
0100
0000
0100
1000
0010
0000
0100
0001
,
0100
0001
0010
0100
1000
0001
0100
0010
,
0000
0000
1000
0010
0100
0000
0001
0010
,
0100
0000
0100
0000
1000
0001
0100
0000
,
0110
1001
0110
1001
,
0001
0100
0010
1000
0100
0010
0001
0100
,
0010
1000
0100
0010
0001
0000
1001
0000
,
0001
0010
0100
1000
0010
0100
0001
0010
,
0100
1000
0010
0100
0001
0000
1001
0000
,
1000
0100
0010
0100
1000
0001
0010
0100
,
0010
0001
1000
0001
1000
0000
1001
0000
,
0001
0100
0010
0100
0001
1000
0100
0010
,
0100
1000
0010
0100
0001
1000
0100
0000
,
1000
0100
0010
0001
0001
0010
0100
1000
,
1000
0100
0010
0001
1000
0000
1001
0000
,
0001
0100
0010
1000
1000
0010
0100
0001
,
0001
0100
0010
1000
0001
0000
1001
0000
,
1000
0100
1000
0000
0001
0010
0001
0000
,
1000
0010
0100
0001
1000
0000
1001
0000
,
1000
0100
1000
0001
1000
0010
1000
0001
,
0001
0100
0001
0010
0001
1000
0001
0000
,
0001
0100
0010
1000
0100
0010
0110
0000
,
0010
0001
0100
0010
1000
0100
1100
0000
,
1000
0001
0010
0100
1000
0001
0101
0000
,
0100
0010
1000
0100
0010
0110
0110
0000
,
0010
0001
1000
0010
0100
0001
1001
0000
,
1000
0100
0010
0001
1000
0001
1001
0000
,
1000
0010
0100
0001
0010
0001
0011
0000
,
0001
0010
0100
1000
1000
1001
1001
0000
,
0001
0100
0010
0100
1000
0100
0010
0100
,
0001
0010
0100
0010
1000
0010
0100
0010
,
0001
1000
0010
1000
0100
1000
0001
1000
,
0001
1000
0001
0100
0001
0010
0001
1000
,
0001
0100
0010
1000
0100
1100
1100
0000
,
1000
0100
0010
0001
1000
0101
0101
0000
,
0001
0010
0100
1000
0001
0100
0010
1000
,
0100
0010
0001
0010
0100
1000
0001
0200
,
0010
0010
0010
0310
,
0010
0100
0001
0010
0100
0010
0001
0100
,
0010
0100
0001
0010
0100
0010
0001
0000
,
1000
0100
0010
0100
1000
0010
0100
0010
,
1000
0100
0010
0100
1000
0010
0100
0010
,
1000
0001
0010
0100
1000
0001
0010
0100
,
1000
0100
0010
0001
0100
0010
1000
0100
,
0010
0100
1000
0001
0010
0100
0010
0001
,
1000
0010
0100
0001
0010
0100
1000
0001
,
0100
0010
0100
1000
0100
0010
0100
0001
,
0010
0100
0010
1000
0010
0100
0010
0001
,
1000
0000
0010
0100
0001
0000
0010
0100
,
2000
0000
0002
0000
,
3003
0000
0000
0000
;

//---------------dance-single - Renard----------------
#NOTES:
     dance-single:
     Renard:
     Medium:
     6:
     0.359,0.406,0.032,0.032,0.000:
0000
0000
0000
0000
,
0000
0000
0000
0000
,
0000
0000
0000
0000
,
0000
0000
0000
0000
,
0000
0000
0000
1000
,
0001
0001
1000
1000
,
0001
0000
0100
0000
0010
0000
1000
0010
,
0000
0000
1000
0001
1000
0000
0001
0100
,
0002
1000
0100
0010
,
1000
1000
1000
1003
,
1000
0000
0001
0100
0001
0000
1000
0100
,
1000
0100
0010
0000
,
0001
0000
1000
0010
1000
0000
0001
1000
,
0001
0010
0100
0000
,
1000
0001
0100
0000
,
0001
0000
1000
0000
0100
0000
1000
0001
,
1000
0000
0001
0100
0001
0000
1000
0100
,
1000
0100
0010
0001
,
0000
0000
1000
0000
0010
0000
0100
0001
,
0100
0000
0010
1000
,
0100
0000
0010
0000
0001
1000
0001
1000
,
0001
0000
0000
0000
0100
0000
0010
1000
,
0010
0000
0100
0001
0100
0000
0001
1000
,
0001
1000
0100
0010
0001
0000
1000
0001
,
1000
0000
0010
0100
0010
0000
1000
0010
,
1000
0001
0100
0010
,
1000
0000
0010
0100
0001
0100
0010
0000
,
1000
0010
1000
0000
,
0001
0000
0010
0100
1000
0000
1000
0000
,
0100
0000
1000
0000
0001
0100
0001
0000
,
1000
0000
0010
0000
1000
0001
1000
0000
,
0001
0000
0100
0000
0001
0010
0001
0000
,
1000
0010
0100
0001
1000
0100
0010
0000
,
0001
0010
0100
0000
1000
0000
1001
0000
,
1000
0001
0100
0001
,
1000
0000
0100
0000
1000
0001
1000
0000
,
0001
0100
0001
1000
,
0100
0000
1000
0000
0001
0010
0001
0000
,
1000
0010
1000
0001
,
0100
0001
1000
0100
,
1000
0000
0001
0010
0001
0000
1000
0000
,
0010
0000
1000
0100
1000
0000
0001
0000
,
1000
1001
1001
0000
,
1000
0000
0001
0100
0001
0000
1000
0100
,
1000
0000
0000
0000
0000
0000
0001
0010
,
0001
0000
1000
0010
1000
0000
0001
0100
,
0001
1000
0100
0000
,
0000
0010
0001
0010
0001
0000
0010
0000
,
0100
0000
1000
0100
1000
0000
0001
0000
,
0000
0100
0010
1000
,
0010
0000
0100
0000
0001
0000
1000
0100
,
1000
0001
0010
0001
,
1000
0000
0010
0000
0100
0001
0100
0010
,
0000
0000
1000
0010
1000
0000
0001
0100
,
0002
0000
2000
0000
,
3003
0000
0000
0000
;

//---------------dance-single - Renard----------------
#NOTES:
     dance-single:
     Renard:
     Easy:
     2:
     0.223,0.232,0.000,0.011,0.000: // measure 1
0000
0000
0000
0000
,  // measure 2
0000
0000
0000
0000
,  // measure 3
0000
0000
0000
0000
,  // measure 4
0000
0000
0000
0000
,  // measure 5
0000
0000
0000
0000
,  // measure 6
1000
0001
1000
0000
,  // measure 7
0001
0100
0001
0000
,  // measure 8
1000
0100
1000
0000
,  // measure 9
0010
0100
0001
0000
,  // measure 10
1000
0000
0001
0000
,  // measure 11
0100
0010
1000
0000
,  // measure 12
0001
0100
0001
0000
,  // measure 13
1000
0010
1000
0000
,  // measure 14
0010
1000
0001
0000
,  // measure 15
0100
0001
1000
0000
,  // measure 16
0100
1000
0001
0000
,  // measure 17
0010
0001
1000
0000
,  // measure 18
0010
1000
0010
1000
,  // measure 19
0010
0000
0010
0000
,  // measure 20
0100
0010
0100
0000
,  // measure 21
0010
0000
0010
0000
,  // measure 22
1000
0001
0100
0001
,  // measure 23
1000
0000
1000
0000
,  // measure 24
0010
1000
0001
0100
,  // measure 25
0010
0000
0010
0000
,  // measure 26
1000
0010
1000
0010
,  // measure 27
1000
1000
1000
0000
,  // measure 28
0001
0001
0001
0000
,  // measure 29
0100
0100
0100
0000
,  // measure 30
0010
0010
0010
0000
,  // measure 31
1000
0010
1000
0000
,  // measure 32
0001
0100
0001
0000
,  // measure 33
1000
0100
1000
0000
,  // measure 34
0001
0010
0010
0010
,  // measure 35
0001
0001
0001
0000
,  // measure 36
1000
1000
1000
0000
,  // measure 37
0010
0010
0010
0000
,  // measure 38
0100
0100
0100
0000
,  // measure 39
0001
1000
0001
0000
,  // measure 40
0100
0010
0100
0000
,  // measure 41
0001
1000
0001
0000
,  // measure 42
1000
0100
1000
0000
,  // measure 43
0001
0010
0001
0000
,  // measure 44
1000
0000
0001
1000
,  // measure 45
0001
0000
0100
0000
,  // measure 46
0010
0000
1000
0010
,  // measure 47
1000
0000
0001
0000
,  // measure 48
0100
0000
0100
0010
,  // measure 49
1000
0000
0010
1000
,  // measure 50
0001
0001
0100
0100
,  // measure 51
0010
1000
0010
0100
,  // measure 52
0001
0000
0001
0000
,  // measure 53
0100
0000
0100
0000
,  // measure 54
0100
0000
0010
1000
,  // measure 55
0010
0000
0200
0000
,  // measure 56
0300
0000
0000
0000
;
