#TITLE:The Cage;
#SUBTITLE:;
#ARTIST:Sonata Arctica;
#TITLETRANSLIT:;
#SUBTITLETRANSLIT:;
#ARTISTTRANSLIT:;
#CREDIT:;
#BANNER:cage.png;
#BACKGROUND:cage-bg.png;
#LYRICSPATH:;
#CDTITLE:;
#MUSIC:cage.ogg;
#OFFSET:0.000;
#SAMPLESTART:54.000;
#SAMPLELENGTH:12.000;
#SELECTABLE:YES;
#BPMS:0.000=160.000;
#STOPS:;
#BGCHANGES:;

//---------------dance-single - Renard----------------
#NOTES:
     dance-single:
     Renard:
     Hard:
     9:
     0.766,0.744,0.011,0.000,0.385:
0000
0000
0000
0000
,
0000
0000
0000
0000
,
0000
0000
0000
0000
,
0000
0000
0000
0000
,
1000
0000
0001
0000
0100
0000
0001
1000
0001
0000
1000
0000
0100
0000
0010
0000
,
0001
0000
1000
0000
0010
0000
0100
0010
0100
0000
0010
0000
1000
0000
0001
0000
,
0010
0000
0100
0000
1000
0000
0001
1000
0001
0000
1000
0000
0010
0000
0100
0000
,
0001
0000
1000
0100
1000
0000
0001
0010
0001
0000
1000
0000
0001
0000
1000
0000
,
0001
0100
0010
1000
0001
0000
1000
0100
,
0010
0000
0010
0001
0100
0000
0100
0001
,
1000
0000
0100
0000
0010
0100
0010
0000
0100
0000
1000
0000
0010
0100
0010
0000
,
0100
0001
0010
0100
1000
0001
0100
0010
,
1000
0000
1000
0010
0100
0000
0100
0001
,
0100
0000
0010
0000
1000
0001
1000
0000
0001
0000
0100
0000
0010
0100
0010
0000
,
1000
0100
0010
0000
0010
0001
1000
0001
,
0100
0001
0100
0000
0001
1000
0001
0000
1000
0100
1000
0000
0001
1000
0001
0000
,
1000
0000
0001
0000
0100
0001
0100
0001
0100
0000
0001
0000
0100
0000
0010
0000
,
1000
0000
0100
0000
0010
0001
0010
0001
0010
0000
0100
0000
1000
0000
0001
0000
,
0100
0000
0010
0000
1000
0010
1000
0010
1000
0000
0010
0000
0100
0000
0001
0000
,
0010
0000
0100
0000
1000
0001
1000
0001
1000
0000
0001
0000
0100
0000
0010
0000
,
1000
0000
0100
0000
0010
0001
0010
0001
0010
0000
0001
0000
0010
0000
0100
0000
,
1000
0001
1000
0001
1000
0000
0010
0000
1000
0010
1000
0010
1000
0000
0010
0000
,
0100
0001
0100
0001
0100
0000
0001
0000
1000
0000
0100
0000
0010
0000
0001
0000
,
1000
0001
1000
0000
0100
0000
0010
0000
0001
0000
1000
0000
0001
0000
1000
0000
,
0001
0100
0010
1000
0100
0010
0001
0010
,
0100
1000
0001
0010
0100
1000
0010
0001
,
0010
0100
1000
0100
0001
0010
0100
1000
,
1000
0000
1000
0100
0001
0000
0001
0100
,
1000
0010
0100
0001
0100
1000
0100
0001
,
0010
0100
1000
0100
0010
0001
0010
0100
,
1000
0010
0001
0000
0001
0010
0100
0000
,
0100
0000
1000
0000
0100
0000
0001
0000
0100
0000
0010
0000
1000
0010
1000
0010
,
1000
0000
0010
0000
0100
0000
0001
0000
0010
0000
0100
0000
1000
0100
1000
0000
,
0100
0000
1000
0000
0100
0000
0010
0000
0001
0000
1000
0000
0001
0100
0001
0000
,
0100
0000
0010
0000
1000
0001
1000
0000
0010
0000
0100
0000
0001
0100
0001
0000
,
1000
0010
1000
0000
0001
0100
0001
0000
1000
0000
0100
0000
0010
0000
0001
0000
,
1001
0000
1000
0010
0100
0000
0100
0001
,
0100
0010
1000
0100
0010
0001
0010
0100
,
1000
0000
1000
0100
0010
0000
0010
0001
,
1000
0000
0001
0000
0100
0000
0010
0000
1000
0000
0001
1000
0001
0000
1000
0001
,
1000
0000
1000
0010
0100
0000
0100
0001
,
0100
0010
1000
0100
0010
0001
1000
0001
,
0100
0000
0000
0100
0001
0000
0100
0000
0001
0000
0000
0000
0001
0000
1000
0000
,
0100
0000
0010
0000
0001
0000
0010
0000
0100
0000
1000
0000
0001
1000
0001
1000
,
0001
0000
0100
0000
0010
0100
0010
0100
0010
0000
1000
0000
0100
0000
0010
0000
,
0001
0000
1000
0000
0001
1000
0001
1000
0001
0000
1000
0000
0010
0000
0100
0000
,
0001
0000
0010
0000
0100
0010
0100
0010
0100
0000
1000
0000
0010
0000
0100
0000
,
0001
0000
1000
0000
0001
1000
0001
1000
0001
0000
1000
0000
0010
0000
0100
0000
,
0001
0000
0010
0000
0100
0010
0100
0010
0100
0000
1000
0000
0010
0000
0100
0000
,
0001
0000
1000
0000
0100
1000
0100
1000
0100
0000
1000
0000
0100
0000
0010
0000
,
0001
0000
1000
0000
0001
0100
0001
0100
0001
0000
0100
0000
0010
0000
1000
0000
,
0001
0000
1000
0001
1000
0000
0001
1000
0001
0000
1000
0001
1000
0000
0001
1000
,
0001
0100
0010
1000
0100
0010
0001
0010
,
0100
1000
0001
0001
0010
0010
0100
0100
,
1000
0000
0000
0000
1000
0000
0010
0000
0100
0000
0000
0000
0100
0001
0100
0001
,
0100
0010
1000
0100
0010
0001
1000
0100
,
1000
0000
1000
0100
0010
0000
0010
0001
,
1000
0000
0001
0100
0001
0000
0100
0010
0100
0000
0010
1000
0010
0000
1000
0000
,
0010
0000
0000
0010
0100
0000
0001
0000
0010
0000
0100
0000
0010
0001
0010
0000
,
0100
0000
1000
0000
0001
0000
1000
0000
0100
1000
0100
0000
0010
0001
0010
0000
,
0001
0000
0000
0001
0010
0100
1000
0000
0000
0000
0000
0000
;

//---------------dance-single - Renard----------------
#NOTES:
     dance-single:
     Renard:
     Medium:
     6:
     0.413,0.421,0.011,0.000,0.000:
0000
0000
0000
0000
,
0000
0000
0000
0000
,
0000
0000
0000
0000
,
0000
0000
0000
0000
,
1000
0000
0100
0000
1000
0100
1000
0000
,
0001
0000
0010
0000
0001
0010
0001
0000
,
1000
0000
0010
0000
1000
0010
1000
0000
,
0001
0100
0001
0000
1000
0100
0010
0001
,
1000
1000
1000
0000
,
0001
0000
0010
0001
0010
0000
0100
1000
,
0100
0100
0100
0000
,
1000
0001
1000
0001
1000
0001
1000
0001
,
1000
1000
1000
0000
,
0001
0100
0010
1000
,
0100
0000
0100
0000
0100
0000
0000
0010
,
0001
0000
0000
0001
0010
0000
0000
0010
,
0100
0000
1000
0100
1000
0000
0000
0000
,
0001
0010
0001
0010
0001
0010
0001
0010
,
0001
0001
0001
0000
,
1000
0100
1000
0100
1000
0100
1000
0100
,
1000
1000
1000
0000
,
0001
0100
0001
0000
1000
0010
1000
0000
,
0001
0000
0000
0000
0010
0000
0100
1000
,
0100
0000
1000
0100
,
0010
0001
0010
0010
,
0100
0100
1000
1000
,
0010
0010
0100
0100
,
0001
0010
0001
0000
0010
0100
0010
0000
,
0100
0100
1000
1000
,
0001
0001
0010
0010
,
0001
1000
0010
0100
,
0001
0001
0100
0100
,
0010
0010
1000
0010
,
1000
1000
0001
0100
,
0001
0001
1000
0100
,
0010
0000
0001
0010
0001
0000
0010
0100
,
1000
0000
1000
0001
0100
0000
0100
0000
,
0001
0000
1000
0100
0010
0000
0001
0010
,
0100
0100
1000
0000
,
0001
0000
0100
0000
0001
0000
1000
0001
,
1000
0000
0100
1000
0100
0000
0000
0000
,
1000
0001
0010
0010
,
0001
0000
0001
1000
0001
0000
0000
0000
,
1000
0000
0010
0100
,
0001
0000
0001
0100
,
0001
0000
1000
0100
1000
0000
0001
0010
,
0001
0000
0001
1000
0010
0000
0000
0000
,
0100
0001
0100
0001
0100
0001
0100
0001
,
1000
1000
0100
0000
,
1000
0000
0001
0000
0010
0001
1000
0001
,
0100
0000
0100
0000
0100
0000
0010
1000
,
0010
0000
0100
0001
0100
0000
0001
0010
,
0001
0000
0010
0100
0010
0000
0100
1000
,
0100
0000
1000
0001
1000
0000
0001
0100
,
0001
0000
0010
0001
0010
0000
0100
1000
,
0100
0000
1000
0000
0001
0000
0100
0010
,
0100
0000
0010
1000
0010
0000
0100
0001
,
0100
0000
0001
0000
1000
0000
0100
1000
,
0100
0000
1000
0000
0001
0000
0010
0001
,
0010
0000
0001
0100
0010
0000
1000
0000
,
0001
0000
0110
0000
;

//---------------dance-single - Renard----------------
#NOTES:
     dance-single:
     Renard:
     Easy:
     3:
     0.307,0.291,0.011,0.182,0.000: // measure 1
0000
0000
0000
0000
,  // measure 2
0000
0000
0000
0000
,  // measure 3
0000
0000
0000
0000
,  // measure 4
0000
0000
0000
0000
,  // measure 5
1000
0000
1000
0001
,  // measure 6
0100
0000
0100
0001
,  // measure 7
0010
0000
0010
0001
,  // measure 8
1000
1000
0100
0100
,  // measure 9
0010
0010
0010
0000
,  // measure 10
0001
0100
0010
1000
,  // measure 11
0001
0001
1000
0000
,  // measure 12
0001
0010
0100
1000
,  // measure 13
0001
0001
0001
0000
,  // measure 14
1000
0001
0100
0001
,  // measure 15
1000
0100
1000
0000
,  // measure 16
0002
0000
0023
0000
,  // measure 17
0130
0000
1000
0100
,  // measure 18
0010
0010
0001
0001
,  // measure 19
1000
0001
1000
0000
,  // measure 20
0010
0100
0001
1000
,  // measure 21
0100
0100
0100
0000
,  // measure 22
1000
0000
0001
0010
,  // measure 23
0200
0000
2300
0000
,  // measure 24
3002
0000
0203
0000
,  // measure 25
0300
0010
1000
0010
,  // measure 26
0100
0001
0100
0010
,  // measure 27
1000
0010
0100
0001
,  // measure 28
1000
1000
0001
0000
,  // measure 29
0000
0010
0001
0010
,  // measure 30
0100
1000
0100
0010
,  // measure 31
0001
0010
0100
1000
,  // measure 32
0100
1000
0100
1000
,  // measure 33
0001
0000
1000
0100
,  // measure 34
1000
0000
0001
0010
,  // measure 35
0001
0000
1000
0010
,  // measure 36
1000
0000
0001
0100
,  // measure 37
0001
0001
0002
0000
,  // measure 38
1003
0100
0010
0001
,  // measure 39
1000
1000
2000
0000
,  // measure 40
3001
0010
0100
1000
,  // measure 41
0001
0001
0002
0000
,  // measure 42
1003
0100
0010
0001
,  // measure 43
1000
1000
2000
0000
,  // measure 44
3002
0000
0023
0000
,  // measure 45
0130
1000
0100
0000
,  // measure 46
0010
0001
0010
0001
,  // measure 47
0100
0001
0100
0000
,  // measure 48
0010
1000
0010
1000
,  // measure 49
0001
0100
0001
0000
,  // measure 50
1000
0100
0010
0001
,  // measure 51
0010
0010
0020
0000
,  // measure 52
0230
0000
2300
0000
,  // measure 53
3001
0100
0001
0000
,  // measure 54
1000
0100
1000
0000
,  // measure 55
0001
0010
0001
0000
,  // measure 56
1000
0010
0100
0001
,  // measure 57
1000
0100
1000
0000
,  // measure 58
0001
0010
0001
0100
,  // measure 59
0010
1000
0010
0000
,  // measure 60
2000
0000
3002
0000
,  // measure 61
0013
0000
1001
0000
;
