#TITLE:Tension;
#SUBTITLE:;
#ARTIST:Kettu;
#TITLETRANSLIT:;
#SUBTITLETRANSLIT:;
#ARTISTTRANSLIT:;
#CREDIT:;
#BANNER:tension.png;
#BACKGROUND:tension-bg.png;
#LYRICSPATH:;
#CDTITLE:;
#MUSIC:tension.ogg;
#OFFSET:0.000;
#SAMPLESTART:5.794;
#SAMPLELENGTH:12.000;
#SELECTABLE:YES;
#BPMS:0.000=165.000;
#STOPS:;
#BGCHANGES:;

//---------------dance-single - Renard----------------
#NOTES:
     dance-single:
     Renard:
     Challenge:
     11:
     0.978,0.917,0.835,0.059,0.712:
0000
0000
0000
0000
,
0000
0000
0000
0000
,
0000
0000
0000
0000
,
0000
0000
0000
0000
,
1000
0100
0011
0100
1000
0010
0101
0010
,
1000
0100
0011
0100
1000
0010
1001
0000
,
0001
0010
1100
0010
0001
0100
1010
0100
,
0001
0010
1100
0010
0001
0100
1001
0000
,
0001
0010
1100
0010
0001
0100
1010
0100
,
0001
0010
1100
0010
0001
0100
1001
0000
,
1000
0100
0011
0100
1000
0010
0101
0010
,
1000
0100
0011
0100
1000
0010
1001
0000
,
0001
0100
0010
0000
0101
0000
0001
0100
0010
0000
0101
0000
0101
0000
0000
0000
,
1000
0100
0010
0000
1100
0000
1000
0100
0010
0000
1100
0000
1100
0000
0000
0000
,
1000
0010
0100
0000
1010
0000
1000
0010
0100
0000
1010
0000
1010
0000
0000
0000
,
0001
0010
0100
0000
0011
0000
0001
0010
0100
0000
0011
0000
0011
0000
0000
0000
,
0010
0001
1000
0000
0011
0000
0010
0001
1000
0000
0011
0000
0011
0000
0000
0000
,
0100
0001
1000
0000
0101
0000
0100
0001
1000
0000
0101
0000
0101
0000
0000
0000
,
0100
1000
0001
0000
1100
0000
0100
1000
0001
0000
1100
0000
1100
0000
0000
0000
,
0010
1000
0001
0000
1010
0000
0010
1000
0001
0000
1010
0000
1010
0000
0000
0000
,
0001
0000
0001
0100
0000
0100
0010
0100
0000
0010
1000
0010
0100
0001
0100
0000
,
0001
0000
0001
1000
0000
1000
0100
1000
0000
0001
0100
0001
1000
0001
1000
0000
,
1000
0000
1000
0010
0000
0010
0100
0010
0000
0100
0001
0100
0010
1000
0010
0000
,
1000
0000
1000
0001
0000
0001
0010
0001
0000
1000
0010
1000
0001
1000
0001
0000
,
1000
0000
0010
0100
0000
0001
0100
0001
0000
1000
0100
0010
0001
1000
0001
0000
,
1000
0000
1000
0001
0000
0001
0100
0010
0000
1000
0010
0100
0001
1000
0001
0000
,
1000
0000
0100
1000
0000
0001
0010
0100
0000
1000
0001
0010
0100
1000
0001
0000
,
1000
0000
0001
0100
0000
0010
1000
0001
0000
1000
0100
0010
0001
1000
0001
0000
,
1000
0000
0001
1000
0000
0001
1000
0001
0000
0001
0100
0000
1001
0000
0000
0000
,
1000
0000
0001
1000
0000
0100
1000
0000
0001
0000
0100
0000
1001
0000
0000
0000
,
0001
0000
1000
0001
0000
1000
0001
1000
0000
1000
0010
0000
1001
0000
0000
0000
,
0001
0000
1000
0001
0000
0010
0001
0000
1000
0000
0010
0000
1001
0000
0000
0000
,
0001
0100
0001
0000
0101
0000
1000
0000
0010
0000
1000
0000
0101
0000
0000
0000
,
1000
0100
1000
0000
0011
0000
1000
0000
0010
0000
1000
0000
0011
0000
0000
0000
,
1000
0001
1000
0000
0101
0000
1000
0000
0001
0000
0001
0000
1100
0000
0000
0000
,
0001
1000
0001
0000
1010
0000
0001
0000
1000
0000
0001
0000
1100
0000
0000
0000
,
0002
0000
0200
0003
2000
0300
0020
0000
0000
0000
3000
0000
,
0031
0010
0100
1000
1100
0100
0110
0010
,
0011
0000
0000
0000
0001
0000
0100
0000
0010
0000
1000
0010
1000
0000
0001
0000
,
0100
0000
0001
0000
0010
0000
0100
0000
1000
0000
0001
0010
0001
0000
0010
0100
,
0010
0000
0100
1000
0100
0000
1000
0010
1000
0000
0010
0100
0010
0000
0100
0001
,
0100
0001
0100
0010
1010
1000
1100
0100
,
0110
0000
0000
0000
0010
0000
0001
0000
0010
0000
0100
0010
0100
0000
1000
0000
,
0010
0000
0100
0000
0001
0000
0100
0000
0010
0000
1000
0010
1000
0000
0001
0100
,
0001
0000
0010
0001
0010
0000
0100
0010
0100
0000
1000
0000
0100
0000
1000
0000
,
0010
1000
0001
0100
0101
0100
0110
0010
,
1010
0000
0000
0000
0001
0000
0100
0010
1000
0000
0010
0100
0001
0000
0010
0100
,
0010
0000
0001
0010
0100
0000
1000
0000
0001
0000
1000
0000
0010
0000
1000
0000
,
0001
0000
0100
0001
0100
0000
0010
0000
1000
0000
0010
1000
0010
0000
1000
0000
,
0010
0100
0001
0100
0110
0010
1010
1000
,
1001
0000
0000
0000
1000
0000
0100
0010
0001
0000
0010
0100
1000
0000
0001
0000
,
0100
0000
0010
1000
0010
0000
0100
0001
0100
0000
0010
0000
1000
0000
0100
0000
,
0010
0000
0001
0010
0100
1000
0001
0010
0100
0000
1000
0000
1001
0000
0000
0000
,
1000
0100
0010
0000
0001
0000
1000
0100
0010
0000
0001
0000
1000
0000
0100
0000
,
0010
0001
1000
0000
0100
0000
0010
0001
1000
0000
0100
0000
0010
0000
0001
0000
,
0001
0010
0100
0000
1000
0000
0001
0010
0100
0000
1000
0000
0001
0000
0010
0000
,
0100
1000
0001
0000
0010
0000
0100
1000
0001
0000
0010
0000
0100
0000
1000
0000
,
0001
0100
0001
0000
0101
0000
0100
0010
0100
0000
0110
0000
0010
1000
0010
0000
,
1000
0100
1000
0000
1100
0000
0100
0010
0100
0000
0110
0000
0010
0001
0010
0000
,
0001
0010
0001
0000
0011
0000
0010
0100
0010
0000
0110
0000
0100
1000
0100
0000
,
1000
0001
0100
0010
1000
0000
1000
0010
0100
0001
1000
0000
0001
1000
0001
0000
,
1000
0000
0100
0000
0011
0000
1000
0100
0010
0000
0011
0000
0010
0000
0000
0000
,
0001
0000
0100
0000
1010
0000
0001
0100
0010
0000
1010
0000
0010
0000
0000
0000
,
0001
0000
0010
0000
1100
0000
0001
0010
0100
0000
1100
0000
0100
0000
0000
0000
,
1000
0000
0010
0000
0101
0000
1000
0010
0100
0000
0101
0000
0100
0000
0000
0000
,
0010
1000
0010
0000
1010
0000
0001
0100
0010
1000
0001
0000
1001
0000
0000
0000
,
1000
0100
1000
0000
1100
0000
0010
0001
0100
0010
1000
0000
1001
0000
0000
0000
,
0001
0100
0001
0000
0100
0010
0100
0000
0010
1000
0010
0000
1000
0001
1000
0000
,
0001
0000
0100
0010
1000
0000
0001
0100
0001
0000
1000
0000
2200
0000
0000
0000
,
0011
3300
0000
0000
0000
0000
0000
0000
;

//---------------dance-single - Renard----------------
#NOTES:
     dance-single:
     Renard:
     Hard:
     8:
     0.693,0.576,0.206,0.010,0.000:
0000
0000
0000
0000
,
0000
0000
0000
0000
,
0000
0000
0000
0000
,
0000
0000
0000
0000
,
1000
0100
0010
0010
0001
0100
0100
0010
,
1000
0100
0010
0001
0100
0010
0010
1000
,
0100
0010
0010
0001
0010
0100
0100
1000
,
0010
0100
0001
0010
0100
1000
1000
0001
,
0010
0100
0100
1000
0010
0100
0100
0001
,
0010
0100
0100
1000
0010
0100
0100
0001
,
0010
0100
1000
0001
0010
0001
0001
1000
,
0010
0100
0001
1000
0100
0010
0010
0100
,
1000
0010
0100
0100
0001
0010
0100
0100
,
1000
0010
0100
0100
0001
0010
0100
0100
,
1000
0010
0100
0100
0001
0010
0100
0100
,
1000
0010
0100
0001
0010
0100
1000
0100
,
0010
0001
1000
0001
0010
0100
1000
1000
,
0001
0010
0100
1000
0001
0100
0010
0010
,
1000
0100
0010
0100
1000
0001
0010
0001
,
0001
1000
0010
0100
0001
0010
0001
1000
,
0001
0100
0010
0100
1000
0100
0010
0100
,
0001
0100
0010
0100
1000
0100
0001
0100
,
0010
0100
1000
0100
0010
0100
0001
0100
,
1000
0100
0010
0100
0001
0100
0010
0000
,
0100
0001
0010
0100
0010
1000
0010
0100
,
0010
0001
0010
1000
0010
0100
0010
0001
,
0010
0100
0010
1000
0010
0001
0010
0100
,
0010
0001
0010
1000
0010
0000
0011
0000
,
0010
0100
1000
0001
0100
0000
0110
0000
,
0010
1000
0001
0100
0001
1000
1100
0000
,
1000
0001
0010
0100
1000
0000
1001
0000
,
0001
0100
0010
1000
0100
0010
0110
0000
,
0010
0001
1000
0010
0100
0000
0101
0000
,
0100
0010
1000
0100
0010
0001
0011
0000
,
0001
0010
0100
1000
0001
0000
0101
0000
,
0100
0010
1000
0100
0010
0001
1000
0001
,
0200
0000
0000
0000
,
0310
1000
0100
0010
0110
0000
0011
0000
,
0110
0000
0100
1000
0010
0100
0001
0010
,
0100
0010
0001
0100
0010
1000
0100
0000
,
0110
0000
0010
0100
1000
0010
0100
0001
,
0100
0010
1000
0000
1100
0000
0110
0000
,
1100
0000
1000
0100
0010
0001
1000
0000
,
0001
0100
0010
0000
1000
0010
0100
0000
,
0001
0100
0010
1000
0001
0100
0010
0000
,
1000
0010
1000
0010
1010
0000
0101
0000
,
0011
0000
0001
0010
0100
1000
0001
0000
,
0100
0010
1000
0001
0100
0010
1000
0100
,
0010
0001
0010
0100
1000
0001
0100
0000
,
0010
1000
0001
0100
0010
0000
0110
0000
,
1001
0000
1000
0100
0010
0000
0001
0010
,
0100
0000
1000
0001
0100
0010
1000
0000
,
0001
0000
0100
0010
1000
0000
0001
0000
,
1000
0100
0010
0001
0010
0100
0100
1000
,
0010
0100
0001
0010
0100
1000
1000
0001
,
0010
0100
1000
0010
0100
0001
0001
0010
,
0100
1000
0010
0100
0001
0010
0010
0001
,
0010
0100
0100
1000
0010
0100
0100
0001
,
0010
0100
0100
1000
0010
0100
0100
0001
,
0010
0010
0100
1000
1000
0001
0100
0010
,
1000
0100
0010
0001
0010
0100
1000
0001
,
0100
0010
0010
1000
0100
0100
0010
0001
,
0001
0010
0100
0100
1000
0010
0100
0100
,
0001
0010
0010
0100
1000
1000
0010
0100
,
0100
0001
0010
0100
1000
0001
0100
0010
,
1000
0010
0100
0001
0010
0010
0100
1000
,
1000
0010
0100
0100
0001
0010
0010
0100
,
1000
1000
0001
0100
0100
0010
1000
0100
,
0010
0010
0001
0010
0010
0100
0010
0000
,
1001
0000
0000
0000
;

//---------------dance-single - Renard----------------
#NOTES:
     dance-single:
     Renard:
     Medium:
     6:
     0.425,0.407,0.118,0.000,0.000:
0000
0000
0000
0000
,
0000
0000
0000
0000
,
0000
0000
0000
0000
,
0000
0000
0000
0000
,
1000
0000
0100
0000
0010
0000
0001
0010
,
0001
0000
0010
0000
0100
0000
1000
0100
,
1000
0000
0100
0000
0010
0000
0001
0010
,
0001
0000
0010
0000
0100
0000
1000
0100
,
1000
0000
0010
0000
0100
0000
0001
0100
,
0001
0000
0100
0000
0010
0000
1000
0010
,
1000
0000
0010
0000
0100
0000
0001
0100
,
0001
0000
0100
0000
0010
0000
1000
0100
,
1000
0000
0100
0000
0010
0000
0001
0010
,
0001
0000
0010
0000
0100
0000
1000
0100
,
1000
0000
0100
0000
0010
0000
0001
0010
,
0001
0000
0010
0000
0100
0000
1000
0010
,
1000
0000
0010
0000
0100
0000
0001
0100
,
0001
0000
0100
0000
0010
0000
1000
0010
,
1000
0000
0010
0000
0100
0000
0001
0100
,
0001
0100
0010
1000
,
0010
1000
0010
0100
,
0001
0000
1000
0000
0100
0000
1000
0001
,
1000
0001
0010
0100
,
1000
0000
0001
0000
0100
0000
0010
1000
,
0010
0100
0001
0010
,
0100
0000
1000
0000
0001
0000
0010
0001
,
0010
0000
0100
0010
0100
0000
1000
0100
,
1000
0001
0100
0010
,
1000
0010
1000
0000
0001
0000
0100
0000
,
0001
0010
0001
0000
0110
0000
0000
0000
,
1000
0010
1000
0000
0010
0000
0100
0000
,
0001
0010
0001
0000
1001
0000
0000
0000
,
1000
0100
1000
0000
0001
0000
0010
0000
,
0001
1000
0001
0000
0100
0000
0010
0000
,
1000
0010
1000
0000
0001
0000
0100
0000
,
0001
1000
0001
0000
1000
0000
0100
0010
,
0001
0000
0000
0000
,
0010
0000
0110
0110
,
0110
0000
0010
0100
,
1000
0001
0100
0010
,
1000
0001
0100
0000
,
1000
0000
1010
1010
,
0101
0000
0001
1000
,
0100
0000
0100
0010
,
0001
0010
0100
1000
,
0001
0000
0110
0110
,
0110
0000
0010
1000
,
0001
0000
1000
0100
,
0010
0000
0001
0010
,
0100
0000
0000
1000
0001
0000
0001
0000
,
1000
0000
0000
1000
0001
0000
1000
0000
,
0010
0000
0000
0100
0010
0000
1000
0000
,
0001
0100
0010
0110
,
0010
1000
0010
1000
,
0001
0000
0100
0000
0001
1000
0001
1000
,
0100
1000
0100
1000
,
0001
0000
0010
0000
0001
1000
0001
1000
,
0001
0010
0100
1000
,
0001
0000
0100
0000
0010
0100
0010
0100
,
0010
1000
0001
0100
,
0010
0000
1000
0000
0001
0100
0001
0100
,
0001
0000
1000
0000
0100
0000
0010
0001
,
0010
0000
0100
0000
1000
0000
0001
0100
,
0001
0000
0100
0000
0010
0000
1000
0010
,
1000
0000
0001
0000
0100
0000
0010
1000
,
0010
0000
0100
0000
0001
0000
1000
0100
,
1000
0000
0001
0000
0010
0000
0100
1000
,
0100
0000
0010
0000
0001
0000
1000
0010
,
1000
0000
0001
0000
0100
0000
0010
1000
,
0001
0000
0000
0000
;

//---------------dance-single - Renard----------------
#NOTES:
     dance-single:
     Renard:
     Easy:
     3:
     0.341,0.305,0.000,0.000,0.000: // measure 1
0000
0000
0000
0000
,  // measure 2
0000
0000
0000
0000
,  // measure 3
0000
0000
0000
0000
,  // measure 4
0000
0000
0000
0000
,  // measure 5
1000
0100
0010
0001
,  // measure 6
0001
0010
0100
1000
,  // measure 7
0100
0100
0010
0001
,  // measure 8
0001
0010
0100
1000
,  // measure 9
0100
0010
0100
0001
,  // measure 10
0001
0100
0010
1000
,  // measure 11
0010
0010
0100
0001
,  // measure 12
0001
0100
0010
1000
,  // measure 13
0100
0100
0010
0001
,  // measure 14
0001
0010
0100
1000
,  // measure 15
0100
0100
0010
0001
,  // measure 16
0001
0010
0100
1000
,  // measure 17
0010
0010
0100
0001
,  // measure 18
0001
0100
0010
1000
,  // measure 19
0010
0010
0100
0001
,  // measure 20
0001
0100
0010
1000
,  // measure 21
0010
1000
0010
0100
,  // measure 22
0001
1000
0100
1000
,  // measure 23
0001
0001
0010
0100
,  // measure 24
1000
0001
0100
0010
,  // measure 25
0010
0100
0001
0010
,  // measure 26
0100
1000
0001
0010
,  // measure 27
0001
0100
0010
1000
,  // measure 28
0100
0001
0100
0010
,  // measure 29
1000
0010
0001
0100
,  // measure 30
0001
0001
0010
0000
,  // measure 31
1000
0010
0010
0100
,  // measure 32
0001
0001
0001
0000
,  // measure 33
1000
0100
0001
0010
,  // measure 34
0001
0001
0100
0010
,  // measure 35
1000
0010
0001
0100
,  // measure 36
0001
0001
1000
0100
,  // measure 37
0001
0000
0000
0000
,  // measure 38
0010
0000
0010
0010
,  // measure 39
0010
0000
0010
0100
,  // measure 40
1000
0001
0100
0010
,  // measure 41
1000
0001
0100
0000
,  // measure 42
1000
0000
0010
0010
,  // measure 43
0001
0000
0001
1000
,  // measure 44
0100
0000
0100
0010
,  // measure 45
0001
0010
0100
1000
,  // measure 46
0001
0000
0010
0010
,  // measure 47
0010
0000
0010
1000
,  // measure 48
0001
0000
1000
0100
,  // measure 49
0010
0000
0001
0010
,  // measure 50
0100
0000
0001
0001
,  // measure 51
1000
0000
0001
1000
,  // measure 52
0010
0000
0010
1000
,  // measure 53
0001
0100
0010
0010
,  // measure 54
0010
1000
0010
1000
,  // measure 55
0001
0100
0001
0001
,  // measure 56
0100
1000
0100
1000
,  // measure 57
0001
0010
0001
0001
,  // measure 58
0001
0010
0100
1000
,  // measure 59
0001
0100
0010
0010
,  // measure 60
0010
1000
0001
0100
,  // measure 61
0010
1000
0001
0001
,  // measure 62
0001
1000
0100
0010
,  // measure 63
0001
0100
1000
0001
,  // measure 64
0001
0100
0010
1000
,  // measure 65
0010
0001
0100
0010
,  // measure 66
0010
0100
0001
1000
,  // measure 67
0100
0001
0010
0100
,  // measure 68
0100
0010
0001
1000
,  // measure 69
0010
0001
0100
0010
,  // measure 70
0001
0000
0000
0000
;
