#TITLE:Taking Drugs?;
#SUBTITLE:;
#ARTIST:Scott Brown;
#TITLETRANSLIT:;
#SUBTITLETRANSLIT:;
#ARTISTTRANSLIT:;
#CREDIT:;
#BANNER:drugs.png;
#BACKGROUND:drugs-bg.png;
#LYRICSPATH:;
#CDTITLE:;
#MUSIC:drugs.ogg;
#OFFSET:0.000;
#SAMPLESTART:43.761;
#SAMPLELENGTH:11.000;
#SELECTABLE:YES;
#BPMS:0.000=175.500;
#STOPS:;
#BGCHANGES:;
#GENRE:Trancecore;

//---------------dance-single - Renard----------------
#NOTES:
     dance-single:
     Renard:
     Hard:
     9:
     0.721,0.675,0.497,0.040,0.164:
0000
0000
0000
0000
,
0000
0000
0000
0000
,
0000
0000
0000
0000
0000
0000
0000
0001
,
1000
0000
0010
0100
0001
0000
0000
0000
,
1100
0000
0000
0000
0010
0000
0001
1000
0001
0000
0000
0000
1000
0000
0000
0000
,
0000
0000
0010
0000
0100
0000
0001
0100
0001
0000
0000
0000
1000
0000
0000
0000
,
1100
0000
0000
0000
0000
0000
0001
0010
0001
0000
0000
0000
1000
0000
0010
0000
,
0100
0000
0001
0001
0100
0000
0000
0000
,
0010
0000
1000
0000
0100
0000
0010
0000
0001
0010
0001
0000
0010
0000
0100
0000
,
1000
0010
0100
0001
1000
0000
1001
0000
,
1000
0000
0100
0000
0010
0000
0001
0000
1000
0000
0001
1000
0001
0000
1000
0000
,
0010
0100
0001
1000
0001
0000
1001
0000
,
1000
0000
0001
0000
0010
0000
0100
0000
1000
0000
0001
1000
0001
0000
1000
0000
,
0010
0100
0001
1000
0001
0000
1001
0000
,
1000
0000
0010
0000
0100
0000
0001
0000
1000
0000
0001
1000
0001
0000
0000
0000
,
2200
0000
0000
3300
,
0011
0000
0101
0000
0110
0000
0001
0100
,
0000
0000
0100
0000
0010
0000
1000
0000
0100
0000
1000
0100
1000
0000
0010
0000
,
0100
0001
1000
0000
1001
0000
1100
0000
,
0010
0000
0000
0000
0001
0000
0100
0000
0000
0000
0100
0000
0001
0000
1000
0001
,
1000
0010
0100
0000
0101
0000
0010
1000
,
0000
0000
1000
0000
0100
0000
0000
0000
0100
0000
0010
0000
0001
0000
0010
0001
,
0010
0001
0010
0000
0100
1000
0010
0100
,
0000
0101
0000
0010
1000
0100
0010
0000
,
1001
0000
0010
1000
0001
0100
0010
1000
,
0001
0000
1000
0001
1000
0000
0001
0000
1000
0000
0001
1000
0001
0000
0000
0000
,
1001
0000
1000
0010
0100
0001
0010
0000
,
0001
0000
1000
0001
1000
0000
0001
0000
1000
0000
0001
1000
0001
0000
1000
0000
,
0110
0000
0000
0000
0001
0000
1000
0000
0010
0000
0100
0010
0100
0000
0000
0000
,
1001
0000
0000
0000
0010
0000
0100
0000
0010
0000
0100
0010
0100
0000
0000
0000
,
1001
0000
0000
0000
0100
0010
0100
0000
1001
0000
0000
0000
0010
0100
0010
0000
,
1001
0000
0000
0000
0000
0000
0000
0000
0000
0000
0000
0000
0000
0000
0000
1000
,
0001
0000
1000
0100
0000
0100
0010
0001
,
1000
0010
1001
0000
1010
0000
1001
0000
,
0001
0100
0010
1000
0100
0010
0001
0010
,
0100
0010
1001
0000
0110
0000
1001
0000
,
0010
1000
0001
0010
0100
1000
0010
0100
,
0001
1000
1001
0000
0110
0000
1001
0000
,
1000
0100
0010
0001
1000
0010
0100
0001
,
1000
0001
0110
0000
1001
0000
0110
0000
,
0001
0010
0100
1000
0010
0100
0001
1000
,
0100
0010
0110
0000
1001
0000
0110
0000
,
0001
0100
0010
1000
0100
0010
0001
1000
,
0010
0100
1001
0000
1010
0000
0101
0000
,
0001
0100
0010
1000
0100
0010
0001
1000
,
0001
0100
0101
0000
1010
0000
0101
0000
,
1000
0100
0010
0001
1000
0010
0100
0001
,
0200
0000
0001
0001
0010
0000
1000
0000
,
0310
0000
0100
0001
0100
1000
0000
1100
,
0000
0100
0001
0010
1000
0010
0000
1010
,
0000
0010
0001
0100
0001
0100
1000
0100
,
0000
1000
0100
0000
1000
0100
0000
0100
,
0001
0010
0001
0000
0011
0000
0001
0010
,
0000
0010
1000
0000
1000
0100
0000
0100
,
0002
0000
0000
0000
0000
0000
0000
0103
,
0100
0000
0010
1000
0001
0000
0000
0000
,
1000
0000
0010
0000
0100
0001
0000
0001
0100
0000
0010
0000
1000
0000
0100
0000
,
0010
0001
1000
0001
0100
0000
1001
0000
,
1000
0000
0100
0000
0010
0001
0000
0001
0010
0000
0100
0000
1000
0000
0010
0000
,
0100
0001
1000
0000
1001
0000
1010
0000
,
0001
0000
0100
0000
0010
1000
0000
1000
0100
0000
0010
0000
0001
0000
1000
0000
,
0010
0100
0001
0000
0101
0000
0110
0000
,
0010
0000
1000
0000
0100
0010
0000
0010
0001
0000
1000
0000
0010
0000
0100
0000
,
0001
0000
0000
0000
0100
0000
0010
0000
1000
0000
0100
1000
0001
0000
1000
0000
,
0010
0100
0001
1000
0100
0010
0001
1000
,
0001
0000
0100
0000
0001
0000
1000
0000
0100
0000
1000
0001
1000
0000
0000
0000
,
0001
0100
0010
1000
0100
0010
0001
1000
,
0010
0000
0100
0000
0001
0000
1000
0001
1000
0000
0001
1000
0001
0000
1000
0000
,
0010
0100
0001
0010
0001
1000
0100
1000
,
0001
0000
0010
0000
0001
0000
1000
0000
0010
0000
1000
0001
1000
0000
0001
0000
,
1000
0000
0001
1000
0001
0000
1000
0000
0010
0000
0100
0000
0001
0000
1000
0000
,
0100
0000
0100
0010
1001
0000
0000
0000
;

//---------------dance-single - Renard----------------
#NOTES:
     dance-single:
     Renard:
     Medium:
     6:
     0.383,0.462,0.169,0.030,0.000:
0000
0000
0000
0000
,
0000
0000
0000
0000
,
0000
0000
0000
0000
0000
0000
0000
1000
,
0001
0100
0010
0000
,
1000
0000
0010
0000
0100
0000
0000
0001
,
1000
0001
0100
0000
,
0001
0000
1000
0000
0100
0000
0000
0010
,
0001
1000
1001
0000
,
1000
1000
0001
0001
,
0001
0001
0001
0001
,
0100
0100
0010
0010
,
0010
0010
0010
0010
,
1000
1000
0100
0100
,
0100
0100
0100
0100
,
0010
0010
0002
0000
,
0200
0000
1313
0000
,
0001
0000
0100
0000
0001
0000
1000
0100
,
0000
1000
0001
0000
,
0100
0000
0001
0000
1000
0000
0001
0010
,
0000
0001
1000
0000
,
0001
0000
0100
0000
0010
0000
1000
0001
,
0000
1000
0010
0000
,
0100
0000
0001
0000
1000
0000
0100
0010
,
0000
0001
1000
0000
,
1001
0000
0010
0100
,
0001
1000
0100
0000
,
1001
0000
0001
0100
,
0010
1000
0100
0000
,
1001
0000
0100
0010
,
1001
0000
0010
0100
,
1001
0010
0101
0010
,
1001
0000
0000
0000
,
1000
0000
1000
0100
0000
0100
0010
0000
,
0001
0100
0001
0000
,
1000
0000
1000
0001
0000
0001
0100
0000
,
0010
1000
0100
0000
,
0010
0000
0010
0001
0000
0001
0100
0000
,
0010
1000
0100
0000
,
0010
0000
0010
0001
0000
0001
1000
0000
,
0001
0100
0001
0000
,
1000
0000
1000
0001
0000
0001
0000
0100
,
0000
0100
0010
0000
1000
0000
0000
0000
,
0100
0000
0100
0010
0000
0001
0000
1000
,
0000
0010
0100
0000
0001
0000
0000
0000
,
1000
0000
0001
0100
0000
0001
0000
1000
,
0000
0100
0010
0000
0001
0000
0000
0000
,
1000
0000
0010
0100
0000
0001
0000
1000
,
0000
0001
0100
0000
0010
0000
0000
0000
,
1000
0000
1000
0000
0010
0000
0000
0010
,
0000
0000
0010
0000
0000
0010
0000
0000
,
0100
0000
0100
0000
0001
0000
0000
0001
,
0000
0000
0001
0000
0000
0001
0000
0000
,
0010
0000
0010
0000
0100
0000
0000
0100
,
0000
0000
0100
0000
0000
0100
0000
0000
,
2000
0000
0000
0000
,
0001
0000
0010
0010
3010
0000
0000
0000
,
1000
0000
1000
0000
1000
0000
1000
0010
,
0100
0000
0100
0000
0100
0000
0100
0001
,
0010
0000
0010
0000
0010
0100
0010
0000
,
0001
0001
0001
0000
,
1000
0000
1000
0000
1000
0000
1000
0001
,
0100
0000
0100
0000
0100
0000
0100
0001
,
0010
0000
0010
0000
0010
0100
0010
0000
,
0001
0001
1000
0000
,
1001
0000
0000
0000
1010
0000
0001
0100
,
0010
0010
1000
0000
,
0011
0000
0000
0000
1100
0000
0001
1000
,
0100
0000
0100
1000
0010
0000
0010
0000
,
0101
0000
0000
0000
1010
0000
0000
0001
,
0100
0001
1000
0000
,
0011
0000
0000
0000
1100
0000
0000
1000
,
0001
0000
0100
0010
0100
0000
0000
0000
;

//---------------dance-single - Renard----------------
#NOTES:
     dance-single:
     Renard:
     Easy:
     2:
     0.267,0.284,0.010,0.010,0.000:
0000
0000
0000
0000
,
0000
0000
0000
0000
,
0000
0000
0000
0000
,
1000
0001
0100
0000
,
0010
0000
0000
0000
,
1000
0000
0000
0000
,
0001
0000
0100
0000
,
0001
1000
0100
0000
,
0010
0001
0010
0000
,
0001
0000
0010
0000
,
0100
1000
0100
0000
,
1000
0000
0100
0000
,
1000
0010
1000
0000
,
0010
0000
1000
0000
,
0001
0100
0001
0000
,
1000
0001
1000
0000
,
0001
0000
0000
0000
0100
0000
0000
0010
,
0000
0000
1000
0000
0000
0010
0000
0000
,
0100
0000
0000
0000
0001
0000
0000
1000
,
0000
0000
0100
0000
0000
0010
0000
0000
,
0001
0000
0000
0000
1000
0000
0000
0001
,
0000
0000
0100
0000
0000
0010
0000
0000
,
1000
0000
0000
0000
0001
0000
0000
0100
,
0000
0000
0001
0000
0000
1000
0000
0000
,
0100
0000
0100
0000
,
0010
0010
0010
0000
,
0001
0000
0001
0000
,
0100
0100
0100
0000
,
0010
0000
1000
1000
,
0100
0000
0010
0010
,
0001
0100
0010
1000
,
1001
0000
0000
0000
,
1000
0000
0000
0001
0000
0100
0000
0010
,
0000
1000
0100
0000
,
0010
0000
0000
0001
0000
1000
0000
0001
,
0000
0000
0100
0000
,
0010
0000
0000
1000
0000
0100
0000
0010
,
0000
0001
1000
0000
,
0001
0000
0000
0100
0000
0010
0000
1000
,
0000
0000
0001
0000
,
0100
0000
0000
0010
0000
1000
0000
0001
,
0000
0000
0100
0000
,
0010
0000
0000
1000
0000
0100
0000
0010
,
0000
0001
1000
0000
,
0001
0000
0000
0010
0000
0100
0000
1000
,
0000
0000
0010
0000
,
0100
0000
0000
0001
0000
1000
0000
0100
,
0000
0010
0001
0000
,
1000
0000
0000
0000
1000
0000
0000
0001
,
0000
0000
0001
0000
0000
0001
0000
0000
,
0001
0000
0000
0000
0001
0000
0000
1000
,
0000
0000
1000
0000
0000
1000
0000
0000
,
0010
0000
0000
0000
0010
0000
0000
0100
,
0000
0000
0100
0000
0000
0100
0000
0000
,
0200
0000
0000
0000
,
0010
0010
0310
0000
,
0010
0010
0010
0000
,
0100
0000
0100
0000
,
0001
0001
1000
0100
,
0010
0001
1000
0000
,
0001
0001
0001
0000
,
1000
1000
1000
0000
,
0001
0010
0100
1000
,
0001
1000
0001
0000
,
1000
0000
1000
0001
,
0100
0000
0100
0001
,
1000
0000
1000
0001
,
0010
0001
1000
0010
,
0100
0000
0100
0001
,
1000
0000
1000
0100
,
0010
0001
0010
0100
,
1000
0001
0100
0000
;

//---------------dance-single - Renard----------------
#NOTES:
     dance-single:
     Renard:
     Challenge:
     12:
     0.928,0.994,0.109,0.020,0.849: // measure 1
0000
0000
0000
0000
,  // measure 2
0000
0000
0000
0000
,  // measure 3
0000
0000
0000
0000
0000
0000
0000
0000
0000
0000
0000
0000
0000
0000
0001
0100
,  // measure 4
0001
0000
0000
0000
1000
0000
0100
0000
0010
0000
0000
0010
0001
0000
1000
0000
,  // measure 5
0010
0000
0000
0000
0000
0000
0010
0100
0001
0000
0100
0000
0001
0000
1000
0000
,  // measure 6
0100
1000
0100
1000
0100
0000
1000
0000
0001
0000
0000
0000
0100
0000
0000
0000
,  // measure 7
0001
0000
1000
0001
1000
0000
0010
0000
1000
0000
0000
0000
0000
0000
0001
0100
,  // measure 8
0010
0000
0100
0001
0100
0000
0000
0000
,  // measure 9
0001
0000
0100
0000
0010
0000
1000
0000
0100
0000
0010
0000
0001
0010
0100
1000
,  // measure 10
0010
0000
0100
0000
0001
0000
1000
0000
0100
0000
0010
0000
0001
0010
0100
1000
,  // measure 11
0001
0000
0100
0000
0010
0000
1000
0000
0001
0000
0010
0000
0100
1000
0001
0010
,  // measure 12
0100
0000
0010
0000
0001
0000
1000
0000
0010
0000
0100
0000
0001
0100
0010
0100
,  // measure 13
0001
0000
0100
0000
0010
0000
1000
0000
0100
0000
0010
0000
0001
0010
0100
1000
,  // measure 14
0001
0000
0100
0000
0010
0000
1000
0000
0001
0000
1000
0000
0100
0010
0001
0010
,  // measure 15
0100
0000
1000
0000
0010
0000
0100
0000
0001
0000
1000
0000
0010
0100
0001
0100
,  // measure 16
0010
0000
0000
0000
,  // measure 17
0010
1000
0001
0100
0010
0000
1000
0000
0100
0000
0010
0000
0001
0000
0010
0000
,  // measure 18
0000
0010
0100
0100
1000
0010
0000
0010
,  // measure 19
0100
0001
0100
0010
1000
0000
0001
0000
0100
0000
0010
0000
1000
0000
0001
0000
,  // measure 20
0000
0001
0100
0001
1000
0100
0000
0100
,  // measure 21
0010
0001
0010
0100
1000
0000
0001
0000
0010
0000
0100
0000
1000
0000
0010
0000
,  // measure 22
0000
0010
1000
0001
0100
0010
1000
0001
,  // measure 23
0100
0001
0100
0000
0010
0000
1000
0000
0001
0000
0100
0000
0010
0000
1000
0000
,  // measure 24
0001
1000
0001
0000
1000
0000
0100
0000
1000
0001
1000
0000
0001
0000
1000
0000
,  // measure 25
0010
0000
0000
0010
1000
0000
0001
0000
0100
0000
0000
0100
0010
0000
1000
0000
,  // measure 26
0100
0000
0000
0100
0010
0000
0001
0000
0010
0000
0000
0010
0100
0000
1000
0000
,  // measure 27
0010
0000
0000
0010
0100
0000
0001
0000
0100
0000
0000
0100
0010
0000
1000
0000
,  // measure 28
0100
0000
0000
0100
0010
0000
0001
0000
0010
0000
0000
0010
0100
0000
1000
0000
,  // measure 29
0010
0000
0000
0010
0100
0000
0000
0100
0001
0000
0000
0001
1000
0000
0100
0000
,  // measure 30
0010
0000
0000
0010
0001
0000
0000
0001
0010
0000
0000
0010
0100
0000
1000
0000
,  // measure 31
0010
0000
0010
0100
0001
0000
0100
0010
1000
0000
0001
0100
0010
0000
1000
0000
,  // measure 32
2002
0000
0000
3003
,  // measure 33
1000
0000
0010
0100
0001
0000
0010
0000
0100
1000
0100
0000
0100
1000
0001
0010
,  // measure 34
0100
0000
1000
0000
0001
0010
0100
1000
0001
0000
0010
0000
0001
0000
1000
0010
,  // measure 35
0100
0000
0001
0000
1000
0000
0010
0000
0100
0000
0001
0000
1000
0010
0100
0001
,  // measure 36
1000
0000
0010
0000
0100
0001
1000
0010
0100
0000
0001
0000
1000
0000
0010
0100
,  // measure 37
0001
0000
1000
0000
0100
0000
0010
0000
0001
0000
1000
0000
0001
0010
0100
1000
,  // measure 38
0001
0000
0010
0000
0100
1000
0001
0010
0100
0000
1000
0000
0001
0000
0100
0010
,  // measure 39
1000
0000
0001
0000
0100
0000
0010
0000
1000
0000
0001
0000
1000
0100
1000
0100
,  // measure 40
1000
0000
0001
0000
0010
0001
0010
0001
0010
0000
0001
0000
1000
0000
0010
1000
,  // measure 41
0001
0000
1000
0010
1000
0000
0001
1000
0100
0000
1000
0001
0000
1000
0100
1000
,  // measure 42
0001
0000
1000
0010
1000
0001
1000
0100
1000
0000
0010
0000
1000
0000
0001
0100
,  // measure 43
0010
0000
1000
0001
1000
0000
0100
1000
0001
0000
0010
0100
1000
0000
0001
0100
,  // measure 44
0010
0000
1000
0001
1000
0100
1000
0001
1000
0000
0010
0000
1000
0000
0001
0100
,  // measure 45
0010
0000
1000
0001
0010
0000
0100
1000
0001
0000
0100
0010
1000
0000
0001
0100
,  // measure 46
0010
0000
1000
0001
1000
0100
1000
0010
1000
0000
0001
0000
0010
0000
0100
1000
,  // measure 47
0001
0000
1000
0001
0100
0000
0001
1000
0001
0000
0010
0001
0100
0010
1000
0100
,  // measure 48
1000
0010
0100
0001
0010
0001
1000
0001
0100
0000
0001
0000
0001
0000
0000
0000
,  // measure 49
1000
0010
0100
0001
1000
0000
0010
0000
0100
0000
0001
0000
1000
0000
1000
0000
,  // measure 50
0000
1000
0001
0000
0001
0100
0000
0100
,  // measure 51
0010
1000
0001
0100
0010
0000
1000
0000
0001
0000
0001
0000
1000
0000
1000
0000
,  // measure 52
0000
0001
0001
0000
0100
0100
0000
0100
,  // measure 53
0010
1000
0001
0010
0100
0000
1000
0000
0001
0000
0010
0000
0100
0000
1000
0000
,  // measure 54
0000
1000
0010
0000
0010
0100
0000
0100
,  // measure 55
0001
0000
0000
0000
0000
0000
0000
1000
,  // measure 56
0001
0000
0000
0001
0100
0000
0010
0000
1000
0000
0000
0000
0000
0000
0000
0000
,  // measure 57
0001
0000
0100
0010
0100
0000
0001
0100
0010
0000
0100
0001
0100
0000
0010
0100
,  // measure 58
0001
0000
0100
0010
0100
0000
0001
0100
0010
0100
0001
0100
0010
0000
0001
0000
,  // measure 59
1000
0000
0100
0010
0100
0000
1000
0100
0010
0000
0100
1000
0100
0000
0010
0100
,  // measure 60
1000
0000
0010
0100
0001
0100
0010
1000
0001
0100
0010
1000
0001
0100
0010
1000
,  // measure 61
0001
0000
1000
0100
0010
0000
0001
0010
0100
0000
1000
0010
0100
0000
0001
1000
,  // measure 62
0100
0000
0010
0001
0010
0000
0100
1000
0010
0100
0001
0010
0100
0000
1000
0000
,  // measure 63
0010
0100
0001
0100
0010
1000
0000
0000
0001
0100
0010
1000
0001
0000
0100
0000
,  // measure 64
0101
0000
0110
0000
1001
1100
1001
0000
,  // measure 65
0011
0000
0000
0001
1000
0000
0001
0000
1000
0000
0000
0010
0100
0000
0001
0000
,  // measure 66
1000
0001
0000
1000
0100
0000
0010
0000
0001
0010
0100
1000
0001
0000
1000
0000
,  // measure 67
0010
1000
0000
1000
0001
0000
0100
0000
0010
1000
0000
1000
0001
0000
0010
0000
,  // measure 68
0100
1000
0001
0100
0010
1000
0001
0100
0010
0000
1000
0000
0001
0000
0100
0000
,  // measure 69
0001
1000
0000
1000
0001
0000
1000
0000
0001
1000
0000
1000
0001
0000
1000
0000
,  // measure 70
0010
0100
0000
0100
0010
0000
0100
0000
0010
0100
0000
0100
0010
0000
0100
0000
,  // measure 71
0010
1000
0001
0100
0010
1000
0001
0100
0010
1000
0001
0100
0010
0000
1000
0001
,  // measure 72
1001
0000
1010
1001
0101
0000
0000
0000
;
