#TITLE:Taito No Suika;
#SUBTITLE:;
#ARTIST:bermei.inazawa;
#TITLETRANSLIT:;
#SUBTITLETRANSLIT:;
#ARTISTTRANSLIT:;
#CREDIT:;
#BANNER:taito.png;
#BACKGROUND:taito-bg.png;
#LYRICSPATH:;
#CDTITLE:;
#MUSIC:taito.ogg;
#OFFSET:0.000;
#SAMPLESTART:21.313;
#SAMPLELENGTH:12.000;
#SELECTABLE:YES;
#BPMS:0.000=90.000,100.000=180.000;
#STOPS:;
#BGCHANGES:;
#GENRE:Glitch;

//---------------dance-single - Renard----------------
#NOTES:
     dance-single:
     Renard:
     Challenge:
     12:
     0.628,0.705,0.115,0.438,0.657:
0000
0000
0000
0000
,
0000
0000
0000
0000
,
2000
0000
0000
0000
0200
3000
0002
0300
,
0020
0000
0000
0000
0003
0000
0000
0000
2000
0000
0000
0000
0030
0000
0000
0000
0200
0000
0000
0000
3300
0000
0000
0000
0001
0010
0001
0010
0001
0010
0001
0000
,
1000
0000
0000
0000
0100
0010
0001
0000
0000
0000
0000
0000
0000
0000
0000
0000
0000
0000
0000
0000
0000
0000
0000
0000
0000
0000
0000
0000
0000
0000
0000
0000
,
1000
0000
0000
0000
0000
0000
0000
0000
0000
0000
0000
0000
0000
0001
0001
0100
,
0010
0000
1000
0010
0000
0000
0100
0000
0000
0000
0000
0000
0000
0001
0001
1000
,
1000
0000
0000
0000
0000
0000
0000
0000
0000
0000
0100
0000
0010
0001
0010
0001
1000
0000
0000
0000
0100
0000
0010
0000
0000
0000
0001
1000
0001
0000
1000
0000
,
0001
0000
0001
0100
0010
0000
1000
0000
0100
0000
1000
0001
0010
0000
0100
0000
,
1100
1010
0101
0011
,
0110
0000
0100
1000
0010
0000
0010
0100
0001
0100
0010
0000
1010
0000
1000
0100
,
1000
0000
0001
0010
0001
0000
0010
0000
0100
0000
1000
0000
0001
0000
0100
0000
,
0010
1000
0010
1000
0001
0000
0100
0000
0010
0000
0000
0000
1000
0000
0000
0000
,
1100
0110
0011
2002
,
0010
0100
0010
3103
,
0001
0000
0000
0000
0200
0000
0000
0000
0020
0000
0000
0000
0331
0000
0100
0010
,
1000
0001
0001
0001
,
2000
0000
3001
0100
0020
0000
1030
0100
,
0020
0000
0031
0010
0200
0000
1300
0001
,
0200
0000
0310
1000
0002
0000
0013
0100
,
2000
0000
3001
0100
0010
0000
1000
0000
,
0002
0000
0203
0000
0320
2030
3200
0000
,
0320
0000
0031
1000
0002
0000
0203
0000
,
0320
0000
2030
3200
0320
0000
0032
0000
,
2003
3002
0203
0320
,
1030
0100
1000
0100
0010
0001
0010
0001
1000
0100
1000
0100
0010
0001
0010
0001
,
1000
0010
1000
0010
0100
0001
0100
0001
1000
0010
1000
0010
0100
0001
0100
0001
,
1000
0100
1000
0100
0010
0001
0010
0001
0100
0001
0100
0001
1000
0010
1000
0010
,
1000
0100
0010
0001
1000
0100
0010
0001
1000
0100
0010
0001
0010
0100
1000
0001
,
0010
0001
0010
0001
1000
0100
1000
0100
0010
0001
0010
0001
1000
0100
1000
0100
,
1000
0010
1000
0010
0100
0001
0100
0001
1000
0010
1000
0010
0100
0001
0100
0001
,
1000
0100
1000
0100
0010
0001
0010
0001
0100
0001
0100
0001
1000
0010
1000
0010
,
1000
0010
0100
0001
0100
0010
1000
0010
0100
0001
1000
0001
1000
0100
0010
0001
,
1000
0100
1000
0100
1000
0100
0010
0001
1000
0100
1000
0100
1000
0100
0010
0001
,
1000
0010
1000
0010
1000
0010
0100
0001
1000
0010
1000
0010
1000
0010
0100
0001
,
0010
0001
0010
0001
0010
0001
0010
0100
1000
0001
0010
0001
0010
0001
0010
0100
,
1000
0001
1000
0001
0100
0001
0100
0001
0100
0010
0100
0010
1000
0010
1000
0010
,
1000
2000
0010
0001
0100
3200
0010
0001
,
0302
0010
1000
0100
0203
1000
0010
2300
,
0010
0100
0001
3020
0001
0100
1000
0230
,
0001
1000
0310
0002
0010
0100
1000
0013
,
1001
0000
0000
0000
;

//---------------dance-single - Renard----------------
#NOTES:
     dance-single:
     Renard:
     Easy:
     3:
     0.167,0.192,0.000,0.125,0.000:
0000
0000
0000
0000
,
0000
0000
0000
0000
,
0000
0000
0000
0000
,
0000
0000
0000
0000
,
1000
0000
0000
0000
,
0001
0000
0000
0000
,
0100
0000
0000
0000
,
0010
0000
0000
0000
,
1000
0100
0010
0000
,
0001
0000
0010
0000
,
1000
0010
0100
0000
,
0001
0000
0100
0000
,
0010
1000
0100
0000
,
1000
0000
0001
0000
,
0010
0000
0001
0001
,
1000
0000
0010
0010
,
0100
0100
0100
0100
,
0020
0000
2030
0000
,
3020
0000
2030
0000
,
3002
0000
0203
0000
,
0302
0000
0203
0000
,
0320
0000
0000
0000
,
2030
0000
0000
0000
,
3200
0000
0000
0000
,
0320
0000
0000
0000
,
0031
0001
1000
1000
,
0001
1000
0001
1000
,
0010
0010
0100
0100
,
0010
0100
0010
0100
,
0001
0001
0100
0100
,
0001
0100
0001
0100
,
0010
0010
1000
1000
,
0010
1000
0010
1000
,
0100
0010
0001
0000
,
0100
0010
0001
0000
,
1000
0100
0010
0000
,
1000
0100
0010
0000
,
0001
0001
0001
0000
,
1000
1000
1000
0000
,
0001
0100
0010
1000
,
0100
0010
0001
1000
,
0001
0000
0000
0000
;

//---------------dance-single - Renard----------------
#NOTES:
     dance-single:
     Renard:
     Medium:
     4:
     0.345,0.363,0.021,0.042,0.016:
0000
0000
0000
0000
,
0000
0000
0000
0000
,
0000
0000
0000
0000
,
0000
0000
0000
0000
,
2000
0000
0000
0000
,
3002
0000
0000
0000
,
1003
0000
0100
0010
0000
0000
0000
0000
0000
0000
0000
0000
0000
0000
0000
0000
,
0001
0000
0000
0000
0000
0010
0100
1000
0001
0000
0000
0000
0100
0000
0010
0000
,
1000
0010
0100
0000
0001
0100
0010
0000
,
1000
0100
0010
0000
0001
0010
0100
0000
,
1000
0001
1000
0000
0001
0100
0001
0000
,
1000
0010
1000
0000
0010
0100
0010
0000
,
0100
0001
0100
0000
0001
1000
0100
0000
,
0100
1000
0001
0000
0001
1000
0010
0000
,
0010
1000
0001
0000
0010
0100
1000
0000
,
0001
0010
0100
0000
1000
0001
0100
0000
,
0100
0001
1000
0000
0010
1000
0001
0000
,
0010
0001
1000
0000
1000
0001
0100
0000
,
0010
1000
0100
0000
0010
0001
0100
0000
,
0001
1000
0001
0000
0100
0010
1000
0000
,
0001
0100
0001
0000
1000
0100
1000
0000
,
0001
0010
0001
0000
1000
0001
1000
0000
,
0001
0100
0001
0000
1000
0100
1000
0000
,
0001
0010
0100
0000
1000
0100
0010
0000
,
0001
0010
0100
0000
2002
0000
0000
3003
,
1000
0100
1000
0100
1000
0100
1000
0100
,
1000
0100
1000
0100
1000
0100
1000
0100
,
0010
0001
0010
0001
0010
0001
0010
0001
,
0010
0001
0010
0001
0010
0001
0010
0001
,
1000
0010
1000
0010
1000
0010
1000
0010
,
1000
0010
1000
0010
1000
0010
1000
0010
,
0100
0001
0100
0001
0100
0001
0100
0001
,
0100
0001
0100
0001
0100
0001
0100
0001
,
1000
0100
0010
0001
1000
0100
0010
0001
,
1000
0100
0010
0001
1000
0100
0010
0000
,
0001
0010
0100
1000
0001
0010
0100
1000
,
0001
0010
0100
1000
0001
0010
0100
0000
,
0100
0000
1000
0010
0000
0000
0100
0001
,
0000
0000
0010
0100
0000
0000
1000
0010
,
0100
0000
0001
0000
0010
0000
0100
1000
,
0001
0100
0001
0000
1000
0000
0100
0000
,
1001
0000
0000
0000
;

//---------------dance-single - Renard----------------
#NOTES:
     dance-single:
     Renard:
     Hard:
     9:
     0.473,0.513,0.115,0.354,0.156: // measure 1
0000
0000
0000
0000
,  // measure 2
0000
0000
0000
0000
,  // measure 3
0002
0000
0000
0000
0020
0003
2000
0030
,  // measure 4
0200
0000
0000
0000
3000
0000
0000
0000
0002
0000
0000
0000
0300
0000
0000
0000
0020
0000
0000
0000
0033
0000
0000
0000
1000
0100
1000
0100
1000
0100
1000
0000
,  // measure 5
0001
0000
0000
0000
0010
0100
1000
0000
0000
0000
0000
0000
0000
0000
0000
0000
0000
0000
0000
0000
0000
0000
0000
0000
0000
0000
0000
0000
0000
0000
0000
0000
,  // measure 6
0001
0000
0000
0000
0000
0000
0000
0000
0000
0000
0000
0000
0000
1000
1000
0010
,  // measure 7
0100
0000
0001
0100
0000
0000
0010
0000
0000
0000
0000
0000
0000
1000
1000
0001
,  // measure 8
0001
0000
0000
0000
0000
0000
0000
0000
0000
0000
0010
0000
0100
1000
0100
1000
0001
0000
0000
0000
0010
0000
0100
0000
0000
0000
1000
0001
1000
0000
0001
0000
,  // measure 9
1000
0000
1000
0010
0100
0000
0001
0000
0010
0000
0001
1000
0100
0000
0010
0000
,  // measure 10
0011
0101
1010
1100
,  // measure 11
0110
0000
0010
0001
0100
0000
0100
0010
1000
0010
0100
0000
0101
0000
0001
0010
,  // measure 12
0001
0000
1000
0100
1000
0000
0100
0000
0010
0000
0001
0000
1000
0000
0010
0000
,  // measure 13
0100
0001
0100
0001
1000
0000
0010
0000
0100
0000
0000
0000
0001
0000
0000
0000
,  // measure 14
0011
0110
1100
2002
,  // measure 15
0100
0010
0100
3013
,  // measure 16
1000
0000
0000
0000
0020
0000
0000
0000
0200
0000
0000
0000
1330
0000
0010
0100
,  // measure 17
0001
1000
1000
1000
,  // measure 18
0002
0000
1003
0010
0200
0000
0301
0010
,  // measure 19
0200
0000
1300
0100
0020
0000
0031
1000
,  // measure 20
0020
0000
0130
0001
2000
0000
3100
0010
,  // measure 21
0002
0000
1003
0010
0100
0000
0001
0000
,  // measure 22
2000
0000
3020
0000
0230
0302
0023
0000
,  // measure 23
0230
0000
1300
0001
2000
0000
3020
0000
,  // measure 24
0230
0000
0302
0023
0230
0000
2300
0000
,  // measure 25
3002
2003
3020
0230
,  // measure 26
0310
0100
0001
1000
0100
0010
0001
0010
,  // measure 27
1000
0010
0100
1000
0100
0001
0100
0010
,  // measure 28
0001
0010
1000
0010
0100
1000
0010
0100
,  // measure 29
0001
0100
1000
0100
0010
0001
0010
1000
,  // measure 30
0010
0100
0001
0100
0010
1000
0100
0010
,  // measure 31
0001
0010
0100
0001
0100
0010
0001
0010
,  // measure 32
1000
0010
0100
1000
0010
0100
0001
0100
,  // measure 33
0010
1000
0100
1000
0001
0010
0100
1000
,  // measure 34
0001
0010
1000
0010
0001
0010
0100
1000
,  // measure 35
0100
0001
0100
1000
0010
0001
0010
0100
,  // measure 36
1000
0100
0010
0100
0001
0100
0010
1000
,  // measure 37
0100
1000
0001
0010
0100
0001
0100
0010
,  // measure 38
0001
1000
0100
0010
1000
0010
0100
1000
,  // measure 39
0010
0100
0001
0100
0010
1000
0100
1000
,  // measure 40
0001
0010
0100
0001
0100
1000
0010
0001
,  // measure 41
0010
1000
0100
0010
1000
0010
0100
1000
,  // measure 42
1001
0000
0000
0000
;
