#TITLE:Swing Logic;
#SUBTITLE:;
#ARTIST:DJ Zardonic;
#TITLETRANSLIT:;
#SUBTITLETRANSLIT:;
#ARTISTTRANSLIT:;
#CREDIT:;
#BANNER:swing.png;
#BACKGROUND:swing-bg.png;
#LYRICSPATH:;
#CDTITLE:;
#MUSIC:swing.ogg;
#OFFSET:0.000;
#SAMPLESTART:10.607;
#SAMPLELENGTH:12.000;
#SELECTABLE:YES;
#BPMS:0.000=180.000;
#STOPS:;
#BGCHANGES:;

//---------------dance-single - Renard----------------
#NOTES:
     dance-single:
     Renard:
     Hard:
     9:
     0.775,0.665,0.375,0.000,0.063:
0000
0000
0000
0000
,
0000
0000
0000
0000
,
0000
0000
0000
0000
,
0000
0000
0000
0000
,
0001
0000
0000
0100
0000
0100
1000
0000
0000
0010
0000
0010
,
0001
0000
0000
0100
0000
0100
0001
0000
0000
0010
0000
0010
,
1000
0000
0000
0100
0000
0100
0001
0000
0000
0100
0000
1000
,
0010
0000
0000
0100
0000
0001
0100
0000
0000
0010
1000
0010
,
1000
0100
0001
0100
0010
0001
0010
1000
,
0001
0100
1000
0001
0100
1000
0001
0010
,
1000
0100
0001
1000
0010
0001
0100
1000
,
0001
0010
1000
0001
0100
0010
1000
0100
,
0001
0100
0010
0001
0010
1000
0010
0100
,
1000
0010
0001
0010
0100
1000
0100
0001
,
0100
0010
1000
0100
0001
1000
0001
0100
,
1000
0001
0100
1000
0001
1000
0100
0001
,
0100
0100
0001
0001
0010
0010
1000
1000
,
0100
0001
0100
0010
1000
0100
0001
0100
,
1000
1000
0010
0010
0001
0001
0100
0100
,
1000
0000
0100
0000
0010
0000
0001
1000
0001
0000
0000
0000
1001
0000
0000
0000
,
0010
0010
1000
1000
0100
0100
0001
0001
,
0010
1000
0010
0100
0001
0010
1000
0010
,
0001
0001
0100
0100
1000
1000
0010
0010
,
0001
0000
0010
0000
0100
0000
1000
0001
1000
0000
0000
0000
1001
0000
0000
0000
,
0101
0110
1100
1010
,
0110
0011
0101
1001
,
1001
1010
1100
0110
,
0101
0011
0110
1010
,
1010
1000
1001
0000
0101
0000
0110
0000
,
1010
1100
0101
0011
,
1000
0100
1000
0010
0100
0001
0010
0001
,
1000
0100
0001
0010
0001
0100
1000
0000
,
0100
1000
0001
0010
1000
0100
0010
0001
,
0100
1000
0001
0010
0001
0100
0010
1000
,
0100
0010
0100
1000
0010
0100
0001
0010
,
0001
1000
0100
0001
0010
0001
1000
0010
,
1000
0001
0100
1000
0001
0010
0001
1000
,
0010
1000
0001
0100
0001
0010
0001
1000
,
0001
0001
0100
0010
1000
1000
0100
0010
,
0001
0001
0010
0100
1000
1000
0010
0100
,
0001
0100
0001
0000
0110
0000
0010
1000
,
0100
0010
0100
0000
0110
0000
0100
1000
,
0010
0100
0001
0100
0110
0000
0010
1000
,
0100
0010
0100
0010
0110
0000
0100
1000
,
0001
0100
1000
0100
0001
0010
0100
1000
,
0100
0001
0100
1000
0010
0000
0110
0000
,
0001
0100
1000
0100
0001
0010
0100
1000
,
0100
0010
0001
1000
0001
0000
1001
0000
,
0001
0100
1000
0100
0001
0010
0100
1000
,
0100
0001
0100
1000
0010
0000
0110
0000
,
0010
0001
0010
0100
1000
0100
0001
0010
,
0100
1000
0100
0001
0100
0000
0110
0000
,
0100
1000
0100
1000
0100
0010
0100
0001
,
0100
1000
0100
1000
0100
0000
1001
0000
,
0001
0100
0001
0100
0001
1000
0001
0010
,
0001
0100
0001
0100
0001
0000
0110
0000
,
0010
0001
0010
0001
0010
0100
0010
1000
,
0010
0001
0010
0001
0010
0000
1001
0000
,
1000
0010
1000
0010
1000
0001
1000
0100
,
1000
0010
1000
0010
1000
0000
0110
0000
,
0010
1000
0100
1000
0001
0100
0001
0010
,
0100
1000
0010
0100
1000
0010
0100
0001
,
0010
1000
0100
0010
0001
0100
1000
0010
,
0100
0001
0010
0100
1000
0001
0010
1000
,
0100
1000
0001
0100
0001
0010
0001
1000
,
0010
0001
0100
0001
1000
0010
1000
0100
,
1000
0001
0010
1000
0100
0010
0100
1000
,
0010
0100
1000
0010
0100
0010
1000
0100
,
1000
1000
0100
0100
0001
0001
0010
0010
,
1000
0100
1000
0001
0010
1000
0100
1000
,
0010
0010
0001
0001
0100
0100
1000
1000
,
0010
0000
1000
0000
0001
0000
0100
0010
0100
0000
0000
0000
0110
0000
0000
0000
,
0001
0001
0010
0010
1000
1000
0100
0100
,
0001
0010
0001
1000
0100
0001
0010
0001
,
0100
0100
1000
1000
0010
0010
0001
0001
,
0100
0000
0001
0000
1000
0000
0010
0100
0010
0000
0000
0000
0100
0000
0001
0000
,
0010
0000
0100
1000
0001
0000
0100
0000
;

//---------------dance-single - Renard----------------
#NOTES:
     dance-single:
     Renard:
     Medium:
     6:
     0.416,0.482,0.000,0.038,0.000:
0000
0000
0000
0000
,
0000
0000
0000
0000
,
0000
0000
0000
0000
,
0000
0000
0000
0000
,
0000
0000
0000
0000
,
0000
0000
0000
0000
,
0000
0000
0000
0000
,
0000
0000
0000
0000
,
1000
0000
0001
0000
0100
0000
0001
1000
,
0001
1000
0100
0010
,
0001
0000
1000
0000
0001
0000
0100
0010
,
0100
0010
1000
0001
,
0010
0000
0100
0000
1000
0000
0001
0100
,
0001
0100
0010
1000
,
0100
0000
1000
0000
0001
0000
0010
0001
,
0010
0001
0010
0100
,
1000
1000
0010
0100
,
0001
0000
0010
0000
0100
1000
0100
0000
,
1000
0000
0001
0000
0100
0000
0010
1000
,
0010
0000
0100
0001
0100
0000
0001
0010
,
0001
0010
0100
1000
,
0001
0000
0100
0010
0100
0000
0010
0000
,
1000
0000
0100
0000
1000
0000
0001
0010
,
0001
1000
0001
0100
,
0010
0010
1000
1000
,
0010
0010
0010
0010
,
0100
0100
0001
0001
,
0010
0010
0010
0010
,
0001
0001
1000
1000
,
0100
0100
0100
0100
,
0010
0010
0001
1000
,
0001
0100
0001
0100
0000
0001
0100
0000
,
0010
0010
1000
1000
,
0100
0100
0100
0100
,
0010
0010
0001
0001
,
0100
0100
0100
0100
,
0010
1000
0010
1000
,
0001
0001
0100
0100
,
0001
0010
0001
0010
0000
0001
0010
0000
,
0100
1000
0100
1000
0000
0100
1000
0000
,
0001
0000
0001
0000
0100
0000
0010
1000
,
0000
0010
1000
0001
,
0100
0000
0001
0000
1000
0000
0100
1000
,
0000
0001
0010
0000
0001
0000
1000
0000
,
0001
0001
0010
0010
,
0100
0000
0100
0000
1000
0100
1000
0000
,
0001
0001
0010
0010
,
0001
0000
1000
0000
0010
1000
0010
0000
,
1000
1000
0001
0001
,
0100
0000
0010
0000
1000
0001
1000
0000
,
0010
0010
0100
0100
,
0001
0000
1000
0100
1000
0000
0001
0000
,
1000
0000
0100
0000
0010
0001
0010
0000
,
0100
1000
0001
0100
,
0010
0000
1000
0000
0100
0000
0010
0001
,
0010
0100
1000
0001
,
0100
0000
0010
0000
1000
0010
1000
0000
,
0100
0010
0001
0010
,
0100
0000
1000
0000
0001
0000
0100
0001
,
0100
0000
0100
0000
,
0010
0010
1000
1000
,
0100
0100
0010
0010
,
0001
0001
0100
0100
,
0010
0010
1000
1000
,
0100
0100
0001
0001
,
0100
0100
1000
1000
,
0010
0010
0001
0001
,
0010
0100
0001
0010
,
0100
0001
0100
1000
,
0010
0100
1000
0100
,
0001
0010
0100
0001
,
0100
1000
0010
0100
,
0001
0010
1000
0010
,
0100
1000
0100
0001
,
0100
0010
0001
0100
,
1000
0001
0010
1000
,
0002
0203
0320
2030
,
3000
0000
0000
0000
;

//---------------dance-single - Renard----------------
#NOTES:
     dance-single:
     Renard:
     Easy:
     3:
     0.289,0.332,0.000,0.000,0.000: // measure 1
0000
0000
0000
0000
,  // measure 2
0000
0000
0000
0000
,  // measure 3
0000
0000
0000
0000
,  // measure 4
0000
0000
0000
0000
,  // measure 5
0000
0000
0000
0000
,  // measure 6
0000
0000
0000
0000
,  // measure 7
0000
0000
0000
0000
,  // measure 8
0000
0000
0000
0000
,  // measure 9
1000
1000
0100
0010
,  // measure 10
0001
0001
0010
0000
,  // measure 11
0001
0001
0010
0100
,  // measure 12
1000
1000
0100
0000
,  // measure 13
0010
0010
0100
1000
,  // measure 14
0001
0001
0100
0000
,  // measure 15
0010
0010
1000
0001
,  // measure 16
0100
0100
0001
0000
,  // measure 17
1000
0100
1000
0100
,  // measure 18
0010
0010
0001
0000
,  // measure 19
0001
0100
0001
0100
,  // measure 20
0010
0010
1000
0000
,  // measure 21
0100
1000
0100
1000
,  // measure 22
0010
0010
1000
0000
,  // measure 23
0010
1000
0001
0001
,  // measure 24
0100
0100
0001
0000
,  // measure 25
1000
0000
0100
1000
,  // measure 26
0001
0000
0010
0001
,  // measure 27
1000
0000
0010
1000
,  // measure 28
0001
0000
0100
0001
,  // measure 29
1000
0000
0100
1000
,  // measure 30
0001
0000
0010
0001
,  // measure 31
1000
0000
0010
1000
,  // measure 32
0001
0100
0001
0100
,  // measure 33
0001
0000
0001
1000
,  // measure 34
0100
0000
0100
1000
,  // measure 35
0001
0000
0010
0001
,  // measure 36
1000
0000
0010
1000
,  // measure 37
0001
0000
0100
0001
,  // measure 38
1000
0000
0100
1000
,  // measure 39
0001
0001
0010
0010
,  // measure 40
0100
0100
1000
1000
,  // measure 41
0001
0001
0010
0000
,  // measure 42
0001
0000
1000
0000
,  // measure 43
0010
0010
1000
0000
,  // measure 44
0001
0000
0100
0000
,  // measure 45
0001
0001
1000
0000
,  // measure 46
0100
0000
1000
0000
,  // measure 47
0001
0001
0010
0000
,  // measure 48
0001
0000
0010
0000
,  // measure 49
0001
0001
1000
0000
,  // measure 50
0010
0000
1000
0000
,  // measure 51
0001
0001
0100
0000
,  // measure 52
0001
0000
1000
0000
,  // measure 53
0100
1000
0001
0000
,  // measure 54
0010
0001
1000
0000
,  // measure 55
0010
1000
0001
0000
,  // measure 56
0010
0001
1000
0000
,  // measure 57
0001
0100
0001
0000
,  // measure 58
1000
0100
1000
0000
,  // measure 59
0001
0010
0001
0000
,  // measure 60
1000
0000
0010
0000
,  // measure 61
0100
0000
0001
1000
,  // measure 62
0100
0000
1000
0001
,  // measure 63
0010
0000
0001
1000
,  // measure 64
0010
0000
1000
0001
,  // measure 65
0010
0000
0001
1000
,  // measure 66
0010
0000
1000
0001
,  // measure 67
0010
0000
0001
0000
,  // measure 68
1000
0000
0010
0000
,  // measure 69
1000
0000
0001
1000
,  // measure 70
0100
0000
1000
0001
,  // measure 71
0100
0000
0001
1000
,  // measure 72
0100
0000
1000
0001
,  // measure 73
0100
0000
0001
1000
,  // measure 74
0100
0000
1000
0001
,  // measure 75
0100
0000
0001
0000
,  // measure 76
1000
1000
0100
0010
,  // measure 77
0001
0001
0001
0001
;
