#TITLE:Sunnyday Heroes;
#SUBTITLE:;
#ARTIST:Kitsune²;
#TITLETRANSLIT:;
#SUBTITLETRANSLIT:;
#ARTISTTRANSLIT:;
#CREDIT:;
#BANNER:heroes.png;
#BACKGROUND:heroes-bg.png;
#LYRICSPATH:;
#CDTITLE:;
#MUSIC:heroes.ogg;
#OFFSET:0.000;
#SAMPLESTART:66.456;
#SAMPLELENGTH:12.000;
#SELECTABLE:YES;
#BPMS:0.000=260.021,152.000=130.010,220.000=260.021;
#STOPS:;
#BGCHANGES:;

//---------------dance-single - Renard----------------
#NOTES:
     dance-single:
     Renard:
     Challenge:
     10:
     0.824,1.000,0.506,0.165,0.723:
0000
0000
0000
0000
,
0000
0000
0000
0000
,
0001
0000
0100
0000
0000
0100
0010
0000
0000
0010
0000
1000
,
0000
0000
1000
0100
0000
0000
0010
0000
0001
0010
0000
0000
,
0100
0000
1000
0010
0000
0000
0100
0000
0001
0100
0000
0000
,
0010
0000
1000
0100
0000
0000
0010
0000
0001
0010
0000
0000
,
0100
0000
1000
0001
0000
0000
0100
0000
0010
1000
0000
0000
,
0010
0000
1000
0001
0000
0000
0100
0000
0010
1000
0000
0001
,
1000
0000
0100
0010
0000
0000
0001
0000
0010
0100
0000
0000
,
1000
0000
0100
0010
0000
0000
0001
0000
0010
0100
0000
0000
,
1000
0000
0001
0100
0000
0000
0010
0000
1000
0010
0000
0000
,
1000
0000
0001
1000
0000
0001
1000
0000
0001
1000
0000
0000
,
0001
0000
0000
0100
0000
0100
0010
0000
0000
1000
0000
1000
,
0100
0000
0000
0010
0000
0010
0001
0000
0010
0100
0000
0000
,
1000
0000
0000
0010
0000
0010
0100
0000
0000
0001
0000
0001
,
0100
0000
0000
0010
0000
0010
1000
0000
0100
0010
0000
0000
,
0001
0000
0000
0010
0000
0100
1000
0000
0000
0001
0000
0010
,
0100
0000
0000
1000
0000
0001
0100
0000
0000
0010
0000
0000
,
1000
0000
0010
0100
0000
0001
0100
0000
0010
1000
0000
0100
,
0010
0000
0001
0010
0000
0100
1000
0000
0001
0010
0000
0000
,
0100
0000
1000
0000
0000
1000
0001
0000
0000
0001
0000
0100
,
0000
0000
0100
0010
0000
0000
1000
0010
1000
0010
0000
0000
,
1000
0101
0010
1010
,
1000
0000
0000
1100
0000
0000
0010
0000
0001
0010
0000
0000
,
0010
0110
1000
1010
,
0100
0000
0000
0101
0000
0000
0100
0000
0001
1000
0000
1000
,
0001
1100
0010
0011
,
0010
0000
0000
1100
0000
0000
1000
0000
0001
0100
0000
0000
,
0010
1010
0100
0110
,
1000
0000
0000
1001
0000
0000
1000
0000
0100
0010
0000
0000
,
0001
0011
0010
1010
,
0010
0000
0000
0110
0000
0000
0100
0000
1000
0001
0000
0000
,
0010
1100
1000
0011
,
0100
0000
0000
0101
0000
0000
1000
0000
0010
1000
0000
0000
,
0001
1100
0010
1001
,
0100
0000
0000
0110
0000
0000
1000
0000
0001
1000
0000
0000
,
0100
0110
1000
0101
,
1000
0000
0000
0010
0000
0000
0100
0010
0100
0010
0000
0100
,
0002
0000
2000
0003
0200
3000
0020
0000
0000
0000
0000
0000
0000
0000
0330
0000
,
0002
0020
0000
0000
0000
0000
0000
0000
0000
0000
0000
0000
0000
0000
0000
0000
0000
0000
0000
0000
0000
0000
0000
0000
0000
0000
0000
0000
0033
0000
0000
0000
,
0200
2000
0000
0000
0000
0000
0000
0000
0000
0000
0000
0000
0000
0000
0000
0000
0000
0000
0000
0000
0000
0000
0000
0000
0000
0000
3300
0000
0000
0000
0000
0000
,
0001
0000
0000
0100
0001
0100
0001
0000
0000
0100
0000
0000
0010
0000
0000
1000
0010
1000
0010
0000
0000
0000
0000
0000
,
2000
0000
0002
3000
0020
0003
0200
0000
0000
0000
0000
0000
0000
0000
0330
0000
,
2000
0200
0000
0000
0000
0000
0000
0000
0000
0000
0000
0000
0000
0000
0000
0000
0000
0000
0000
0000
0000
0000
0000
0000
0000
0000
0000
0000
3300
0000
0000
0000
,
0020
0002
0000
0000
0000
0000
0000
0000
0000
0000
0000
0000
0000
0000
0000
0000
0000
0000
0000
0000
0000
0000
0000
0000
0000
0000
0033
0000
0000
0000
0000
0000
,
1000
0000
0000
0010
1000
0010
1000
0000
0000
0010
0000
0000
0100
0000
0000
0001
0100
0001
0100
0000
0000
0000
0000
0000
,
0001
0000
0000
0100
0000
0000
0110
0000
0000
0000
0000
0000
0000
0000
0010
1000
0000
0000
1010
0000
0000
0000
0000
0000
,
1000
0000
0000
0100
0000
0000
1100
0000
0000
0000
0000
0000
0000
0000
0001
0010
0000
0000
0100
0000
0000
1000
0000
0001
,
1000
0000
0000
0001
0000
0000
0101
0000
0000
0000
0000
0000
0000
0000
0100
0010
0000
0000
1000
0000
0000
0000
0000
0000
,
0100
0000
0000
0010
0000
0000
0001
0000
0000
0010
0000
0100
0000
0000
1000
0001
0000
0000
0010
0000
0000
0100
0000
0000
,
1000
0000
0000
0001
0000
0100
0010
0000
0000
1000
0000
0000
0010
0000
0000
1000
0000
0000
1010
0000
0000
1000
0000
0000
,
0001
0000
0000
0100
0000
0000
0001
0000
0000
0010
0000
0100
0000
0000
1000
0001
0000
0000
0010
0000
0000
0100
0000
0000
,
1000
0000
0000
0001
0000
0000
1001
0000
0000
0001
0000
0100
0000
0000
0010
1000
0000
0010
1000
0000
0000
0001
0000
0000
,
1000
0000
0000
0100
0010
0001
0010
0000
0000
0010
0000
0000
0100
0000
0000
1000
0001
1000
0100
0000
0000
0010
0000
0000
,
0001
0000
0001
0010
0000
0100
0000
0000
1000
0001
0000
0001
0100
0000
0000
0010
1000
0010
1000
0000
1000
0001
0000
0000
,
1000
0000
1000
0001
0000
0000
0100
0000
0100
0010
0000
0000
,
1000
0000
0100
0010
0000
0001
0010
0000
0100
1000
0000
0000
,
0001
0000
0001
1000
0000
0000
0010
0000
0010
0100
0000
0000
,
0001
0000
0001
0100
0000
0000
0010
0000
1000
0100
0000
0010
,
0001
0000
0010
0100
0000
0000
1000
0000
0001
0010
0000
0000
,
0100
0000
1000
0001
0000
0100
0010
0000
1000
0010
0000
0000
,
1000
0000
1000
0010
0000
0000
0100
0000
0100
0001
0000
0000
,
0010
0000
0010
0100
0000
0000
1000
0000
1000
0001
0000
0000
,
1001
0000
0000
1000
0000
0010
0100
0000
0000
0001
0000
0000
,
0010
0000
0100
1000
0000
0000
0010
0000
0100
0001
0000
0000
,
0101
0000
0000
0100
0000
0010
1000
0000
0000
0100
0000
0010
,
0001
0000
0010
0100
0000
0000
1000
0000
0000
0001
0000
0000
,
1001
0000
0000
0100
0000
0010
1000
0000
0000
0100
0000
0000
,
0110
0000
0000
0010
0000
0100
1000
0000
0000
0010
0000
0000
,
0100
0001
0100
0010
,
1000
0000
0010
1000
0000
0010
1000
0000
0000
1001
0000
0000
,
0110
0000
0000
1001
0000
0000
0001
0000
0001
0100
0000
0000
,
0010
0000
0010
1000
0000
0000
0100
0000
0000
0010
0000
0000
,
0110
0000
0000
1001
0000
0000
0001
0000
0100
0010
0000
0000
,
1000
0000
0100
0010
0000
0000
0001
0000
0010
0100
0000
0000
,
0110
0000
0000
1001
0000
0000
0100
0000
0010
1000
0000
0000
,
0100
0000
0010
0001
0000
0000
0010
0000
0100
1000
0000
0000
,
1001
0000
0000
0110
0000
0000
1000
0000
0010
0100
0000
0000
,
0110
0000
0000
1001
0000
0000
1000
0000
0100
0010
0000
0000
,
0001
0000
0010
0100
0000
0000
1000
0000
0000
0001
0000
0000
,
0010
0000
0100
1000
0000
0000
0001
0000
0000
0100
0000
0000
,
0101
0000
0000
0100
0000
0000
0010
0000
1000
0100
0000
0000
,
0010
0000
0001
0010
0000
0000
0100
0000
1000
0001
0000
0000
,
1001
0000
0000
1000
0000
0100
0010
0000
0000
0001
0000
0000
,
0010
0110
1000
1001
,
0101
1000
0010
1000
,
0001
0000
0100
0001
0000
0100
0001
0000
0000
1000
0000
0000
;

//---------------dance-single - Renard----------------
#NOTES:
     dance-single:
     Renard:
     Hard:
     8:
     0.540,0.716,0.289,0.072,0.000:
0000
0000
0000
0000
,
0000
0000
0000
0000
,
0000
0000
0000
0000
,
0000
0000
0000
0000
,
1000
1100
0001
0101
,
1000
0100
0010
0001
,
1000
1010
0001
0011
,
1000
0100
0010
0001
,
1000
1100
0001
0101
,
0001
0010
0100
1000
,
0001
0011
1000
1010
,
0001
0010
0100
1000
,
0010
1000
0010
1000
,
0010
1010
1000
1010
,
0100
0001
0100
0001
,
0001
0101
0100
0101
,
0001
0010
0100
1000
,
0001
1001
1000
1001
,
0001
0100
0110
0000
,
0010
1000
1001
0000
,
1000
0000
0100
0000
,
0010
0000
0001
0000
,
1000
0100
0010
0100
,
1000
0001
0100
0110
,
0000
0010
1000
0100
,
0010
0001
1000
1000
,
0001
0100
0010
0100
,
1000
0010
0100
0001
,
0100
0010
1000
0010
,
0100
0001
0010
0100
,
1000
0010
0100
0001
,
0010
1000
0100
0010
,
0100
0001
0100
0001
,
0010
0100
1000
0100
,
0001
0100
0010
0100
,
1000
0010
0100
0001
,
0100
0010
1000
0010
,
1000
0010
0100
0100
,
0010
1000
0001
0200
0000
0000
0000
0000
,
0302
0000
0000
0000
,
0023
0000
0000
0000
,
0130
1000
0100
0010
0001
1000
0001
0000
,
1000
0010
0100
0002
0000
0000
0000
0000
,
0203
0000
0000
0000
,
0320
0000
0000
0000
,
1030
0100
0010
0001
1000
0001
0010
0000
,
0100
1000
0001
0100
0010
0000
0110
0000
,
0010
1000
1010
0000
0001
0100
0101
0000
,
1000
0100
0010
0001
1000
0000
1001
0000
,
0001
0100
0110
0000
0010
0000
1010
0000
,
1000
0100
0010
0001
1000
0000
1001
0000
,
0001
0100
0110
0000
1000
0000
1010
0000
,
1000
0100
0010
0001
1000
0000
1001
0000
,
0001
0100
0010
0100
1000
0100
0010
0000
,
0200
0000
0000
0000
,
0301
0100
1000
0100
,
0001
0010
1000
0010
,
0001
0100
0010
1000
,
0100
0100
0010
0010
,
0001
0010
1000
0010
,
0001
0100
1000
0100
,
0001
0001
0010
0010
,
0100
0100
1000
1000
,
0010
0100
0001
0100
,
0010
1000
0100
1000
,
0010
0100
0001
0100
,
0010
1000
0100
0010
,
0001
0010
0100
1000
,
0001
0100
0010
1000
,
0100
0100
0100
0100
,
0010
0010
0010
0010
,
0001
0010
0100
0100
,
1000
1000
0010
0010
,
0100
0100
0001
0001
,
0010
0010
0100
0100
,
1000
0100
0010
0010
,
0001
0001
1000
1000
,
0010
0010
0100
0100
,
0001
0001
0010
0010
,
0001
0010
0100
0100
,
1000
1000
0001
0001
,
0010
0010
0001
0001
,
1000
1000
0010
0010
,
0100
0001
0100
0010
,
1000
0001
0100
0010
,
1000
1000
1000
1000
,
0010
1000
0001
0101
;

//---------------dance-single - Renard----------------
#NOTES:
     dance-single:
     Renard:
     Medium:
     6:
     0.369,0.537,0.114,0.103,0.000:
0000
0000
0000
0000
,
0000
0000
0000
0000
,
0000
0000
0000
0000
,
0000
0000
0000
0000
,
1000
0001
1000
0000
,
0001
0000
0100
0000
,
0010
1000
0010
0000
,
1000
0000
0001
0000
,
1000
0000
1000
0000
,
0100
1000
0001
1000
,
0010
0000
1000
0000
,
0001
0010
0001
0000
,
1000
0000
0001
0000
,
0100
0001
1000
0001
,
0010
0000
0001
0000
,
1000
0010
1000
0000
,
0001
0000
0100
0000
,
0001
1000
0001
0000
,
1000
0000
0010
0000
,
1000
0001
1000
0000
,
0002
0000
0000
0000
,
0000
0000
0000
0000
,
0103
0000
0010
0000
,
1000
0010
0000
0100
,
0000
0000
0001
0000
,
0100
0010
0100
0000
,
0010
0000
1000
0000
,
0010
1000
0000
0001
,
0000
0100
0001
1000
,
0100
0000
1000
0000
,
0001
0000
0010
0000
,
0100
1000
0000
0001
,
0000
0000
0100
0000
,
0010
1000
0001
0100
,
0001
1000
0100
1000
,
0001
1000
0010
1000
,
0001
0010
0100
1000
,
0001
0000
0100
0000
,
0200
0320
2030
0000
,
3200
0000
0000
0000
,
0020
0000
0000
0000
,
0001
0000
1330
0000
,
0001
0010
0200
0000
,
2300
0000
0000
0000
,
0002
0000
0000
0000
,
0100
0000
3013
1000
,
0001
1000
0001
0000
,
1001
0001
0100
0000
,
0110
0010
1000
0000
,
1001
1000
1100
0110
,
0010
0011
0001
1001
,
0001
0101
1001
0000
,
1000
1100
1000
1010
,
1000
0001
0100
0010
,
2000
0000
0000
0000
,
3001
1000
0001
1000
,
0010
0100
0010
0100
,
0001
1000
0001
0100
,
0010
1000
0100
0000
,
1000
0100
1000
0100
,
0010
0001
0010
0001
,
1000
0000
0001
0000
,
1000
0000
0001
0000
,
0100
0001
0100
0000
,
0010
1000
0010
0000
,
1000
0001
1000
0100
,
0010
0001
1000
0000
,
0001
0100
0001
0000
,
1000
0010
1000
0000
,
0001
0001
0001
0001
,
0001
0000
0001
0000
,
0100
0010
0100
0000
,
0010
1000
0010
0000
,
1000
0001
1000
0000
,
0001
0100
0001
0000
,
0100
0010
0100
0000
,
0010
1000
0010
0000
,
1000
0001
0010
0000
,
0100
1000
0001
0000
,
0100
0010
1000
0000
,
0001
0000
0100
0000
,
0010
1000
0001
0000
,
0100
0000
0001
0000
,
1000
0100
0010
0000
,
0001
0000
0010
0000
,
0100
1000
0100
1000
,
0001
0100
0010
1000
;

//---------------dance-single - Renard----------------
#NOTES:
     dance-single:
     Renard:
     Easy:
     3:
     0.227,0.268,0.000,0.010,0.000: // measure 1
0000
0000
0000
0000
,  // measure 2
0000
0000
0000
0000
,  // measure 3
0000
0000
0000
0000
,  // measure 4
0000
0000
0000
0000
,  // measure 5
1000
0000
0001
0000
,  // measure 6
1000
0001
1000
0000
,  // measure 7
0001
0000
0100
0000
,  // measure 8
0010
0000
1000
0000
,  // measure 9
0001
0000
1000
0000
,  // measure 10
0100
1000
0100
0000
,  // measure 11
1000
0000
0001
0000
,  // measure 12
0010
0000
0000
0000
,  // measure 13
0001
0000
1000
0000
,  // measure 14
0010
0000
1000
0001
,  // measure 15
1000
0000
0001
0000
,  // measure 16
0100
0000
0000
0000
,  // measure 17
0001
0000
1000
0000
,  // measure 18
0100
0000
1000
0001
,  // measure 19
1000
0000
0001
1000
,  // measure 20
0001
0000
0000
0000
,  // measure 21
0100
0000
0000
0000
,  // measure 22
0000
0000
0000
0000
,  // measure 23
0100
0000
0010
0000
,  // measure 24
1000
0010
0000
1000
,  // measure 25
0000
0000
0001
0000
,  // measure 26
0100
0000
0001
0000
,  // measure 27
1000
0000
0100
0000
,  // measure 28
0010
0001
0000
1000
,  // measure 29
0000
0000
0001
0000
,  // measure 30
0100
0000
0010
0000
,  // measure 31
1000
0000
0010
0000
,  // measure 32
0100
0001
0000
0100
,  // measure 33
0000
0000
0010
0000
,  // measure 34
1000
0000
0001
0000
,  // measure 35
0100
0000
0001
0000
,  // measure 36
1000
0100
0000
0000
,  // measure 37
0010
0000
0001
0000
,  // measure 38
1000
0000
0000
0000
,  // measure 39
0010
0000
0000
0000
,  // measure 40
1000
0000
0000
0000
,  // measure 41
0001
0000
0000
0000
,  // measure 42
0100
0000
0010
0000
,  // measure 43
1000
0010
0100
0000
,  // measure 44
0001
0000
0000
0000
,  // measure 45
0100
0000
0000
0000
,  // measure 46
0010
1000
0010
0100
,  // measure 47
0001
0100
0010
0000
,  // measure 48
1000
0000
0000
0000
,  // measure 49
1000
0000
0000
0000
,  // measure 50
0100
0000
0100
0000
,  // measure 51
0001
1000
0010
0000
,  // measure 52
0000
0000
0000
0000
,  // measure 53
1000
0000
0000
0000
,  // measure 54
0010
1000
0001
0100
,  // measure 55
0100
0000
0000
0000
,  // measure 56
0100
0000
0100
0000
,  // measure 57
0010
0000
0010
0000
,  // measure 58
1000
0000
0001
0000
,  // measure 59
0100
0000
0001
0000
,  // measure 60
0000
0000
0100
0000
,  // measure 61
1000
0000
0100
0000
,  // measure 62
0001
0000
0010
0000
,  // measure 63
0100
0000
1000
0000
,  // measure 64
0000
0000
0001
0000
,  // measure 65
0001
0000
1000
0000
,  // measure 66
0001
0000
0010
0000
,  // measure 67
0100
0000
1000
0000
,  // measure 68
0000
0000
0001
0000
,  // measure 69
0100
0000
0010
0000
,  // measure 70
1000
0000
0000
0000
,  // measure 71
0000
0000
0000
0000
,  // measure 72
0001
0000
1000
0000
,  // measure 73
0001
0000
0100
0000
,  // measure 74
0010
0000
1000
0000
,  // measure 75
0001
0000
0100
0000
,  // measure 76
0001
0000
1000
0000
,  // measure 77
0100
0000
0010
0000
,  // measure 78
0001
0000
0010
0000
,  // measure 79
0100
0000
1000
0000
,  // measure 80
0100
0000
1000
0000
,  // measure 81
0100
0000
1000
0000
,  // measure 82
0001
0000
0010
0000
,  // measure 83
0001
0000
0010
0000
,  // measure 84
0001
0000
0100
0000
,  // measure 85
0001
0000
0100
0000
,  // measure 86
0020
0000
0000
0000
,  // measure 87
1030
0000
0100
0000
;
