#TITLE:Sun Always Shines;
#SUBTITLE:;
#ARTIST:Supreme & UFO;
#TITLETRANSLIT:;
#SUBTITLETRANSLIT:;
#ARTISTTRANSLIT:;
#CREDIT:;
#BANNER:sun.png;
#BACKGROUND:sun-bg.png;
#LYRICSPATH:;
#CDTITLE:;
#MUSIC:sun.ogg;
#OFFSET:0.000;
#SAMPLESTART:43.866;
#SAMPLELENGTH:12.000;
#SELECTABLE:YES;
#BPMS:0.000=175.000;
#STOPS:;
#BGCHANGES:;

//---------------dance-single - Renard----------------
#NOTES:
     dance-single:
     Renard:
     Challenge:
     10:
     0.656,0.945,0.389,0.253,0.233:
0000
0000
0000
0000
,
0000
0000
0000
0000
,
0000
0000
0000
0000
,
0000
0000
0000
0000
,
0001
0100
0000
0110
0000
1010
0000
1001
,
0000
1100
0000
1100
0000
1000
0100
0010
,
0001
0010
0000
0011
0000
0110
0000
1010
,
0000
0110
0000
0010
0100
1000
0010
0100
,
0001
0000
0001
0100
0000
0100
0010
0000
1000
0100
0010
0001
0010
0100
1000
0001
,
0100
0000
0100
0010
0000
0010
1000
0000
0100
0010
0001
0010
0100
1000
0001
0010
,
0100
0000
1000
0010
0000
0010
1000
0100
0010
0001
0010
0100
1000
0001
0100
0010
,
1000
0000
1000
0100
0000
0100
0010
0000
0001
0010
0100
1000
0001
0000
0010
0000
,
0001
0000
0001
0100
0000
0100
0010
0000
1000
0100
0010
0001
0010
0100
1000
0001
,
0100
0000
0100
0010
0000
0010
1000
0000
0100
0010
0001
0010
0100
1000
0001
0010
,
0100
0000
1000
0010
0000
0010
1000
0100
0010
0001
0010
0100
1000
0001
0100
0010
,
1000
0000
1000
0100
0000
0100
0010
0000
0001
0010
0100
1000
0001
0000
0010
0000
,
0200
0000
0000
2000
0000
0000
0000
0300
,
0020
0000
0000
3000
0200
0000
0000
0030
,
0002
0000
0300
0020
0000
0000
0000
0003
,
0200
0030
2000
0300
,
0020
0000
3000
0200
0000
0000
0000
0030
,
0002
0000
0000
0300
0020
0000
0000
0003
,
0002
0000
0030
0000
0020
0000
0000
0003
,
0130
1000
0000
0010
1000
0000
1001
0000
,
1002
0000
0000
0000
0200
0000
0000
0003
,
0020
0000
0000
0000
0000
0000
0000
0300
,
2000
0000
0000
0030
0200
0000
0000
3000
,
0020
0000
0000
0300
,
0002
0000
0000
0030
0200
0000
0003
0000
,
0020
0000
0000
0000
0000
0000
0000
0300
,
2000
0000
0000
0030
0200
0000
0000
3000
,
0020
0030
0001
1300
,
1000
0000
1000
0100
0000
0100
0001
0000
,
0100
0010
0001
0010
1000
0010
0100
0000
,
1000
0000
1000
0010
0000
0010
0001
0000
,
0010
0100
1000
0100
0001
1000
0100
0010
,
0001
0000
0001
0010
0000
0010
0100
0000
,
0001
0100
1000
0010
0100
0001
0100
1000
,
0100
0000
0100
0010
0000
0010
1000
0100
,
0010
0001
0000
0001
0010
0000
0011
0000
,
0110
0000
0100
1000
0000
1000
0010
0100
,
0001
0100
1000
0100
0001
0010
0100
1000
,
0001
0000
0001
1000
0000
1000
0100
0010
,
0001
0010
1000
0010
0100
0001
0100
1000
,
0001
0000
0001
0100
0000
0100
0010
1000
,
0100
1000
0001
0010
0001
1000
0001
0100
,
0010
0000
0010
1000
0000
1000
0100
0000
,
0010
0000
0001
0000
0010
0000
0001
0000
0010
0001
0010
0001
0010
0000
0001
0000
,
0011
0000
0110
0000
0100
1000
0010
0100
,
0001
0101
0110
1100
,
1000
0100
0001
0000
0001
0010
1000
0000
,
1000
0010
0001
0000
0001
1000
0100
0001
,
0100
0000
0100
1000
0010
0100
0001
0000
,
0101
1100
0110
0110
,
0010
1000
0100
0010
0001
0000
0011
0000
,
0001
0010
0100
1000
0001
0001
1001
0000
,
0001
0100
0010
0000
0010
1000
0100
0000
,
1100
0000
1010
0000
1000
0100
1000
0000
,
0001
0010
0001
0100
0001
1000
0001
0000
,
0101
0000
0011
0000
1000
0001
1000
0000
,
0001
0100
0010
1000
0100
0000
1100
0000
,
1000
0100
0010
0001
1000
0000
1001
0000
,
0001
0100
0010
1000
0100
1000
0001
0010
,
0001
1000
0010
0100
0001
0000
0001
0000
,
0101
0100
0010
1000
,
0100
0010
0001
0010
0100
1000
0001
1000
,
0010
1001
1100
1001
,
1000
0100
0010
0001
0010
0100
1000
0001
,
0100
0101
1001
0011
,
0001
0100
0010
1000
0100
1000
0001
0010
,
0001
0011
0110
1100
,
0100
1000
0010
0100
0001
1000
0001
1000
,
0100
0000
0000
0000
;

//---------------dance-single - Renard----------------
#NOTES:
     dance-single:
     Renard:
     Hard:
     9:
     0.593,0.595,0.389,0.253,0.063:
0000
0000
0000
0000
,
0000
0000
0000
0000
,
0000
0000
0000
0000
,
0000
0000
0000
0000
,
0001
0100
0000
0110
0000
1010
0000
1001
,
0000
1100
0000
1100
0000
1000
0100
0010
,
0001
0010
0000
0011
0000
0110
0000
1010
,
0000
0110
0000
0010
0100
1000
0010
0100
,
0001
0000
0000
0100
0000
0000
0010
0000
1000
0000
0100
0000
0010
0000
0000
0000
,
0001
0000
0000
0010
0000
0000
0100
0000
1000
0000
0010
0000
0100
0000
0000
0000
,
0001
0000
0000
1000
0000
0000
0100
0000
0010
0000
0001
0000
0010
0000
0100
0000
,
1000
0000
0000
0010
0000
0000
0100
0000
0001
0000
0010
0000
0001
0000
0000
0000
,
1000
0000
0000
0100
0000
0000
0010
0000
0001
0000
0010
0000
0100
0000
1000
0100
,
1000
0000
0000
0010
0000
0000
0100
0000
0001
0000
0010
0000
0001
0000
1000
0001
,
1000
0000
0000
0001
0000
0000
0100
0000
0010
0000
1000
0000
0100
0000
0010
0000
,
0001
0000
0010
0001
0000
0001
0010
0000
0100
0000
1000
0000
0001
0000
1000
0000
,
0200
0000
0000
2000
0000
0000
0000
0300
,
0020
0000
0000
3000
0200
0000
0000
0030
,
0002
0000
0300
0020
0000
0000
0000
0003
,
0200
0030
2000
0300
,
0020
0000
3000
0200
0000
0000
0000
0030
,
0002
0000
0000
0300
0020
0000
0000
0003
,
0002
0000
0030
0000
0020
0000
0000
0003
,
0130
1000
0000
0010
1000
0000
1001
0000
,
1002
0000
0000
0000
0200
0000
0000
0003
,
0020
0000
0000
0000
0000
0000
0000
0300
,
2000
0000
0000
0030
0200
0000
0000
3000
,
0020
0000
0000
0300
,
0002
0000
0000
0030
0200
0000
0003
0000
,
0020
0000
0000
0000
0000
0000
0000
0300
,
2000
0000
0000
0030
0200
0000
0000
3000
,
0020
0030
0001
1300
,
1000
0000
1000
0100
0000
0100
0001
0000
,
0100
0010
0001
0010
1000
0010
0100
0000
,
1000
0000
1000
0010
0000
0010
0001
0000
,
0010
0100
1000
0100
0001
1000
0100
0010
,
0001
0000
0001
0010
0000
0010
0100
0000
,
0001
0100
1000
0010
0100
0001
0100
1000
,
0100
0000
0100
0010
0000
0010
1000
0100
,
0010
0001
0000
0001
0010
0000
0011
0000
,
0110
0000
0100
1000
0000
1000
0010
0100
,
0001
0100
1000
0100
0001
0010
0100
1000
,
0001
0000
0001
1000
0000
1000
0100
0010
,
0001
0010
1000
0010
0100
0001
0100
1000
,
0001
0000
0001
0100
0000
0100
0010
1000
,
0100
1000
0001
0010
0001
1000
0001
0100
,
0010
0000
0010
1000
0000
1000
0100
0000
,
0010
0000
0001
0000
0010
0000
0001
0000
0010
0001
0010
0001
0010
0000
0001
0000
,
0011
0000
0110
0000
0100
1000
0010
0100
,
0001
0101
0110
1100
,
1000
0100
0001
0000
0001
0010
1000
0000
,
1000
0010
0001
0000
0001
1000
0100
0001
,
0100
0000
0100
1000
0010
0100
0001
0000
,
0101
1100
0110
0110
,
0010
1000
0100
0010
0001
0000
0011
0000
,
0001
0010
0100
1000
0001
0001
1001
0000
,
0001
0100
0010
0000
0010
1000
0100
0000
,
1100
0000
1010
0000
1000
0100
1000
0000
,
0001
0010
0001
0100
0001
1000
0001
0000
,
0101
0000
0011
0000
1000
0001
1000
0000
,
0001
0100
0010
1000
0100
0000
1100
0000
,
1000
0100
0010
0001
1000
0000
1001
0000
,
0001
0100
0010
1000
0100
1000
0001
0010
,
0001
1000
0010
0100
0001
0000
0001
0000
,
0101
0100
0010
1000
,
0100
0010
0001
0010
0100
1000
0001
1000
,
0010
1001
1100
1001
,
1000
0100
0010
0001
0010
0100
1000
0001
,
0100
0101
1001
0011
,
0001
0100
0010
1000
0100
1000
0001
0010
,
0001
0011
0110
1100
,
0100
1000
0010
0100
0001
1000
0001
1000
,
0100
0000
0000
0000
;

//---------------dance-single - Renard----------------
#NOTES:
     dance-single:
     Renard:
     Medium:
     6:
     0.353,0.560,0.010,0.195,0.000:
0000
0000
0000
0000
,
0000
0000
0000
0000
,
0000
0000
0000
0000
,
0000
0000
0000
0000
,
0000
1000
0000
0001
0000
1000
0000
0001
,
0000
1000
0000
0001
0000
0000
0010
0000
,
0010
0000
0000
0100
0000
0010
0000
0100
,
0000
0010
0000
0010
0001
0000
0001
0000
,
1000
0000
1000
0000
0001
0100
0001
0000
,
1000
1000
1000
0000
,
0001
0000
0001
0000
1000
0010
1000
0000
,
0001
0001
0001
0000
,
0001
0000
1000
0000
0100
1000
0100
0000
,
1000
0000
0001
0000
,
0010
0001
1000
0010
,
0100
0100
0100
0000
,
0002
0000
0000
0203
0000
0000
0000
0000
,
0000
0000
0000
0000
,
0320
0000
0000
2030
0000
0000
0000
0000
,
0000
0000
0000
0000
,
3200
0000
0320
0000
,
0032
0000
0000
0000
,
0023
0000
0000
0000
,
0130
1000
0000
0001
0100
0000
0000
0000
,
0020
0000
0000
0000
2000
0030
0000
0000
,
3002
0000
0000
0000
,
0203
0000
0000
0000
0020
0300
0000
0000
,
2000
0000
0030
0000
,
3200
0000
0000
0000
0020
0300
0000
0000
,
0002
0030
0000
0000
0000
0000
0000
0000
,
2003
0000
3002
0000
,
0203
0000
0000
0000
,
0310
1000
0010
0100
,
0001
0000
1000
0100
1000
0000
0001
0000
,
0010
0000
0001
0000
,
0010
0100
1000
0000
,
0001
0000
0100
0010
,
1000
0000
0000
0000
0010
0000
0100
0001
,
0100
0000
0010
0000
,
1000
0100
0010
0000
,
0001
0000
0010
0100
,
1000
0000
0000
0000
0001
0000
0100
0010
,
0100
0000
0010
1000
,
0001
0000
0000
0000
0100
0000
0001
1000
,
0001
0000
1000
0100
,
0010
0000
0001
0010
,
0100
0000
1000
0100
1000
0000
0001
1000
,
0001
0000
0100
0000
,
0010
1000
0001
0100
,
0010
0000
1000
0000
0010
0000
0100
0001
,
0100
0001
0010
0100
,
1000
0000
0001
0000
0010
0000
0001
1000
,
0001
0100
0010
1000
,
0100
0000
1000
0000
0001
0000
1000
0001
,
1000
1000
0001
0000
,
0100
0100
0010
0010
,
1000
0010
0100
0001
,
0100
0000
0001
0000
1000
0000
0100
1000
,
0100
1000
0001
0010
,
0001
0000
1000
0000
0010
0000
0100
0001
,
0100
0010
1000
0000
,
0001
1000
0100
0000
,
1000
0000
0001
0010
0001
0000
1000
0010
,
1000
0000
0001
0001
,
0100
0100
0100
0100
,
0010
0010
0010
0010
,
1000
0100
0010
0001
,
0100
0010
1000
0100
,
1000
0001
1000
0000
0001
1000
0001
0000
,
1000
0001
1000
0000
0001
1000
0001
0000
,
0100
0010
0100
0010
0100
0010
0100
0010
,
0100
0010
0100
0010
0100
0000
0100
0000
,
1001
0000
0000
0000
;

//---------------dance-single - Renard----------------
#NOTES:
     dance-single:
     Renard:
     Easy:
     2:
     0.268,0.350,0.010,0.126,0.000: // measure 1
0000
0000
0000
0000
,  // measure 2
0000
0000
0000
0000
,  // measure 3
0000
0000
0000
0000
,  // measure 4
0000
0000
0000
0000
,  // measure 5
1000
0000
0001
1000
,  // measure 6
0001
0000
0100
0010
,  // measure 7
1000
0000
0001
0100
,  // measure 8
0001
1000
0100
0100
,  // measure 9
1000
0000
1000
0100
,  // measure 10
0010
0000
0010
0001
,  // measure 11
0001
0000
0001
1000
,  // measure 12
0100
0100
1000
0001
,  // measure 13
0010
0000
0010
0100
,  // measure 14
0001
0000
0001
0100
,  // measure 15
1000
0000
0010
0100
,  // measure 16
0001
0000
0100
0000
,  // measure 17
0200
0000
0000
0000
,  // measure 18
0000
0000
0000
0000
,  // measure 19
0320
0000
0000
0000
,  // measure 20
0000
0000
0000
0000
,  // measure 21
2030
0000
0000
0000
,  // measure 22
3002
0000
0000
0000
,  // measure 23
0023
0000
0000
0000
,  // measure 24
0000
0000
0000
0000
,  // measure 25
0230
0000
0000
0000
,  // measure 26
2300
0000
0000
0000
,  // measure 27
3002
0000
0000
0000
,  // measure 28
0203
0000
0000
0000
,  // measure 29
0320
0000
0000
0000
,  // measure 30
2030
0000
0000
0000
,  // measure 31
3002
0000
0000
0000
,  // measure 32
0023
0000
0000
0000
,  // measure 33
0130
0000
0100
0000
,  // measure 34
1000
0100
1000
0001
,  // measure 35
0010
0000
0010
0000
,  // measure 36
0001
1000
0001
0000
,  // measure 37
1000
0000
1000
0000
,  // measure 38
0010
0100
0010
0000
,  // measure 39
0100
0000
0100
0000
,  // measure 40
0001
1000
0100
0000
,  // measure 41
1000
0000
1000
0000
,  // measure 42
0001
0010
0100
0010
,  // measure 43
0001
0000
0001
0000
,  // measure 44
1000
0010
0100
0010
,  // measure 45
1000
0000
1000
0010
,  // measure 46
0100
0000
0001
0010
,  // measure 47
0001
0000
1000
0100
,  // measure 48
1000
0000
0001
0000
,  // measure 49
1000
0000
1000
0100
,  // measure 50
1000
0001
1000
0010
,  // measure 51
1000
0000
1000
0100
,  // measure 52
1000
0000
1000
0000
,  // measure 53
0001
0000
0001
1000
,  // measure 54
0001
0100
0001
0010
,  // measure 55
0001
0000
0001
1000
,  // measure 56
0010
0100
0010
0010
,  // measure 57
1000
0000
1000
0010
,  // measure 58
0100
0000
0100
0001
,  // measure 59
0010
0000
0010
0001
,  // measure 60
1000
0100
1000
0001
,  // measure 61
0010
0000
0010
0001
,  // measure 62
1000
0000
1000
0010
,  // measure 63
0100
0000
0100
0010
,  // measure 64
1000
0001
0100
0001
,  // measure 65
1000
1000
1000
1000
,  // measure 66
0001
0001
0001
0001
,  // measure 67
1000
1000
0001
0001
,  // measure 68
1000
0001
1000
0001
,  // measure 69
0100
0100
0100
0100
,  // measure 70
0010
0010
0010
0010
,  // measure 71
0100
0100
0010
0010
,  // measure 72
0100
0010
0100
0010
,  // measure 73
1001
0000
0000
0000
;
