#TITLE:Suliman;
#SUBTITLE:;
#ARTIST:Infected Mushroom;
#TITLETRANSLIT:;
#SUBTITLETRANSLIT:;
#ARTISTTRANSLIT:;
#CREDIT:;
#BANNER:suliman.png;
#BACKGROUND:suliman-bg.png;
#LYRICSPATH:;
#CDTITLE:;
#MUSIC:suliman.ogg;
#OFFSET:0.000;
#SAMPLESTART:66.187;
#SAMPLELENGTH:12.000;
#SELECTABLE:YES;
#BPMS:0.000=145.000;
#STOPS:;
#BGCHANGES:;

//---------------dance-single - Renard----------------
#NOTES:
     dance-single:
     Renard:
     Challenge:
     9:
     0.623,0.790,0.357,0.311,0.270:
0000
0000
0000
0000
,
0000
0000
0000
0000
,
0000
0000
0000
0000
,
0000
0000
0000
0000
,
0000
0000
0000
0000
,
0000
0000
0000
0000
,
0000
0000
0000
0000
,
0000
0000
0000
0000
,
0001
0010
0100
1000
0001
0100
0010
1000
0000
0000
0000
0000
1010
0000
0000
0000
,
1000
0100
0010
0001
0010
0100
1000
0001
0000
0000
1001
0000
0000
0000
0000
0000
,
0001
0100
0010
1000
0100
0010
0001
0010
0000
0000
0000
0000
0011
0000
0000
0000
,
0010
0100
1000
0001
0100
0010
1000
0001
0000
0000
1001
0000
0000
0000
0000
0000
,
1000
0100
0010
0001
0010
0100
1000
0010
0000
0000
0000
0000
1010
0000
0000
0000
,
1000
0100
0010
0001
0010
0100
1000
0001
0000
0000
1001
0000
0000
0000
0000
0000
,
0001
0100
0010
1000
0100
1000
0001
1000
0000
0000
0000
0000
1001
0000
0000
0000
,
0001
1000
0100
0010
0001
0010
0100
1000
0001
0010
0100
1000
0100
0010
0001
1000
,
0001
0010
0100
1000
0010
0000
1010
0000
,
1000
0100
0010
0001
0100
0000
0101
0000
,
0001
0010
0100
1000
0010
0000
1100
0000
,
1000
0100
0010
0001
1000
0000
0101
0000
,
0001
0100
0010
1000
0100
0000
0011
0000
,
0010
0100
1000
0001
0100
0000
1010
0000
,
1000
0100
0010
0001
0010
0000
1100
0000
,
0001
0010
0100
1000
0001
0000
0101
0000
,
0002
0200
0013
0302
0200
0000
0013
0002
,
0300
0200
0013
0302
0203
0002
0313
0000
,
2000
0200
3010
2300
0200
0000
3010
2000
,
0300
0200
3010
2300
3200
2000
3310
0000
,
2000
0002
3010
2003
0002
0000
3010
2000
,
0003
0002
3010
2003
3002
2000
3013
0000
,
0002
0200
1003
0302
0200
0000
0013
0002
,
2020
0000
0000
3333
,
1000
1000
0001
0001
0100
0010
1000
0100
,
0010
0000
0001
0000
1000
0000
0001
0000
1001
0000
0000
0000
0001
0100
0001
0000
,
0100
0010
1000
0100
0010
0010
0100
1000
,
0010
0000
0100
0000
0001
0000
1000
0000
1001
0000
0000
0000
0010
0100
0010
0000
,
0100
0010
1000
0100
0010
0001
0010
0100
,
1000
0000
0010
0000
0100
0000
0000
0000
0110
0000
0000
0000
0001
1000
0001
0000
,
1000
0001
0100
0010
1000
0100
0010
0001
,
0010
0000
0000
0100
0000
0000
0100
0000
0000
1000
0000
0000
0001
0000
0000
0100
0000
0000
0001
0100
0001
0100
0000
0000
,
0001
0000
1000
0100
0000
0010
0001
0010
,
0000
0000
0000
0100
0000
0000
1000
0000
0000
0010
0000
0000
0100
0000
0000
0001
0000
0000
1000
0100
1000
0100
0000
0000
,
1000
0000
0010
0100
0000
0001
0010
0100
,
1000
0000
0000
0001
0000
0000
0100
0000
0000
0001
0000
0000
0000
0000
0000
1000
0000
0000
0001
0100
0001
0100
0000
0000
,
0001
0000
0100
0010
0000
1000
0100
0010
,
0000
0001
0010
0100
1000
0001
0100
0000
,
0001
0100
0001
0100
0000
0000
0010
1000
0010
1000
0000
0000
0100
1000
0100
1000
,
0000
0000
0001
0010
0001
0010
0000
0000
0010
0100
1000
0000
0001
0010
0100
0000
,
1000
0000
0001
0100
0000
0010
1000
0100
,
0000
0000
0000
0010
0000
0000
0001
0000
0000
0010
0000
0000
0100
0000
0000
1000
0000
0000
0001
1000
0001
1000
0000
0000
,
0010
0000
0100
0001
0000
0010
0100
1000
,
0000
0000
0000
0001
0000
0000
0100
0000
0000
0010
0000
0000
1000
0000
0000
0100
0000
0000
0010
0001
0010
0001
0000
0000
,
0010
0000
0100
1000
0000
0010
0100
0001
,
0000
0100
0010
1000
0100
0010
0001
1000
,
1001
0000
1001
0110
0000
0110
1001
0000
,
1001
0110
0000
0110
1001
0010
1001
0000
,
1000
0100
0010
0001
0011
0000
0010
0100
,
1000
0000
1000
0010
0000
0010
0100
0001
,
1000
0100
1000
0001
1001
0000
0001
0100
,
0010
1000
1000
0100
00M0
0001
1000
0001
,
1000
1001
0000
0000
0110
0000
0010
1000
,
1100
0000
0000
0011
0000
0000
0000
0000
,
0001
1001
0000
0001
0101
0000
0100
0010
,
1010
0000
1000
1100
0000
0001
0010
0100
,
1000
0000
0000
0000
;

//---------------dance-single - Renard----------------
#NOTES:
     dance-single:
     Renard:
     Hard:
     8:
     0.551,0.614,0.128,0.009,0.155:
0000
0000
0000
0000
,
0000
0000
0000
0000
,
0000
0000
0000
0000
,
0000
0000
0000
0000
,
0000
0000
0000
0000
,
0000
0000
0000
0000
,
0000
0000
0000
0000
,
0000
0000
0000
0000
,
0001
0000
0100
0000
0001
0000
1000
0001
0000
0000
0000
0000
1001
0000
0000
0000
,
1000
0000
0100
0000
0010
0000
0001
0010
0000
0000
0011
0000
0000
0000
0000
0000
,
0010
0000
0100
0000
1000
0000
0001
0100
0000
0000
0000
0000
0101
0000
0000
0000
,
0001
0000
0100
0000
0010
0000
1000
0010
0000
0000
1001
0000
0000
0000
0000
0000
,
1000
0000
0100
0000
0010
0000
0001
1000
0000
0000
0000
0000
1001
0000
0000
0000
,
0001
0000
0100
0000
0010
0000
1000
0001
0000
0000
1001
0000
0000
0000
0000
0000
,
1000
0000
0100
0000
0010
0000
0001
1000
0000
0000
0000
0000
1001
0000
0000
0000
,
0001
0100
0010
1000
0001
0000
1000
0000
,
0001
0100
0001
0100
0010
0100
0010
0100
,
1000
0000
0100
0000
0010
0000
0100
0000
0001
0000
0010
0001
0010
0000
0000
0000
,
0001
0010
0001
0010
0100
0010
0100
0010
,
1000
0000
0010
0000
0100
0000
0010
0000
0001
0000
1000
0001
1000
0000
0000
0000
,
0001
0100
0010
0000
1000
0010
0100
0000
,
0010
1000
0100
0010
0001
0000
1001
0000
,
0001
0100
0101
0000
0100
0010
0110
0000
,
0010
1000
0001
1000
0001
0000
1001
0000
,
1000
0100
0010
0001
0010
0000
0001
0010
,
0000
0000
0010
0000
0100
0000
1000
0000
0001
0000
0100
0000
0010
0000
1000
0010
,
1000
0010
1000
0100
0010
0000
0001
0010
,
0000
0000
0100
0000
1000
0000
0001
0000
0010
0000
0001
0000
1000
0000
0010
1000
,
0010
1000
0001
0100
0001
0000
1000
0100
,
0010
0000
0001
0000
0010
0000
0100
1000
0100
0000
1000
0000
0001
0000
0100
0001
,
0100
0001
0100
0010
1000
0000
1000
0100
,
0020
0000
0000
0000
,
0031
0010
0100
1000
0001
0100
0010
1000
,
0100
0000
0010
0000
0001
0000
1000
0000
0001
1000
0001
0000
1000
0000
0000
0000
,
0010
0100
0001
0010
0100
1000
0001
0100
,
0010
0000
1000
0000
0100
0000
0010
0000
0001
0000
0010
0001
0010
0000
0001
0000
,
0010
0100
1000
0001
0100
0010
1000
0001
,
0010
0000
0100
0000
1000
0000
0001
1000
0001
0000
0000
0000
1000
0000
0000
0000
,
0010
0100
0001
0010
0100
1000
0001
0100
,
0010
1000
0001
1000
0100
1000
0100
1000
,
0001
0000
0001
0010
0000
0001
1000
0010
,
0100
0000
0001
0000
0010
0000
0000
0100
1000
0000
0001
0000
0100
0001
0100
0000
,
0010
1000
0100
0010
0001
0010
0100
1000
,
0000
0000
1000
0000
0001
0000
0100
0000
0010
0000
1000
0000
0001
1000
0001
0000
,
1000
0100
0010
0001
0010
0000
0010
0100
,
1000
0000
0010
0000
0100
0000
0001
0000
1000
0000
0100
1000
0100
0000
1000
0000
,
0001
0000
0001
0010
0100
0000
0100
0000
1000
0010
0100
0000
0001
0000
0001
0010
,
0100
0000
1000
0000
0001
0100
0010
0000
1000
0000
0010
0000
0100
0000
0001
0000
,
0010
0000
0001
1000
0001
0000
1000
0000
0100
0000
0010
0000
0001
0000
1000
0000
,
0001
0000
0100
0000
0010
0000
1000
0100
1000
0000
0001
0010
0001
0000
1000
0001
,
1000
0001
0100
0010
1000
0100
0010
0001
,
0010
0000
0100
0000
1000
0000
0001
0100
0001
0000
0100
0010
0100
0000
0010
1000
,
0010
1000
0100
0010
0001
0010
0100
1000
,
0001
0000
0100
0000
0010
0000
1000
0100
1000
0000
0001
0010
0001
0000
1000
0010
,
1000
0001
0100
0010
0000
0010
1000
0100
,
0010
0001
0000
0001
0010
0100
1000
0010
,
0100
0001
0100
0000
0100
0010
1000
0000
,
1000
0100
0010
0001
0010
0100
1000
0001
,
0100
0010
1000
0000
1010
0000
1000
0100
,
0010
0001
1000
0001
0000
0001
0010
0100
,
1000
0100
1000
0000
1100
0000
0000
0000
,
0001
0000
0001
0010
0000
0000
0000
0000
,
0001
0100
0001
0000
0101
0000
0000
0000
,
0001
0100
0010
1000
0000
0000
0010
1000
,
0001
0000
0000
0000
;

//---------------dance-single - Renard----------------
#NOTES:
     dance-single:
     Renard:
     Medium:
     5:
     0.324,0.380,0.064,0.009,0.000:
0000
0000
0000
0000
,
0000
0000
0000
0000
,
0000
0000
0000
0000
,
0000
0000
0000
0000
,
0000
0000
0000
0000
,
0000
0000
0000
0000
,
0000
0000
0000
0000
,
0000
0000
0000
0000
,
1000
0000
0100
1000
0001
0000
0010
0001
,
0000
1000
0000
0001
0100
0000
0001
0000
,
1000
0000
0100
1000
0100
0000
1000
0001
,
0000
0010
0000
0001
1000
0000
0001
0000
,
0100
0000
0010
1000
0010
0000
1000
0001
,
0000
0100
0000
0001
1000
0000
0001
0000
,
0010
0000
0100
1000
0100
0000
1000
0001
,
0000
0100
0000
0001
1000
0000
0000
0000
,
0001
0001
1000
1000
,
0100
1000
0100
1000
0100
0000
1000
0000
,
0001
0001
0010
0010
,
0001
0100
0001
0100
0001
0000
1000
0000
,
0100
1000
0100
1000
0000
0000
0001
0000
,
0010
0001
0010
0001
0000
0000
1000
0000
,
0010
0100
0010
0100
0000
0000
0001
0000
,
1000
0100
1000
1100
,
1000
0100
0010
0011
,
0010
0100
1000
0001
1000
0000
1001
0000
,
0001
0100
0010
1000
,
0010
0100
0001
1000
0001
0000
1001
0000
,
1000
0100
0010
0001
,
1000
0001
1000
0000
0001
0000
1001
0000
,
1000
0000
0010
0000
0100
0000
0001
1000
,
0002
0000
0000
0000
,
1003
0100
0010
0001
,
0010
0100
0010
0100
0010
0000
0011
0000
,
0100
1000
0100
0000
1000
0000
0001
0000
,
0100
0010
0100
0010
0100
0000
0010
0000
,
1000
0100
1000
0001
,
0010
0001
0010
0001
0010
0000
0011
0000
,
0010
0100
1000
0001
,
1000
0100
1000
1000
,
0001
0000
0100
0001
0000
0000
0000
1000
,
0000
0100
0010
0001
,
1000
0000
0010
0100
0000
0000
0000
0000
,
0001
0000
0100
0000
0010
0000
1000
0010
,
1000
0000
0000
0010
0000
0000
0000
0000
,
1000
0100
0010
0001
,
1000
0000
0001
1000
0000
0001
1000
0000
,
0001
1000
0000
0001
1000
0000
0001
0000
,
0100
0000
0000
0010
0000
0000
0000
1000
,
0000
0010
0100
0001
,
0010
0000
0000
0100
0000
0000
0000
1000
,
0000
0010
0100
0001
,
0100
0000
0001
0100
0000
0000
0000
0001
,
0000
0000
1000
0000
0100
0000
1000
0001
,
1000
0000
0001
0100
0000
0001
1000
0000
,
0001
0010
0000
0001
1000
0000
0001
0000
,
0100
0000
0100
0010
,
1000
1000
0100
0010
,
0001
0010
0100
0000
,
0010
0001
1000
0000
,
0010
1000
0010
0000
,
1000
0000
0000
0010
0000
1000
0010
0000
,
0000
0100
0001
0000
,
0100
0000
0000
0001
0000
0000
0010
0001
,
0010
0000
0000
0000
;

//---------------dance-single - Renard----------------
#NOTES:
     dance-single:
     Renard:
     Easy:
     2:
     0.229,0.322,0.046,0.018,0.000: // measure 1
0000
0000
0000
0000
,  // measure 2
0000
0000
0000
0000
,  // measure 3
0000
0000
0000
0000
,  // measure 4
0000
0000
0000
0000
,  // measure 5
0000
0000
0000
0000
,  // measure 6
0000
0000
0000
0000
,  // measure 7
0000
0000
0000
0000
,  // measure 8
0000
0000
0000
0000
,  // measure 9
1000
0001
1000
1001
,  // measure 10
0001
1000
0001
1001
,  // measure 11
1000
0001
1000
1001
,  // measure 12
0001
1000
0001
0000
,  // measure 13
0100
0010
0100
0110
,  // measure 14
0010
0100
0010
0110
,  // measure 15
0010
0100
0010
1000
,  // measure 16
0002
0000
0000
0000
,  // measure 17
1003
1000
0100
0000
,  // measure 18
0010
0010
0001
0000
,  // measure 19
1000
1000
0010
0000
,  // measure 20
0100
0100
0001
1000
,  // measure 21
0100
0100
0010
0000
,  // measure 22
0001
0001
1000
0000
,  // measure 23
0010
0010
0100
0000
,  // measure 24
0001
0100
0010
1000
,  // measure 25
0010
1000
0100
0000
,  // measure 26
0010
0000
0001
0000
,  // measure 27
0010
0100
1000
0000
,  // measure 28
0001
0000
0100
0000
,  // measure 29
0010
1000
0010
0000
,  // measure 30
0100
0000
0001
0000
,  // measure 31
0010
0100
1000
0000
,  // measure 32
0002
0000
0000
0000
,  // measure 33
0013
0001
1000
0100
,  // measure 34
0010
0001
0010
0010
,  // measure 35
0001
0010
0100
0010
,  // measure 36
0100
1000
0100
0100
,  // measure 37
1000
0010
0100
0001
,  // measure 38
0100
0010
1000
0000
,  // measure 39
0010
0000
0100
0001
,  // measure 40
1000
0000
0001
0000
,  // measure 41
1000
0000
0100
0000
,  // measure 42
1000
0001
1000
0000
,  // measure 43
0001
0000
0100
0000
,  // measure 44
0001
1000
0001
0000
,  // measure 45
1000
0000
0010
0000
,  // measure 46
1000
0001
1000
0000
,  // measure 47
0001
0000
0001
0000
,  // measure 48
0100
0000
0100
0100
,  // measure 49
0010
0010
0010
0000
,  // measure 50
0010
1000
0010
0000
,  // measure 51
0100
0100
0100
0001
,  // measure 52
0100
0001
0100
0000
,  // measure 53
0001
1000
0001
0000
,  // measure 54
1000
0100
1000
0000
,  // measure 55
0001
0000
0001
0100
,  // measure 56
0001
1000
0100
1000
,  // measure 57
0001
0000
0001
0000
,  // measure 58
0001
0100
0001
0000
,  // measure 59
1000
0000
1000
0000
,  // measure 60
1000
0100
1000
0000
,  // measure 61
0001
0000
0010
0000
,  // measure 62
0100
0000
1000
0000
,  // measure 63
0010
0100
0001
0000
,  // measure 64
0100
0000
0010
1000
,  // measure 65
0001
0000
0000
0000
;
