#TITLE:Sugarkill X;
#SUBTITLE:;
#ARTIST:Emoticon x;
#TITLETRANSLIT:;
#SUBTITLETRANSLIT:;
#ARTISTTRANSLIT:;
#CREDIT:;
#BANNER:x.png;
#BACKGROUND:x-bg.png;
#LYRICSPATH:;
#CDTITLE:;
#MUSIC:x.ogg;
#OFFSET:0.000;
#SAMPLESTART:49.940;
#SAMPLELENGTH:12.000;
#SELECTABLE:YES;
#BPMS:0.000=240.000;
#STOPS:;
#BGCHANGES:;

//---------------dance-single - Renard----------------
#NOTES:
     dance-single:
     Renard:
     Hard:
     10:
     0.907,0.930,0.979,0.054,0.033:
0000
0000
0000
0000
,
0000
0000
0000
0000
,
0000
0000
0000
0000
,
0000
0000
0000
0000
,
1001
0000
0000
0000
0100
0000
0000
0010
,
0000
1000
0000
0000
0010
0000
0000
0100
,
2001
3001
1002
1003
,
0010
1000
0001
1000
0100
0000
1000
0000
,
0001
0000
0010
0000
0100
0000
1000
0010
,
0000
0010
0100
0000
0001
0000
0100
0000
,
0010
0000
1000
0000
0001
0100
0000
0000
,
0010
1000
0100
0010
,
0001
0000
0010
0000
0100
0000
1000
0001
,
0000
0001
1000
0000
0010
0000
0100
0000
,
0001
0000
0010
0000
0100
1000
0000
0000
,
1001
0000
1000
0010
,
0100
0000
0001
0100
,
0010
1000
0000
0000
0100
0000
0000
0010
,
0001
0000
0010
0100
,
1000
0010
0000
0100
0001
0000
0100
0000
,
0110
0000
0000
0010
1000
0000
0100
0000
,
0110
0000
0000
0010
0001
0000
0100
0000
,
0101
0100
0110
0010
,
1010
1001
1100
0011
,
0001
1000
0001
0000
0100
0010
0100
0000
,
0001
1000
0001
0000
0110
0000
0000
0000
,
0101
0110
1010
1100
,
1001
0000
1100
0000
0110
0000
0010
0001
,
0100
0101
0110
1001
,
1100
0000
0000
0000
0110
0000
0000
0000
0011
0000
0000
0110
0000
0000
1100
0000
,
1000
1010
0101
0110
,
1010
0000
1001
0000
1100
0000
0100
0010
,
0001
1100
0011
1001
,
0001
0100
0000
0110
0000
1001
0000
1100
,
1100
0011
1001
0110
,
0101
0000
0110
0000
0010
1000
0100
0010
,
0001
0110
1100
1001
,
1010
0000
0000
0000
0101
0000
0000
0000
0001
0000
0000
1000
0000
0000
0001
0000
,
1000
1100
0011
0110
,
1001
0000
0110
0000
0001
0100
0010
1000
,
0001
1100
1001
0110
,
0001
0000
0010
0000
0100
0000
1000
0000
0001
1000
0001
0000
1000
0001
1000
0000
,
0001
0100
0010
1000
0100
1000
0001
0010
,
0100
0010
0001
0100
0010
0100
0001
0100
,
0010
1000
0100
0010
0100
1000
0010
0100
,
0001
0100
0010
0100
0001
1000
0100
0001
,
0100
0010
0001
0010
0100
1000
0010
0100
,
0001
0100
0010
0100
0001
1000
0100
0010
,
0011
0000
0010
0100
0110
0000
0100
1000
,
1010
0000
0000
0101
0000
0000
1010
0000
0000
0000
0001
0100
0001
0000
0000
0000
,
1100
0000
0010
0000
0001
0100
0010
0000
,
1000
0100
0010
0001
0000
0001
0010
0100
,
1000
0001
0100
0000
0010
0100
0010
0000
,
1000
0010
1000
0001
0000
0110
0000
0001
,
1000
0100
0110
0011
,
0001
0010
0100
1000
0000
0100
1000
0010
,
0100
0101
0110
1010
,
1001
1100
0000
0011
0000
0110
0000
1001
,
1010
0000
0001
0000
0100
0010
1000
0000
,
0100
0010
0001
0010
0000
0010
0100
1000
,
0001
0000
0100
0000
0010
1000
0010
0000
,
1000
0010
0100
0001
0000
0110
0000
1001
,
1100
1100
0011
0011
,
0100
0010
0001
1000
0000
1000
0010
0100
,
0001
0100
0010
0000
0010
1000
0001
0000
,
2022
0000
0000
3033
,
0100
0001
0010
0100
1000
0100
1000
0100
,
0010
0001
0010
0100
0010
0001
0100
0010
,
0100
1000
0100
0010
0100
0001
0010
0100
,
0001
0100
0010
0100
1000
0100
1000
0100
,
1000
0001
1000
0010
0100
0001
0100
0010
,
0100
0001
0010
0100
0001
0100
0010
0001
,
0100
0010
1000
0100
0010
1000
0010
0100
,
1000
0010
0100
0001
0100
0010
1000
0000
,
0010
1000
0001
1000
0100
1000
0001
0010
,
0100
0010
0001
0010
0100
0010
0001
0100
,
0010
0100
0001
0100
0010
1000
0100
0010
,
0001
0010
0100
1000
0001
0010
0100
1000
,
0100
1000
0001
1000
0010
0100
0001
0100
,
0010
0100
0001
1000
0100
1000
0001
1000
,
0100
0010
0001
0010
0100
1000
0010
0001
,
0010
0100
1000
0100
0001
0100
0010
0100
,
0010
0100
0001
0000
0101
0000
0100
0010
,
1000
0100
1000
0000
1100
0000
0100
1000
,
0010
0100
0001
0000
0110
0000
0100
0010
,
1000
0100
0010
0000
0001
0010
0100
1000
,
0001
0000
1000
0000
1010
0000
0010
0100
,
0001
0100
0010
0000
0110
0000
0010
0000
,
1000
0100
0010
0001
,
0010
0100
1000
0001
0000
0001
0100
0010
,
0110
0000
0000
0000
;

//---------------dance-single - Renard----------------
#NOTES:
     dance-single:
     Renard:
     Medium:
     8:
     0.517,0.734,0.000,0.011,0.000:
0000
0000
0000
0000
,
0000
0000
0000
0000
,
0000
0000
0000
0000
,
0000
0000
0000
0000
,
1000
0000
0001
0000
,
0100
0001
1000
0100
,
1000
0000
1000
0000
,
0001
0100
0001
0100
,
0010
0000
0010
1000
,
0000
0100
0000
0000
0010
0000
0001
0000
,
1000
0000
0000
0000
0001
1000
0000
0000
,
0010
0000
0100
0000
,
0001
0000
0000
0000
0000
1000
0100
0000
,
0010
0000
0001
0000
,
0010
0000
0000
0000
0100
1000
0000
0000
,
0001
0000
0010
0000
,
0001
0000
0000
1000
,
0000
0010
0000
0000
0100
0000
0000
0000
,
0001
0000
0000
0000
1000
0100
0000
0000
,
1000
0000
0001
0000
,
0010
0000
0001
1000
,
0000
0001
0000
0000
0100
0000
0000
0000
,
0001
0000
1000
0000
,
0001
1000
0001
1000
,
0010
0010
0010
0010
,
0010
0010
0010
0000
,
1000
0100
1000
0100
,
1000
0000
0001
0000
0010
0000
0001
0010
,
0001
0010
0100
1000
,
0001
0001
0001
0000
,
0100
0010
1000
0001
,
0100
0000
0010
0000
1000
0000
0001
1000
,
0001
1000
0100
0010
,
0001
0000
0010
0001
0000
0010
0000
0001
,
0010
0100
1000
0001
,
0100
0000
0010
0000
1000
0000
0001
1000
,
0001
1000
0100
0010
,
0001
1000
0001
1000
,
0001
0100
0010
1000
,
0100
0000
1000
0000
0001
0000
0010
0001
,
0010
0001
1000
0010
,
0100
0001
0010
0100
,
1000
0000
1000
0000
,
0100
0000
0000
0000
1000
0000
0100
1000
,
0100
0000
1000
0000
,
0100
1000
0100
0000
,
1000
0000
0001
0000
,
0010
0000
0001
0010
,
0001
0010
0001
1000
,
0010
0000
0000
0000
0000
0010
1000
0000
,
0001
0100
0001
1000
,
0100
0000
1000
0001
0000
0000
0010
0000
,
0001
1000
0010
0100
,
0001
0000
0010
0100
0000
0000
1000
0000
,
0001
0100
0010
1000
,
0001
0000
0100
0001
0000
0000
1000
0000
,
0100
0010
0001
0010
,
0100
0000
1000
0001
0000
0100
0000
0001
,
1000
0010
0100
0001
,
0010
0001
0010
0001
0000
0000
0010
0000
,
0100
1000
0001
0100
,
0010
1000
0010
1000
0000
0000
0000
0000
,
0100
1000
0001
0010
,
0001
1000
0001
1000
0000
0000
0001
0000
,
0100
0010
1000
0001
,
2000
0000
0000
0000
,
3001
0000
0100
0000
0001
0000
1000
0001
,
1000
0000
0100
0000
1000
0000
0001
1000
,
0001
0000
1000
0000
0001
0000
0010
0100
,
0010
0000
0100
1000
0100
0000
1000
0001
,
1000
0000
0001
0000
0100
0000
0010
1000
,
0010
0000
1000
0000
0001
0000
0100
0001
,
0100
0001
1000
0100
,
0010
0001
0010
0001
0010
0001
0010
0000
,
0001
0000
0010
0000
0100
0000
1000
0100
,
1000
0000
0001
0000
0100
0000
0010
1000
,
0010
0000
1000
0000
0001
0000
0100
0001
,
0100
0000
0001
1000
0001
0000
1000
0100
,
1000
0000
0001
0000
0010
0000
0001
1000
,
0001
1000
0010
0100
,
0001
1000
0001
0000
1000
0100
1000
0000
,
0001
0010
0100
1000
0001
0010
0100
1000
,
0001
0000
1000
0000
,
0001
0100
0010
0000
,
1000
1000
0010
0010
,
0100
0000
0100
0000
0001
0010
0100
1000
,
0001
0000
0100
0010
,
1000
0000
0100
0000
,
0010
0001
0010
0100
,
1000
0001
1000
0001
0000
0000
0100
0010
,
0100
0000
0000
0000
;

//---------------dance-single - Renard----------------
#NOTES:
     dance-single:
     Renard:
     Easy:
     4:
     0.409,0.489,0.054,0.033,0.000: // measure 1
0000
0000
0000
0000
,  // measure 2
0000
0000
0000
0000
,  // measure 3
0000
0000
0000
0000
,  // measure 4
0000
0000
0000
0000
,  // measure 5
0000
0000
0000
0000
,  // measure 6
0000
0000
0000
0000
,  // measure 7
0000
0000
0000
0000
,  // measure 8
0000
0000
0000
0000
,  // measure 9
0001
0000
0001
1000
,  // measure 10
0100
0000
0100
0000
,  // measure 11
1000
0000
1000
0001
,  // measure 12
0010
0000
0010
0000
,  // measure 13
0001
0000
0001
1000
,  // measure 14
0010
0100
0001
0010
,  // measure 15
0100
0000
0100
1000
,  // measure 16
0010
0000
0010
0000
,  // measure 17
0100
0000
0100
0010
,  // measure 18
1000
0100
0010
0000
,  // measure 19
0110
0000
0010
0001
,  // measure 20
1000
0010
0100
0000
,  // measure 21
0110
0000
0100
0001
,  // measure 22
0010
0000
0010
0100
,  // measure 23
1000
0010
0100
0001
,  // measure 24
0010
0100
1000
0001
,  // measure 25
0100
0000
0000
0000
,  // measure 26
0000
0000
0110
0000
,  // measure 27
0010
1000
0010
0000
,  // measure 28
1000
0001
1000
0000
,  // measure 29
0001
0100
0001
0000
,  // measure 30
0010
0001
0010
0000
,  // measure 31
0100
1000
0100
0000
,  // measure 32
1000
0010
1000
0000
,  // measure 33
0001
0100
0001
1000
,  // measure 34
0100
0100
0100
0000
,  // measure 35
1000
0001
1000
0001
,  // measure 36
0010
0100
0010
0100
,  // measure 37
1000
0001
1000
0001
,  // measure 38
0010
0100
0010
0100
,  // measure 39
1000
0001
1000
0001
,  // measure 40
0010
0100
0010
0100
,  // measure 41
1000
0001
1000
0001
,  // measure 42
0010
0100
0010
0100
,  // measure 43
1000
0000
0001
0000
,  // measure 44
0000
1000
0001
0000
,  // measure 45
0100
0000
0010
0000
,  // measure 46
0000
0100
0010
0000
,  // measure 47
1000
0000
0000
0000
,  // measure 48
0010
0000
0000
0000
,  // measure 49
0100
0000
0001
0000
,  // measure 50
1000
0000
0000
0001
,  // measure 51
1000
0100
1000
0100
,  // measure 52
0010
0010
0010
0000
,  // measure 53
0001
0100
0001
0100
,  // measure 54
0010
0000
0010
0000
,  // measure 55
1000
0100
1000
0100
,  // measure 56
0010
0010
0010
0000
,  // measure 57
0001
0100
0001
0100
,  // measure 58
0010
0000
0010
0000
,  // measure 59
1000
0010
1000
0010
,  // measure 60
1000
0010
1000
0000
,  // measure 61
0001
0100
0001
0100
,  // measure 62
0001
0100
0001
0000
,  // measure 63
0010
0001
0010
0000
,  // measure 64
0100
1000
0100
0000
,  // measure 65
1000
0010
1000
0001
,  // measure 66
0200
0000
0000
0000
,  // measure 67
0301
0100
0001
0100
,  // measure 68
0001
0100
0001
0100
,  // measure 69
0010
1000
0010
1000
,  // measure 70
0010
1000
0010
1000
,  // measure 71
0100
1000
0100
1000
,  // measure 72
0100
1000
0100
1000
,  // measure 73
0001
0010
0001
0010
,  // measure 74
0002
0000
0000
0000
,  // measure 75
1003
0001
1000
0001
,  // measure 76
1000
0001
1000
0001
,  // measure 77
0100
0010
0100
0010
,  // measure 78
0100
0010
0100
0010
,  // measure 79
1000
0010
1000
0010
,  // measure 80
1000
0010
1000
0010
,  // measure 81
0100
0001
0100
0001
,  // measure 82
2000
0000
0000
0000
,  // measure 83
3100
0000
1100
0000
,  // measure 84
0100
1000
0100
0000
,  // measure 85
0010
0000
0010
0000
,  // measure 86
0001
0010
0100
1000
,  // measure 87
0001
0000
0001
0010
,  // measure 88
0001
0000
1000
0000
,  // measure 89
0001
0100
0010
0100
,  // measure 90
0010
1000
0001
0100
,  // measure 91
1001
0000
0000
0000
;
