#TITLE:Subculture (Upbeats Remix);
#SUBTITLE:;
#ARTIST:Styles of Beyond;
#TITLETRANSLIT:;
#SUBTITLETRANSLIT:;
#ARTISTTRANSLIT:;
#CREDIT:;
#BANNER:sub.png;
#BACKGROUND:sub-bg.png;
#LYRICSPATH:;
#CDTITLE:;
#MUSIC:sub.ogg;
#OFFSET:0.000;
#SAMPLESTART:10.517;
#SAMPLELENGTH:12.000;
#SELECTABLE:YES;
#BPMS:0.000=174.000;
#STOPS:29.750=0.690
,91.500=0.690
;
#BGCHANGES:;

//---------------dance-single - Renard----------------
#NOTES:
     dance-single:
     Renard:
     Hard:
     8:
     0.649,0.591,0.206,0.039,0.069:
0000
0000
0000
0000
,
0000
0000
0000
0000
,
0000
0000
0000
0000
,
0000
0000
0000
0000
,
1000
0100
0011
0000
0001
0100
0000
0010
,
1000
0000
0100
0010
0000
0001
0000
1001
,
0000
0110
0000
0010
1000
0000
0001
0000
,
1001
0000
0000
0000
0020
0000
0200
0330
0010
0000
0100
0000
0001
0000
0010
0000
,
0100
1000
0010
0100
0001
1000
0001
0000
,
1001
0000
0001
0100
0010
0000
1000
0100
,
0010
0001
0010
0100
0000
1000
0000
0001
,
0100
0010
1000
0000
1001
0000
1100
0000
,
1000
0100
0010
0001
0000
0001
0010
0100
,
1000
0010
0100
0000
0001
0100
0010
1000
,
0100
1000
0001
0010
0001
1000
0010
1000
,
0001
0100
0001
0000
1000
0100
0010
0000
,
0001
0010
0100
0000
1000
0001
0100
0010
,
1000
0000
0001
0000
1000
0100
0010
0000
,
0001
0010
0100
1000
0001
0100
0010
1000
,
1001
0000
1001
0000
0010
1000
0001
0010
,
0100
1000
0010
0100
0001
0010
0001
1000
,
0001
0000
0100
0001
1000
0000
0100
0000
,
0010
0001
0010
0100
2200
0000
0010
3300
,
1000
0100
0010
0001
0010
0000
0100
1000
,
0010
0100
0001
1000
0001
0000
0100
0010
,
0000
1000
0100
0000
0011
0000
0010
0100
,
0000
1000
0001
0000
0100
0000
0010
1000
,
0001
0000
0100
0000
0010
1000
0000
0100
,
0010
0000
0001
0010
0000
0100
0000
1000
,
0000
0010
0100
0000
0001
0100
0010
0000
,
1000
0000
0100
0010
0001
0010
0100
0000
,
0110
0000
0100
1000
0010
0000
0100
0001
,
0100
0010
1000
0000
0001
0000
1000
0100
,
0010
0000
0001
0000
0010
0000
0100
1000
,
0000
0010
0100
0001
0100
0000
0010
1000
,
0000
0001
1000
0000
0100
1000
0000
0001
,
1000
0000
0010
1000
0000
0001
0000
1000
,
0000
0100
0010
0000
0001
0000
0010
0000
,
0100
0000
1000
0001
0100
0001
1001
0000
,
0001
0100
0010
1000
0100
0010
0001
0010
,
0100
0000
1000
0000
0010
0000
0100
0000
0001
0000
0000
0001
0000
0000
0001
0000
,
0100
0010
1000
0100
0010
0001
0010
0100
,
1000
0000
0010
0000
0100
0000
0001
0000
1000
0000
0000
1000
0000
0000
1000
0000
,
0001
0100
0010
1000
0100
1000
0001
0010
,
0001
0000
0010
0000
0100
0000
1000
0000
0010
0000
0000
0010
0000
0000
0010
0000
,
0100
0001
0010
0001
1000
0010
0100
0001
,
0010
0000
0100
0000
1000
0000
0010
0000
0100
0000
0000
0100
0000
0000
0100
0000
,
0001
0010
0100
1000
0100
0010
0100
1000
,
0010
0000
0100
0000
0001
0000
0010
0000
0001
0000
0000
0001
0000
0000
0001
0000
,
0010
0100
1000
0010
0100
0001
0010
0100
,
0010
0000
0001
0000
1000
0000
0010
0000
0100
0000
0000
0100
0000
0000
0100
0000
,
0010
0000
0010
0000
0010
0000
0010
0100
,
0010
0000
0010
0000
0010
0000
0010
0100
,
0010
0000
0010
0000
0010
0000
0010
0100
,
0010
0100
0010
0100
0010
0000
0010
0000
,
0010
1000
0001
0100
0010
1000
0100
0010
,
0001
0000
0010
0000
0100
0000
1000
0000
0001
0000
0000
1001
0000
0000
0001
0000
,
0100
0001
1000
0100
0010
0001
0010
0100
,
1000
0000
0010
0000
0100
0000
0001
0000
0010
0000
0000
0110
0000
0000
0010
0000
,
0100
1000
0010
0100
0001
1000
0010
0100
,
0001
0000
0010
0000
0100
0000
1000
0000
0100
0000
0000
0110
0000
0000
0100
0000
,
1000
0010
0100
0001
1000
0010
0100
0001
,
0010
0000
0100
0000
0010
0000
0001
0000
1000
0000
0000
1001
0000
0000
0001
0000
,
0100
0001
1000
0010
0100
0001
0010
0100
,
1000
0000
0100
0000
0010
0000
0001
0000
1000
0000
0000
1001
0000
0000
1000
0000
,
0010
1000
0001
0010
0100
1000
0100
0010
,
0001
0000
0100
0000
0010
0000
1000
0000
0100
0000
0000
0110
0000
0000
0100
0000
,
0010
0001
0100
0010
1000
0001
0100
0010
,
1000
0000
0100
0000
0010
0000
0001
0000
0010
0000
0000
0110
0000
0000
0010
0000
,
0001
0100
0010
1000
0001
0100
0010
1000
,
0100
0000
0010
0000
0100
0000
1000
0000
0001
0000
0000
1001
0000
0000
0001
0000
;

//---------------dance-single - Renard----------------
#NOTES:
     dance-single:
     Renard:
     Medium:
     5:
     0.378,0.382,0.000,0.039,0.000:
0000
0000
0000
0000
,
0000
0000
0000
0000
,
0000
0000
0000
0000
,
0000
0000
0000
0000
,
1000
0000
0001
0000
0000
0100
0000
0000
,
0010
0000
0000
1000
0000
0100
0000
0010
,
0000
0001
0000
0000
0010
0000
0000
0000
,
0100
0000
1000
0001
0100
0000
0010
0000
,
1000
0000
0010
0000
0100
0001
0100
0000
,
0001
0000
1000
0100
,
1000
0001
0010
0001
,
1000
0001
1000
0000
0001
0000
0100
0000
,
0010
1000
0001
1000
,
0100
1000
0100
0000
1000
0000
0001
0000
,
0010
0000
0001
0000
1000
0000
0001
0100
,
0001
0100
0010
1000
,
0001
0000
1000
0000
0100
1000
0100
0000
,
1000
0000
1000
0000
0001
0010
0001
0000
,
1000
0001
0100
0010
,
1000
1000
0010
0100
,
0001
0000
1000
0000
0100
0000
1000
0001
,
1000
0001
0100
0010
,
1000
0000
0001
0000
0100
0001
0100
0000
,
0001
0000
1000
0000
0100
0000
1000
0001
,
0010
0001
0000
1000
0001
0000
0000
0100
,
0000
0010
1000
0000
0010
0000
1000
0001
,
0000
0100
0001
0000
1000
0000
0000
0000
,
0100
0000
1000
0000
0001
0010
0000
0001
,
0010
0000
0001
0010
0000
0100
0000
1000
,
0000
0010
0100
0000
0001
0000
0100
0000
,
0010
0000
1000
0010
1000
0010
1000
0000
,
0010
0000
1000
0000
0010
0000
0100
0001
,
0000
0100
0000
0001
0100
0000
0000
0000
,
0001
0000
1000
0000
0100
0000
1000
0001
,
0000
1000
0100
0000
1000
0000
0000
0000
,
0001
0000
0010
0000
0001
1000
0000
0010
,
0100
0000
0001
0010
0000
0100
0000
1000
,
0000
0001
0100
0000
0010
0000
1000
0000
,
0010
0000
0100
0001
0100
0001
0100
0000
,
0010
0000
0010
1000
,
0100
0020
0031
0000
,
0001
0000
0010
0100
,
1000
0020
0130
0000
,
0100
0000
0001
0010
,
0100
2000
3001
0000
,
0001
0000
0010
0100
,
2000
0000
3001
0000
,
1000
0001
1000
0000
,
0001
0100
0010
0000
,
1000
0010
0100
0000
,
0001
0010
0100
0000
,
0100
1000
0100
1000
,
0001
0010
0001
0010
,
0001
0100
0010
1000
,
0001
0000
1000
0000
,
0001
0000
1000
0000
0000
0001
0100
0000
,
0010
1000
0100
0000
,
1000
0000
0001
0000
0000
0010
0001
0000
,
1000
0010
0100
0000
,
0001
0000
0100
0000
0000
0010
1000
0000
,
0001
1000
0100
0000
,
1000
0000
0001
0000
0000
0010
0001
0000
,
1000
0010
0100
0100
,
0001
1000
0100
0000
1000
0001
0000
1000
,
0001
1000
0001
0000
,
0010
0000
0001
0000
1000
0001
0000
0100
,
0010
1000
0001
0010
,
0001
0000
1000
0000
0000
0001
0000
0000
,
0100
0010
1000
0100
,
1000
0000
0001
0000
0000
0010
0000
0000
,
0001
0000
1000
0000
0010
0000
0100
0010
;

//---------------dance-single - Renard----------------
#NOTES:
     dance-single:
     Renard:
     Easy:
     3:
     0.282,0.312,0.000,0.000,0.000: // measure 1
0000
0000
0000
0000
,  // measure 2
0000
0000
0000
0000
,  // measure 3
0000
0000
0000
0000
,  // measure 4
0000
0000
0000
0000
,  // measure 5
0000
1000
0000
0100
,  // measure 6
1000
0100
1000
0100
,  // measure 7
0000
0010
0000
0001
,  // measure 8
0010
0001
1000
0001
,  // measure 9
1000
0001
0100
0010
,  // measure 10
1000
0000
0010
1000
,  // measure 11
0001
0100
0001
0010
,  // measure 12
0100
0100
1000
0001
,  // measure 13
1000
0100
0010
0001
,  // measure 14
0010
0100
1000
0001
,  // measure 15
1000
0000
1000
0100
,  // measure 16
0010
0000
0010
0001
,  // measure 17
1000
0000
0001
0100
,  // measure 18
0001
0000
1000
1000
,  // measure 19
0001
0001
0010
0001
,  // measure 20
1000
0001
1000
0000
,  // measure 21
1000
0001
0100
0010
,  // measure 22
1000
1000
0010
0010
,  // measure 23
0100
0001
0100
0000
,  // measure 24
0010
0000
0010
0000
,  // measure 25
1000
0010
1000
0000
,  // measure 26
0001
0000
0001
0000
,  // measure 27
0100
0001
1000
0000
,  // measure 28
0010
0010
0100
0100
,  // measure 29
0010
1000
0001
0000
,  // measure 30
0100
0100
0010
0010
,  // measure 31
1000
1000
0001
0001
,  // measure 32
1000
0000
1000
0000
,  // measure 33
0100
0010
0001
0000
,  // measure 34
0010
0000
0010
0000
,  // measure 35
0100
1000
0100
0000
,  // measure 36
1000
0000
1000
0000
,  // measure 37
0001
0100
0001
0000
,  // measure 38
1000
0000
1000
0000
,  // measure 39
0001
1000
0010
1000
,  // measure 40
0001
0000
1000
0000
,  // measure 41
0100
0010
0001
0000
,  // measure 42
0010
0000
0100
0000
,  // measure 43
1000
0100
1000
0000
,  // measure 44
0001
0000
0010
0000
,  // measure 45
0001
1000
0010
0000
,  // measure 46
0100
0000
0001
0000
,  // measure 47
1000
0100
1000
0000
,  // measure 48
0001
0000
0001
0000
,  // measure 49
0010
0000
0010
0000
,  // measure 50
0100
0000
0100
0000
,  // measure 51
1000
0010
1000
0000
,  // measure 52
0010
0000
0010
0000
,  // measure 53
1000
0000
0001
0100
,  // measure 54
0001
0000
0001
0000
,  // measure 55
1000
1000
1000
0000
,  // measure 56
0100
1000
0100
1000
,  // measure 57
0001
0010
0001
0010
,  // measure 58
0100
1000
0100
1000
,  // measure 59
0001
0000
0001
0000
,  // measure 60
1000
0010
1000
0010
,  // measure 61
0100
0001
0100
0001
,  // measure 62
1000
0010
1000
0010
,  // measure 63
0100
0000
0001
0000
,  // measure 64
1000
0000
0100
1000
,  // measure 65
0001
0000
0010
0001
,  // measure 66
1000
0000
0010
1000
,  // measure 67
0001
0000
0100
0000
,  // measure 68
0001
0000
1000
0100
,  // measure 69
1000
0000
0001
0010
,  // measure 70
0001
0000
1000
0010
,  // measure 71
0100
0000
0001
0010
;
